osu file format v14

[General]
AudioFilename: audio.mp3
AudioLeadIn: 100
PreviewTime: 57937
Countdown: 0
SampleSet: Soft
StackLeniency: 0.7
Mode: 0
LetterboxInBreaks: 0
WidescreenStoryboard: 0

[Editor]
Bookmarks: 116830
DistanceSpacing: 0.4
BeatDivisor: 4
GridSize: 4
TimelineZoom: 2.7

[Metadata]
Title:Oboro
TitleUnicode:朧
Artist:HHHxMMxST
ArtistUnicode:HHH×MM×ST
Creator:jordanlr7
Version:pewdekz' Hard
Source:pop'n music 20 fantasia
Tags:kkipalt morinaga dailycare pewdekz ryu* dai. vj halka 森永真由美 mayumi moimoi senya starving trancer japanese pop j-pop jpop electronic video game videogame sakura luminance
BeatmapID:3596168
BeatmapSetID:1536560

[Difficulty]
HPDrainRate:4
CircleSize:3.5
OverallDifficulty:6.5
ApproachRate:7.5
SliderMultiplier:1.3
SliderTickRate:0.5

[Events]
//Background and Video events
0,0,"bg.jpg",0,0
//Break Periods
2,74647,78455
//Storyboard Layer 0 (Background)
//Storyboard Layer 1 (Fail)
//Storyboard Layer 2 (Pass)
//Storyboard Layer 3 (Foreground)
//Storyboard Layer 4 (Overlay)
//Storyboard Sound Samples

[TimingPoints]
354,402.684563758389,4,2,1,40,1,0
6796,-105.263157894737,4,2,1,50,0,0
6998,-105.263157894737,4,2,1,50,0,0
7803,-105.263157894737,4,2,1,50,0,0
8005,-105.263157894737,4,2,1,50,0,0
8206,-105.263157894737,4,2,1,50,0,0
8407,-105.263157894737,4,2,1,50,0,0
8609,-105.263157894737,4,2,1,50,0,0
9414,-105.263157894737,4,2,1,50,0,0
9616,-105.263157894737,4,2,1,50,0,0
9817,-105.263157894737,4,2,1,50,0,0
10018,-105.263157894737,4,2,1,50,0,0
10421,-105.263157894737,4,2,1,50,0,0
10622,-105.263157894737,4,2,1,50,0,0
10823,-105.263157894737,4,2,1,50,0,0
11025,-105.263157894737,4,2,1,50,0,0
11629,-105.263157894737,4,2,1,50,0,0
11830,-105.263157894737,4,2,1,50,0,0
12434,-105.263157894737,4,2,1,50,0,0
12635,-105.263157894737,4,2,1,50,0,0
13239,-100,4,2,1,50,0,0
13441,-100,4,2,1,50,0,0
14246,-100,4,2,1,50,0,0
14447,-100,4,2,1,50,0,0
14649,-100,4,2,1,50,0,0
14850,-100,4,2,1,50,0,0
15857,-100,4,2,1,50,0,0
16058,-100,4,2,1,50,0,0
16260,-100,4,2,1,50,0,0
16461,-100,4,2,1,50,0,0
16662,-100,4,2,1,50,0,0
17266,-100,4,2,1,50,0,0
17468,-100,4,2,1,50,0,0
18072,-100,4,2,1,50,0,0
18273,-100,4,2,1,50,0,0
18676,-100,4,2,1,50,0,0
19078,-100,4,2,1,50,0,0
19682,-100,4,2,1,50,0,0
21293,-100,4,2,1,60,0,0
21494,-100,4,2,1,60,0,0
22098,-100,4,2,1,50,0,0
22904,-95.2380952380952,4,2,1,70,0,0
26125,-95.2380952380952,4,2,1,70,0,0
30958,-100,4,2,1,50,0,0
43038,-100,4,2,1,50,0,0
43843,-95.2380952380952,4,2,1,60,0,0
44045,-95.2380952380952,4,2,1,60,0,0
49481,-95.2380952380952,4,2,1,60,0,0
49682,-95.2380952380952,4,2,1,60,0,0
49884,-95.2380952380952,4,2,1,60,0,0
50488,-95.2380952380952,4,2,1,60,0,0
53508,-93.4579439252336,4,2,1,60,0,0
55421,-95.2380952380952,4,2,1,60,0,0
56729,-93.4579439252336,4,2,1,60,0,0
57535,-93.4579439252336,4,2,1,60,0,0
58340,-90.9090909090909,4,2,1,70,0,1
58441,-90.9090909090909,4,2,1,70,0,1
64783,-90.9090909090909,4,2,1,70,0,1
64884,-90.9090909090909,4,2,1,70,0,1
69666,-90.9090909090909,4,2,1,70,0,1
69817,-90.9090909090909,4,2,1,70,0,1
69868,-90.9090909090909,4,2,1,70,0,1
70018,-90.9090909090909,4,2,1,70,0,1
70069,-90.9090909090909,4,2,1,70,0,1
70219,-90.9090909090909,4,2,1,70,0,1
70270,-90.9090909090909,4,2,1,70,0,1
70421,-90.9090909090909,4,2,1,70,0,1
70472,-90.9090909090909,4,2,1,70,0,1
70622,-90.9090909090909,4,2,1,70,0,1
70823,-90.9090909090909,4,2,1,70,0,1
71226,-90.9090909090909,4,2,1,70,0,0
72837,-90.9090909090909,4,2,1,70,0,0
74447,-100,4,2,1,50,0,0
74548,-100,4,2,1,50,0,0
74850,-100,4,2,1,60,0,0
75656,-100,4,2,1,50,0,0
76058,-100,4,2,1,60,0,0
76461,-100,4,2,1,50,0,0
77669,-100,4,2,1,60,0,0
78072,-100,4,2,1,45,0,0
79682,-100,4,2,1,60,0,0
80890,-97.0873786407767,4,2,1,60,0,0
81696,-97.0873786407767,4,2,1,60,0,0
81897,-97.0873786407767,4,2,1,60,0,0
84112,-103.092783505155,4,2,1,60,0,0
87333,-103.092783505155,4,2,1,60,0,0
90958,-103.092783505155,4,2,1,60,0,0
92166,-103.092783505155,4,2,1,60,0,0
92568,-104.166666666667,4,2,1,60,0,0
93776,-97.0873786407767,4,2,1,60,0,0
94481,-97.0873786407767,4,2,1,60,0,0
95387,-97.0873786407767,4,2,1,60,0,0
96192,-97.0873786407767,4,2,1,60,0,0
96595,-97.0873786407767,4,2,1,60,0,0
96998,-88.4955752212389,4,2,1,60,0,1
97098,-88.4955752212389,4,2,1,60,0,1
101830,-88.4955752212389,4,2,1,60,0,1
102233,-88.4955752212389,4,2,1,60,0,1
102333,-88.4955752212389,4,2,1,60,0,1
102635,-88.4955752212389,4,2,1,60,0,1
103441,-88.4955752212389,4,2,1,60,0,1
103541,-88.4955752212389,4,2,1,60,0,1
105051,-88.4955752212389,4,2,1,60,0,1
108324,-88.4955752212389,4,2,1,60,0,1
108475,-88.4955752212389,4,2,1,60,0,1
108526,-88.4955752212389,4,2,1,60,0,1
108676,-88.4955752212389,4,2,1,60,0,1
108727,-88.4955752212389,4,2,1,60,0,1
108877,-88.4955752212389,4,2,1,60,0,1
108928,-88.4955752212389,4,2,1,60,0,1
109079,-88.4955752212389,4,2,1,60,0,1
109130,-88.4955752212389,4,2,1,60,0,1
109280,-88.4955752212389,4,2,1,60,0,1
109481,-88.4955752212389,4,2,1,60,0,1
109884,-100,4,2,1,60,0,0
110689,-100,4,2,1,45,0,0
113105,-100,4,2,1,60,0,0
113911,-111.111111111111,4,2,1,45,0,0
116125,-100,4,2,1,30,0,0
116327,-100,4,2,1,27,0,0
116528,-100,4,2,1,25,0,0
116783,-100,4,2,1,23,0,0
117031,-100,4,2,1,20,0,0
117264,-100,4,2,1,18,0,0
117645,-100,4,2,1,15,0,0
117837,-100,4,2,1,13,0,0
118053,-100,4,2,1,10,0,0
118239,-100,4,2,1,8,0,0
118441,-100,4,2,1,5,0,0
118743,-100,4,2,1,5,0,0

[Colours]
Combo1 : 255,140,198
Combo2 : 255,156,108
Combo3 : 172,125,162
Combo4 : 113,143,181

[HitObjects]
256,192,5186,12,2,6394,0:0:0:0:
49,88,6796,6,0,B|86:117|86:117|129:90|176:92|176:92|196:46,1,185.249995053291,14|2,0:0|0:0,0:0:0:0:
193,52,7501,1,2,0:0:0:0:
310,231,8407,2,0,P|239:263|241:185,1,185.249995053291,2|2,0:0|0:0,0:0:0:0:
241,185,9112,1,2,0:0:0:0:
430,351,9615,2,0,L|443:267,1,61.7499983510972,2|2,0:0|0:0,0:0:0:0:
500,219,10018,6,0,B|492:172|492:172|471:160|471:160|459:105,1,123.499996702194,2|2,0:0|0:0,0:0:0:0:
388,43,10622,1,2,0:0:0:0:
388,43,10723,2,0,P|349:92|253:94,1,154.374995877743,2|2,0:0|0:0,0:0:0:0:
95,32,11629,2,0,P|75:99|158:78,1,185.249995053291,2|2,0:0|0:0,0:0:0:0:
156,83,12333,1,2,0:0:0:0:
35,198,12837,2,0,P|55:225|65:276,1,61.7499983510972,2|2,0:0|0:0,0:0:0:0:
118,368,13239,6,0,P|136:320|227:285,1,130,6|2,1:2|0:0,0:0:0:0:
292,319,13843,1,2,0:0:0:0:
292,319,13944,1,2,0:0:0:0:
438,245,14447,2,0,L|413:178,1,65,2|2,0:0|0:0,0:0:0:0:
343,134,14850,2,0,P|310:178|220:178,1,130,2|2,0:0|0:0,0:0:0:0:
167,141,15454,1,2,0:0:0:0:
167,141,15555,1,2,0:0:0:0:
17,212,16058,2,0,L|29:139,1,65,2|2,0:0|0:0,0:0:0:0:
20,33,16461,6,0,P|41:56|86:67,1,65,2|2,0:0|0:0,0:0:0:0:
155,34,16864,2,0,P|185:27|228:44,1,65,2|2,0:0|0:0,0:0:0:0:
244,52,17166,2,0,P|279:72|353:59,1,97.5,2|2,0:0|0:0,0:0:0:0:
419,33,17669,2,0,P|459:47|480:83,1,65,2|2,0:0|0:0,0:0:0:0:
498,152,18072,2,0,B|484:207|484:207|492:220|492:220|477:283,1,130,2|2,0:0|0:0,0:0:0:0:
454,366,18676,1,2,0:0:0:0:
454,366,18776,1,2,0:0:0:0:
298,315,19078,2,0,L|283:233,2,65,2|2|2,0:0|0:0|0:0,0:0:0:0:
226,380,19682,5,6,0:0:0:0:
56,307,20488,2,0,L|68:226,1,65,10|10,0:0|0:0,0:0:0:0:
149,198,20890,2,0,L|137:114,1,65,10|10,0:0|0:0,0:0:0:0:
60,84,21293,1,2,1:2:0:0:
256,192,21494,12,2,22501,0:0:0:0:
66,330,22904,6,0,L|77:253,1,68.2499979171754,14|2,0:0|0:0,0:0:0:0:
80,239,23206,1,2,0:0:0:0:
84,215,23307,1,2,1:2:0:0:
36,121,23508,2,0,B|68:136|100:116|100:116|128:95|173:108,1,136.499995834351,2|0,0:0|0:0,0:0:0:0:
251,148,24112,1,2,1:2:0:0:
330,95,24313,1,2,0:0:0:0:
415,161,24515,5,10,0:0:0:0:
415,161,24615,1,2,0:0:0:0:
415,161,24716,2,0,L|421:213,3,34.1249989585877,2|2|2|2,0:0|0:0|1:2|0:0,0:0:0:0:
425,226,25119,2,0,P|402:281|322:299,1,136.499995834351,2|0,0:0|0:0,0:0:0:0:
247,259,25723,1,0,1:2:0:0:
164,311,25924,1,8,0:0:0:0:
74,252,26125,6,0,L|88:171,1,68.2499979171754,8|0,0:0|0:0,0:0:0:0:
107,160,26427,2,0,L|94:71,1,68.2499979171754,8|0,0:0|0:0,0:0:0:0:
90,61,26729,1,8,0:0:0:0:
183,19,26931,1,0,0:0:0:0:
183,19,27031,1,8,0:0:0:0:
183,19,27132,2,0,L|226:27,2,34.1249989585877,8|8|0,0:0|0:0|1:2,0:0:0:0:
273,104,27535,1,8,0:0:0:0:
273,104,27635,1,0,0:0:0:0:
273,104,27736,6,0,P|304:88|346:92,1,68.2499979171754,4|0,0:0|0:0,0:0:0:0:
365,101,28038,2,0,P|396:117|438:113,1,68.2499979171754,8|0,0:0|0:0,0:0:0:0:
459,98,28340,1,8,0:0:0:0:
500,189,28541,2,0,L|492:241,3,34.1249989585877,0|8|8|8,0:0|0:0|0:0|0:0,0:0:0:0:
468,243,28944,1,4,1:2:0:0:
256,192,29347,12,0,30555,0:0:0:0:
41,60,30958,6,0,L|50:134,1,65,12|2,0:0|0:0,0:0:0:0:
124,182,31360,2,0,P|164:133|239:122,1,130,2|10,1:2|0:0,0:0:0:0:
310,150,31964,1,2,0:0:0:0:
398,117,32166,2,0,P|431:127|473:118,1,65,2|2,1:2|0:0,0:0:0:0:
512,203,32568,6,0,B|502:260|502:260|507:269|507:269|497:333,2,130,10|2|10,0:0|1:2|0:0,0:0:0:0:
460,123,33575,2,0,L|456:81,2,32.5,0|0|0,0:0|0:0|1:2,0:0:0:0:
365,144,33978,1,2,0:0:0:0:
299,65,34179,6,0,B|265:71|238:42|238:42|212:13|176:19,1,130,10|0,0:0|1:2,0:0:0:0:
90,33,34783,1,2,0:0:0:0:
34,108,34984,2,0,L|43:182,1,65,10|2,0:0|0:0,0:0:0:0:
69,200,35286,1,2,0:0:0:0:
69,200,35387,2,0,L|59:274,1,65,2|2,1:2|0:0,0:0:0:0:
138,317,35790,6,0,P|96:358|23:354,2,130,10|2|10,0:0|1:2|0:0,0:0:0:0:
151,294,36696,1,0,0:0:0:0:
163,271,36796,2,0,P|186:241|226:224,1,65,0|0,0:0|1:2,0:0:0:0:
300,250,37199,1,0,0:0:0:0:
368,177,37400,6,0,P|353:144|354:107,1,65,8|2,0:0|0:0,0:0:0:0:
458,237,37803,2,0,P|424:277|416:354,1,130,2|10,1:2|0:0,0:0:0:0:
324,377,38407,1,2,0:0:0:0:
324,377,38609,2,0,L|257:361,1,65,2|2,1:2|0:0,0:0:0:0:
215,269,39011,6,0,P|280:268|339:211,2,130,10|2|10,0:0|1:2|0:0,0:0:0:0:
136,212,40018,2,0,L|130:169,2,32.5,0|0|0,0:0|0:0|1:2,0:0:0:0:
58,263,40421,1,2,0:0:0:0:
3,186,40622,6,0,L|33:71,1,97.5,10|0,0:0|0:0,0:0:0:0:
34,66,41025,2,0,P|77:30|158:43,1,130,2|10,1:2|0:0,0:0:0:0:
226,92,41629,1,2,0:0:0:0:
223,111,41729,1,0,0:0:0:0:
220,130,41830,1,2,1:2:0:0:
253,222,42031,1,2,0:0:0:0:
340,266,42233,6,0,B|432:249|432:249|479:267,1,130,10|0,0:0|1:2,0:0:0:0:
470,268,43038,1,8,0:0:0:0:
467,285,43139,1,8,0:0:0:0:
464,301,43239,1,8,0:0:0:0:
461,318,43340,1,8,0:0:0:0:
457,335,43441,2,0,L|410:344,3,32.5,0|0|8|8,1:2|0:0|0:0|0:0,0:0:0:0:
396,367,43843,6,0,L|298:356,1,68.2499979171754,14|2,0:0|0:0,0:0:0:0:
296,275,44246,1,2,1:2:0:0:
323,182,44447,1,2,0:0:0:0:
323,182,44548,2,0,P|321:130|281:81,1,102.374996875763,2|0,0:0|0:0,0:0:0:0:
230,27,45051,2,0,L|154:36,1,68.2499979171754,0|2,1:2|0:0,0:0:0:0:
135,54,45353,1,2,0:0:0:0:
135,54,45454,6,0,L|59:45,1,68.2499979171754,10|2,0:0|0:0,0:0:0:0:
10,119,45857,2,0,P|31:147|30:197,1,68.2499979171754,2|2,1:2|0:0,0:0:0:0:
25,214,46159,2,0,P|19:257|56:314,1,102.374996875763,2|0,0:0|0:0,0:0:0:0:
117,366,46662,2,0,L|187:358,1,68.2499979171754,0|2,1:2|0:0,0:0:0:0:
288,379,47065,6,0,B|300:324|300:324|291:308|291:308|305:241,1,136.499995834351,10|2,0:0|1:2,0:0:0:0:
328,155,47669,1,2,0:0:0:0:
265,85,47870,2,0,P|224:118|131:114,2,136.499995834351,10|2|10,0:0|1:2|0:0,0:0:0:0:
319,10,48877,1,2,0:0:0:0:
409,45,49078,1,2,1:2:0:0:
494,0,49280,1,2,0:0:0:0:
494,0,49380,2,0,B|513:34|513:34|492:119,1,102.374996875763,2|0,0:0|0:0,0:0:0:0:
480,195,49884,1,8,1:2:0:0:
396,230,50085,1,8,0:0:0:0:
396,230,50186,1,8,0:0:0:0:
396,230,50286,6,0,P|362:217|332:183,1,68.2499979171754,10|2,0:0|0:0,0:0:0:0:
295,117,50689,2,0,P|265:94|215:85,1,68.2499979171754,2|2,1:2|0:0,0:0:0:0:
209,99,50991,2,0,P|167:124|107:115,1,102.374996875763,2|0,0:0|0:0,0:0:0:0:
38,73,51494,1,0,1:2:0:0:
0,169,51696,1,2,0:0:0:0:
0,169,51796,1,2,0:0:0:0:
0,169,51897,6,0,L|8:250,1,68.2499979171754,10|2,0:0|0:0,0:0:0:0:
19,330,52300,1,2,1:2:0:0:
108,368,52501,1,2,0:0:0:0:
108,368,52602,2,0,P|148:337|206:328,1,102.374996875763,2|0,0:0|0:0,0:0:0:0:
286,345,53105,2,0,P|316:366|367:364,1,68.2499979171754,2|2,1:2|0:0,0:0:0:0:
375,357,53407,1,2,0:0:0:0:
389,334,53508,6,0,L|381:252,1,69.5499978775025,10|10,0:0|0:0,0:0:0:0:
305,192,53911,1,10,1:2:0:0:
213,235,54112,1,10,0:0:0:0:
141,156,54313,1,10,0:0:0:0:
143,138,54414,1,0,0:0:0:0:
145,120,54515,1,10,0:0:0:0:
222,46,54716,2,0,P|243:67|289:77,1,69.5499978775025,10|10,1:2|0:0,0:0:0:0:
382,42,55119,6,0,B|409:49|436:46|436:46|449:73|467:89,2,104.324996816254,14|6|2,0:3|0:3|0:3,0:0:0:0:
382,138,55924,1,10,0:0:0:0:
256,192,56125,12,0,57132,0:0:0:0:
60,251,57535,5,10,0:0:0:0:
71,232,57635,1,2,0:0:0:0:
88,218,57736,1,2,0:0:0:0:
107,209,57837,1,2,0:0:0:0:
131,203,57937,2,0,P|161:218|209:220,1,69.5499978775025,10|8,1:2|0:0,0:0:0:0:
295,163,58340,6,0,P|328:162|371:205,1,71.5000021820069,14|0,0:0|0:0,0:0:0:0:
413,278,58743,1,0,1:2:0:0:
337,364,58944,1,2,0:0:0:0:
337,364,59045,2,0,L|246:346,1,71.5000021820069,2|0,0:0|0:0,0:0:0:0:
241,328,59347,2,0,L|150:346,1,71.5000021820069,0|2,0:0|1:2,0:0:0:0:
101,282,59749,1,2,0:0:0:0:
163,175,59951,6,0,P|194:190|247:189,1,71.5000021820069,10|0,0:0|0:0,0:0:0:0:
308,120,60353,1,10,1:2:0:0:
417,153,60555,1,2,0:0:0:0:
417,153,60656,1,2,0:0:0:0:
432,267,60857,1,0,1:0:0:0:
432,267,60958,2,0,P|407:287|356:290,1,71.5000021820069,0|2,0:0|1:2,0:0:0:0:
305,367,61360,1,2,0:0:0:0:
201,290,61562,6,0,B|157:290|137:320|137:320|118:351|75:351,1,143.000004364014,10|2,0:0|1:2,0:0:0:0:
7,290,62166,1,2,0:0:0:0:
7,290,62266,2,0,B|16:242|16:242|13:236|13:236|24:177,1,107.25000327301,2|2,0:0|0:0,0:0:0:0:
108,118,62770,1,2,1:2:0:0:
204,158,62971,1,2,0:0:0:0:
294,103,63172,5,10,0:0:0:0:
290,86,63273,1,0,0:0:0:0:
287,69,63374,1,2,0:0:0:0:
284,52,63474,1,0,0:0:0:0:
280,34,63575,2,0,L|220:23,3,35.7500010910034,2|0|2|2,1:2|0:0|0:0|0:0,0:0:0:0:
216,11,63978,1,8,0:0:0:0:
196,28,64078,1,0,0:0:0:0:
172,40,64179,1,0,0:0:0:0:
146,43,64280,1,0,0:0:0:0:
120,38,64380,2,0,P|86:25|29:33,1,71.5000021820069,2|10,1:2|1:2,0:0:0:0:
0,111,64783,6,0,L|16:202,1,71.5000021820069,14|0,0:0|0:0,0:0:0:0:
78,258,65186,1,2,1:2:0:0:
90,362,65387,1,2,0:0:0:0:
90,362,65488,2,0,P|126:351|156:319,1,71.5000021820069,2|0,0:0|0:0,0:0:0:0:
172,306,65790,2,0,P|197:283|248:281,1,71.5000021820069,0|2,0:0|1:2,0:0:0:0:
329,323,66192,1,2,0:0:0:0:
410,251,66394,6,0,L|397:171,1,71.5000021820069,10|0,0:0|0:0,0:0:0:0:
313,114,66796,1,2,1:2:0:0:
213,153,66998,1,2,0:0:0:0:
213,153,67098,1,2,0:0:0:0:
125,92,67300,1,0,1:2:0:0:
125,92,67400,1,0,0:0:0:0:
21,127,67602,2,0,P|13:165|19:206,1,71.5000021820069,2|2,1:2|0:0,0:0:0:0:
66,286,68005,6,0,L|159:275,1,71.5000021820069,14|2,0:0|0:0,0:0:0:0:
205,216,68407,2,0,L|298:227,1,71.5000021820069,2|2,1:2|0:0,0:0:0:0:
301,248,68709,2,0,L|381:232,1,71.5000021820069,2|0,0:0|0:0,0:0:0:0:
396,204,69011,1,2,0:0:0:0:
488,257,69213,1,2,1:2:0:0:
470,359,69414,1,2,0:0:0:0:
361,383,69615,5,10,0:0:0:0:
345,364,69716,1,0,0:0:0:0:
326,350,69817,1,10,0:0:0:0:
304,340,69917,1,0,0:0:0:0:
279,338,70018,2,0,L|292:278,3,35.7500010910034,10|0|10|2,1:2|0:0|0:0|0:0,0:0:0:0:
265,288,70421,1,8,0:0:0:0:
260,264,70521,1,0,0:0:0:0:
256,240,70622,1,2,0:0:0:0:
252,217,70723,1,0,0:0:0:0:
248,192,70823,2,0,P|256:159|302:115,1,71.5000021820069,2|10,1:2|0:0,0:0:0:0:
411,176,71226,5,14,0:0:0:0:
411,176,72031,2,0,L|399:94,1,71.5000021820069,10|10,0:0|0:0,0:0:0:0:
274,60,72434,2,0,L|286:142,1,71.5000021820069,10|10,0:0|0:0,0:0:0:0:
211,218,72837,6,0,P|197:208|163:202,3,35.7500010910034,2|2|2|2,1:2|0:0|0:0|0:0,0:0:0:0:
140,205,73239,2,0,P|122:205|91:190,3,35.7500010910034
84,181,73642,1,0,1:2:0:0:
81,157,73743,1,8,0:0:0:0:
78,134,73843,1,0,1:2:0:0:
75,111,73944,1,8,0:0:0:0:
74,88,74045,2,0,L|81:36,3,35.7500010910034,0|0|8|8,1:2|0:0|0:0|0:0,0:0:0:0:
105,33,74447,5,2,0:0:0:0:
256,192,79280,12,0,80488,0:0:0:0:
99,244,80890,6,0,L|85:132,2,100.4249991572,2|2|2,0:0|0:0|0:0,0:0:0:0:
99,244,82098,1,2,0:0:0:0:
237,362,82501,2,0,P|266:340|320:336,1,66.9499994381332,2|0,0:0|0:0,0:0:0:0:
328,344,82803,2,0,P|362:355|414:343,1,66.9499994381332
425,333,83105,1,8,0:0:0:0:
457,250,83307,1,4,1:2:0:0:
480,82,84112,6,0,P|438:40|425:135,1,189.15000447361,6|2,0:0|0:0,0:0:0:0:
403,125,84817,1,2,0:0:0:0:
208,62,85723,2,0,P|252:113|267:24,1,189.15000447361,2|2,0:0|0:0,0:0:0:0:
281,31,86427,1,2,0:0:0:0:
372,249,86931,2,0,L|352:316,1,63.0500014912033,2|2,0:0|0:0,0:0:0:0:
270,340,87333,6,0,B|242:326|210:342|210:350|210:357|183:377|148:362,1,126.100002982407,2|2,0:0|0:0,0:0:0:0:
49,378,87937,1,2,0:0:0:0:
49,378,88038,2,0,L|64:263,1,94.575002236805,2|2,0:0|0:0,0:0:0:0:
139,229,88541,2,0,L|129:149,1,63.0500014912033,2|2,0:0|0:0,0:0:0:0:
54,86,88944,2,0,P|49:134|117:114,1,126.100002982407,2|2,0:0|0:0,0:0:0:0:
136,38,89548,1,2,0:0:0:0:
136,38,89649,1,2,0:0:0:0:
354,126,90555,6,0,B|385:129|414:117|414:117|434:142|473:164,2,126.100002982407,2|2|0,0:0|1:2|0:0,0:0:0:0:
354,126,91763,2,0,L|338:214,1,63.0500014912033,2|2,1:2|0:0,0:0:0:0:
383,273,92166,2,0,B|332:281|332:281|312:273|312:273|260:281,2,126.100002982407,2|2|0,0:0|1:2|0:0,0:0:0:0:
383,273,93374,2,0,L|372:343,1,62.4000015234375,2|2,1:2|0:0,0:0:0:0:
278,368,93776,5,6,0:0:0:0:
211,297,93978,1,2,0:0:0:0:
117,330,94179,2,0,P|73:322|48:281,1,66.9499994381332,2|10,1:2|0:0,0:0:0:0:
38,280,94481,2,0,L|56:170,1,100.4249991572,10|2,0:0|0:0,0:0:0:0:
58,157,94884,1,8,0:0:0:0:
63,134,94984,1,10,0:0:0:0:
157,79,95186,1,10,0:0:0:0:
246,134,95387,6,0,L|306:121,3,33.4749997190666,10|0|10|0,0:0|0:0|0:0|0:0,0:0:0:0:
305,99,95790,2,0,L|360:112,3,33.4749997190666,10|0|10|0,0:0|0:0|0:0|0:0,0:0:0:0:
368,89,96192,2,0,B|403:93|425:75|425:75|455:71|491:113,1,133.899998876266,2|2,0:0|1:2,0:0:0:0:
512,201,96796,1,2,0:0:0:0:
448,295,96998,6,0,B|412:298|412:298|373:274,1,73.4500002241516,14|0,0:0|0:0,0:0:0:0:
296,215,97400,1,0,1:2:0:0:
204,263,97602,1,2,0:0:0:0:
202,278,97702,1,2,0:0:0:0:
124,210,97904,1,0,0:0:0:0:
126,195,98005,1,0,0:0:0:0:
34,258,98206,2,0,L|51:342,1,73.4500002241516,2|2,1:2|0:0,0:0:0:0:
169,372,98609,6,0,P|194:337|243:323,1,73.4500002241516,10|0,0:0|0:0,0:0:0:0:
328,352,99011,1,2,1:2:0:0:
403,286,99213,1,2,0:0:0:0:
412,274,99313,1,2,0:0:0:0:
414,259,99414,2,0,P|413:235|399:197,2,36.7250001120758,8|0|0,0:0|0:0|0:0,0:0:0:0:
346,146,99817,2,0,P|368:115|362:50,1,73.4500002241516,2|2,1:2|0:0,0:0:0:0:
287,12,100219,6,0,B|247:38|214:19|214:19|179:1|136:30,1,146.900000448303,10|2,0:0|1:2,0:0:0:0:
43,1,100823,1,2,0:0:0:0:
34,13,100924,2,0,B|22:40|22:40|46:121,1,110.175000336227,2|2,0:0|0:0,0:0:0:0:
72,210,101427,1,2,1:2:0:0:
46,310,101629,1,2,0:0:0:0:
148,370,101830,6,0,L|226:358,1,73.4500002241516,10|2,0:0|0:0,0:0:0:0:
282,275,102233,1,2,1:2:0:0:
262,171,102434,1,2,0:0:0:0:
262,171,102535,2,0,P|285:130|282:59,1,110.175000336227,2|0,0:0|0:0,0:0:0:0:
404,35,103038,2,0,P|387:72|397:131,1,73.4500002241516,2|10,1:2|1:2,0:0:0:0:
448,202,103441,6,0,P|455:242|430:297,1,73.4500002241516,14|0,0:0|0:0,0:0:0:0:
377,365,103843,1,2,1:2:0:0:
292,302,104045,1,2,0:0:0:0:
294,287,104145,1,2,0:0:0:0:
346,204,104347,1,0,0:0:0:0:
344,189,104447,1,0,0:0:0:0:
276,99,104649,2,0,B|247:123|247:123|204:124,1,73.4500002241516,2|2,1:2|0:0,0:0:0:0:
91,77,105051,6,0,P|99:122|70:168,1,73.4500002241516,10|0,0:0|0:0,0:0:0:0:
45,249,105454,1,2,1:2:0:0:
95,342,105656,1,2,0:0:0:0:
108,339,105756,1,2,0:0:0:0:
122,337,105857,1,8,0:0:0:0:
136,335,105958,1,0,0:0:0:0:
150,332,106058,1,0,0:0:0:0:
226,261,106260,2,0,P|257:278|302:274,1,73.4500002241516,2|2,1:2|0:0,0:0:0:0:
354,188,106662,5,14,0:0:0:0:
321,82,106864,1,2,0:0:0:0:
417,19,107065,2,0,P|469:27|505:60,1,73.4500002241516,2|2,1:2|0:0,0:0:0:0:
501,67,107367,2,0,L|486:155,1,73.4500002241516,2|0,0:0|0:0,0:0:0:0:
481,174,107669,1,2,0:0:0:0:
427,267,107870,2,0,L|446:363,1,73.4500002241516,2|2,1:2|0:0,0:0:0:0:
318,383,108273,5,10,0:0:0:0:
303,360,108374,1,0,0:0:0:0:
282,342,108474,1,10,0:0:0:0:
257,332,108575,1,0,0:0:0:0:
229,331,108676,2,0,P|203:337|183:351,3,36.7250001120758,10|0|10|2,1:2|0:0|0:0|0:0,0:0:0:0:
168,319,109078,5,8,0:0:0:0:
172,287,109179,1,0,0:0:0:0:
176,256,109280,1,2,0:0:0:0:
180,225,109380,1,0,0:0:0:0:
184,193,109481,2,0,L|176:131,3,36.7250001120758,2|0|10|0,1:2|0:0|0:0|0:0,0:0:0:0:
199,129,109884,5,14,0:0:0:0:
256,192,110085,12,2,112702,0:0:0:0:
198,141,113105,5,14,0:0:0:0:
198,141,113911,6,0,L|207:203,1,58.4999982147217,2|2,0:0|0:0,0:0:0:0:
315,208,114313,2,0,L|304:140,1,58.4999982147217,2|2,0:0|0:0,0:0:0:0:
273,306,114716,2,0,P|432:309|309:210,1,409.499987503052,2|0,0:0|0:0,0:0:0:0:
256,192,116327,12,0,118743,0:0:0:0:
