osu file format v14

[General]
AudioFilename: audio.mp3
AudioLeadIn: 0
PreviewTime: 57937
Countdown: 0
SampleSet: Soft
StackLeniency: 0.7
Mode: 0
LetterboxInBreaks: 0
WidescreenStoryboard: 0

[Editor]
DistanceSpacing: 0.5
BeatDivisor: 4
GridSize: 4
TimelineZoom: 2.7

[Metadata]
Title:Oboro
TitleUnicode:朧
Artist:HHHxMMxST
ArtistUnicode:HHH×MM×ST
Creator:jordanlr7
Version:Insane
Source:pop'n music 20 fantasia
Tags:kkipalt morinaga dailycare pewdekz ryu* dai. vj halka 森永真由美 mayumi moimoi senya starving trancer japanese pop j-pop jpop electronic video game videogame sakura luminance
BeatmapID:3575906
BeatmapSetID:1536560

[Difficulty]
HPDrainRate:5
CircleSize:3.8
OverallDifficulty:8
ApproachRate:8.5
SliderMultiplier:1.7
SliderTickRate:1

[Events]
//Background and Video events
0,0,"bg.jpg",0,0
//Break Periods
//Storyboard Layer 0 (Background)
//Storyboard Layer 1 (Fail)
//Storyboard Layer 2 (Pass)
//Storyboard Layer 3 (Foreground)
//Storyboard Layer 4 (Overlay)
//Storyboard Sound Samples

[TimingPoints]
354,402.684563758389,4,2,1,40,1,0
958,-133.333333333333,4,2,1,40,0,0
6796,-166.666666666667,4,2,1,50,0,0
6998,-166.666666666667,4,2,1,50,0,0
7803,-166.666666666667,4,2,1,50,0,0
8005,-133.333333333333,4,2,1,50,0,0
8206,-133.333333333333,4,2,1,50,0,0
8407,-166.666666666667,4,2,1,50,0,0
8609,-166.666666666667,4,2,1,50,0,0
9414,-166.666666666667,4,2,1,50,0,0
9616,-166.666666666667,4,2,1,50,0,0
9817,-166.666666666667,4,2,1,50,0,0
10018,-166.666666666667,4,2,1,50,0,0
10421,-166.666666666667,4,2,1,50,0,0
10622,-166.666666666667,4,2,1,50,0,0
10823,-166.666666666667,4,2,1,50,0,0
11025,-166.666666666667,4,2,1,50,0,0
11629,-166.666666666667,4,2,1,50,0,0
11830,-166.666666666667,4,2,1,50,0,0
12434,-166.666666666667,4,2,1,50,0,0
12635,-166.666666666667,4,2,1,50,0,0
13239,-133.333333333333,4,2,1,50,0,0
13441,-133.333333333333,4,2,1,50,0,0
14246,-133.333333333333,4,2,1,50,0,0
14447,-133.333333333333,4,2,1,50,0,0
14649,-133.333333333333,4,2,1,50,0,0
14850,-133.333333333333,4,2,1,50,0,0
15857,-133.333333333333,4,2,1,50,0,0
16058,-133.333333333333,4,2,1,50,0,0
16260,-133.333333333333,4,2,1,50,0,0
16461,-133.333333333333,4,2,1,50,0,0
16662,-133.333333333333,4,2,1,50,0,0
17266,-133.333333333333,4,2,1,50,0,0
17468,-133.333333333333,4,2,1,50,0,0
18072,-133.333333333333,4,2,1,50,0,0
18273,-133.333333333333,4,2,1,50,0,0
18676,-133.333333333333,4,2,1,50,0,0
19078,-133.333333333333,4,2,1,50,0,0
19682,-133.333333333333,4,2,1,50,0,0
21293,-100,4,2,1,60,0,0
21494,-100,4,2,1,60,0,0
22098,-100,4,2,1,50,0,0
22904,-90.9090909090909,4,2,1,70,0,0
26125,-76.9230769230769,4,2,1,70,0,0
30958,-83.3333333333333,4,2,1,50,0,0
43038,-83.3333333333333,4,2,1,50,0,0
43843,-83.3333333333333,4,2,1,60,0,0
44045,-76.9230769230769,4,2,1,60,0,0
49481,-66.6666666666667,4,2,1,60,0,0
49682,-66.6666666666667,4,2,1,60,0,0
49884,-71.4285714285714,4,2,1,60,0,0
50488,-76.9230769230769,4,2,1,60,0,0
53508,-71.4285714285714,4,2,1,60,0,0
55421,-71.4285714285714,4,2,1,60,0,0
56729,-76.9230769230769,4,2,1,60,0,0
57535,-71.4285714285714,4,2,1,60,0,0
58340,-83.3333333333333,4,2,1,70,0,1
58441,-83.3333333333333,4,2,1,70,0,1
64783,-83.3333333333333,4,2,1,70,0,1
64884,-83.3333333333333,4,2,1,70,0,1
69666,-66.6666666666667,4,2,1,70,0,1
69817,-66.6666666666667,4,2,1,70,0,1
69868,-66.6666666666667,4,2,1,70,0,1
70018,-66.6666666666667,4,2,1,70,0,1
70069,-66.6666666666667,4,2,1,70,0,1
70219,-66.6666666666667,4,2,1,70,0,1
70270,-66.6666666666667,4,2,1,70,0,1
70421,-66.6666666666667,4,2,1,70,0,1
70472,-66.6666666666667,4,2,1,70,0,1
70622,-66.6666666666667,4,2,1,70,0,1
70823,-66.6666666666667,4,2,1,70,0,1
71226,-66.6666666666667,4,2,1,70,0,0
72837,-76.9230769230769,4,2,1,70,0,0
74447,-66.6666666666667,4,2,1,50,0,0
74548,-66.6666666666667,4,2,1,50,0,0
74850,-66.6666666666667,4,2,1,60,0,0
75656,-66.6666666666667,4,2,1,50,0,0
76058,-66.6666666666667,4,2,1,60,0,0
76461,-66.6666666666667,4,2,1,50,0,0
77669,-66.6666666666667,4,2,1,60,0,0
78072,-66.6666666666667,4,2,1,45,0,0
79682,-66.6666666666667,4,2,1,60,0,0
80890,-133.333333333333,4,2,1,60,0,0
81696,-133.333333333333,4,2,1,60,0,0
81897,-133.333333333333,4,2,1,60,0,0
84112,-133.333333333333,4,2,1,60,0,0
87333,-100,4,2,1,60,0,0
90958,-100,4,2,1,60,0,0
92166,-100,4,2,1,60,0,0
92568,-100,4,2,1,60,0,0
93776,-100,4,2,1,60,0,0
94481,-76.9230769230769,4,2,1,60,0,0
95387,-66.6666666666667,4,2,1,60,0,0
96192,-71.4285714285714,4,2,1,60,0,0
96595,-66.6666666666667,4,2,1,60,0,0
96998,-66.6666666666667,4,2,1,60,0,1
97098,-76.9230769230769,4,2,1,60,0,1
101830,-76.9230769230769,4,2,1,60,0,1
102233,-66.6666666666667,4,2,1,60,0,1
102333,-66.6666666666667,4,2,1,60,0,1
102635,-66.6666666666667,4,2,1,60,0,1
103441,-76.9230769230769,4,2,1,60,0,1
103541,-66.6666666666667,4,2,1,60,0,1
105051,-76.9230769230769,4,2,1,60,0,1
108324,-66.6666666666667,4,2,1,60,0,1
108475,-66.6666666666667,4,2,1,60,0,1
108526,-66.6666666666667,4,2,1,60,0,1
108676,-66.6666666666667,4,2,1,60,0,1
108727,-66.6666666666667,4,2,1,60,0,1
108877,-66.6666666666667,4,2,1,60,0,1
108928,-66.6666666666667,4,2,1,60,0,1
109079,-66.6666666666667,4,2,1,60,0,1
109130,-66.6666666666667,4,2,1,60,0,1
109280,-66.6666666666667,4,2,1,60,0,1
109481,-66.6666666666667,4,2,1,60,0,1
109884,-66.6666666666667,4,2,1,60,0,0
110689,-66.6666666666667,4,2,1,45,0,0
113105,-66.6666666666667,4,2,1,60,0,0
113911,-66.6666666666667,4,2,1,45,0,0
116125,-66.6666666666667,4,2,1,45,0,0
116226,-66.6666666666667,4,2,1,5,0,0

[Colours]
Combo1 : 255,140,198
Combo2 : 255,156,108
Combo3 : 172,125,162
Combo4 : 113,143,181

[HitObjects]
451,366,354,5,2,0:0:0:0:
448,346,454,1,2,0:0:0:0:
445,326,555,1,2,0:0:0:0:
442,306,656,1,2,0:0:0:0:
439,286,756,1,2,0:0:0:0:
436,267,857,1,2,0:0:0:0:
434,247,958,1,2,0:0:0:0:
434,247,1562,5,2,0:0:0:0:
336,200,1763,1,2,0:0:0:0:
243,283,1964,5,2,0:0:0:0:
217,297,2064,1,2,0:0:0:0:
188,291,2165,1,2,0:0:0:0:
169,269,2266,1,2,0:0:0:0:
169,240,2366,1,2,0:0:0:0:
186,214,2468,1,2,0:0:0:0:
214,207,2568,1,2,0:0:0:0:
214,207,3172,5,2,0:0:0:0:
124,328,3374,1,2,0:0:0:0:
8,248,3575,5,2,0:0:0:0:
22,245,3675,1,2,0:0:0:0:
37,243,3776,1,2,0:0:0:0:
52,241,3877,1,2,0:0:0:0:
67,238,3977,1,2,0:0:0:0:
82,236,4078,1,2,0:0:0:0:
96,234,4179,1,2,0:0:0:0:
96,234,4783,5,2,0:0:0:0:
52,160,4984,1,2,0:0:0:0:
136,75,5186,5,2,0:0:0:0:
157,63,5286,1,2,0:0:0:0:
182,63,5387,1,2,0:0:0:0:
204,75,5488,1,2,0:0:0:0:
217,96,5588,1,2,0:0:0:0:
218,121,5689,1,2,0:0:0:0:
207,143,5790,1,2,0:0:0:0:
207,143,6394,6,0,L|214:207,1,63.7500024318696,2|2,0:0|0:0,0:0:0:0:
376,258,6796,6,0,P|358:274|333:277,1,50.9999984436036,14|0,0:0|0:0,0:0:0:0:
300,202,7199,2,0,P|318:186|344:184,1,50.9999984436036,2|2,0:0|0:0,0:0:0:0:
400,124,7501,2,0,P|386:88|371:53,1,76.4999976654053,2|0,0:0|0:0,0:0:0:0:
268,31,8005,5,2,0:0:0:0:
204,75,8206,1,2,0:0:0:0:
132,64,8407,6,0,P|126:36|120:9,1,50.9999984436036,2|0,0:0|0:0,0:0:0:0:
50,110,8810,2,0,P|45:135|40:160,1,50.9999984436036,2|2,0:0|0:0,0:0:0:0:
96,234,9112,2,0,P|132:221|181:212,1,76.4999976654053,2|0,0:0|0:0,0:0:0:0:
356,280,9615,5,2,0:0:0:0:
336,352,9817,1,2,0:0:0:0:
260,376,10018,6,0,P|224:376|196:314,1,101.999996887207,2|2,0:0|0:0,0:0:0:0:
301,203,10622,1,2,0:0:0:0:
301,203,10723,2,0,P|305:163|311:121,1,76.4999976654053,2|2,0:0|0:0,0:0:0:0:
364,36,11226,5,2,0:0:0:0:
416,88,11427,1,2,0:0:0:0:
301,203,11629,5,2,0:0:0:0:
224,228,11830,1,2,0:0:0:0:
168,176,12031,1,2,0:0:0:0:
192,104,12233,1,2,0:0:0:0:
192,104,12333,2,0,P|196:56|200:19,1,76.4999976654053,2|0,0:0|0:0,0:0:0:0:
81,6,12837,5,2,0:0:0:0:
36,64,13038,1,2,0:0:0:0:
72,132,13239,6,0,P|103:121|121:68,1,63.7500024318696,6|0,1:2|0:0,0:0:0:0:
34,217,13642,1,2,0:0:0:0:
92,276,13843,1,2,0:0:0:0:
92,276,13944,2,0,P|88:319|80:375,1,95.6250036478044,2|0,0:0|0:0,0:0:0:0:
176,384,14447,5,2,0:0:0:0:
232,328,14649,1,2,0:0:0:0:
300,364,14850,6,0,P|333:342|340:303,1,63.7500024318696,2|0,0:0|0:0,0:0:0:0:
240,248,15253,1,2,0:0:0:0:
280,168,15454,1,2,0:0:0:0:
280,168,15555,2,0,B|318:172|319:172|387:191,1,95.6250036478044,2|0,0:0|0:0,0:0:0:0:
448,265,16058,5,2,0:0:0:0:
505,220,16259,1,2,0:0:0:0:
490,149,16460,5,2,0:0:0:0:
420,130,16662,1,2,0:0:0:0:
373,187,16864,1,2,0:0:0:0:
280,168,17065,1,2,0:0:0:0:
280,168,17166,2,0,P|294:123|299:73,1,95.6250036478044,2|2,0:0|0:0,0:0:0:0:
196,24,17669,1,2,0:0:0:0:
196,24,17870,1,2,0:0:0:0:
104,44,18072,5,2,0:0:0:0:
60,108,18273,1,2,0:0:0:0:
84,184,18474,1,2,0:0:0:0:
164,208,18675,5,2,0:0:0:0:
164,208,18776,1,2,0:0:0:0:
256,236,19078,6,0,P|292:229|329:228,2,63.7500024318696,2|2|2,0:0|0:0|0:0,0:0:0:0:
216,346,19682,5,6,0:0:0:0:
216,346,20488,5,10,0:0:0:0:
256,236,20689,1,10,0:0:0:0:
177,156,20890,1,10,0:0:0:0:
84,184,21092,1,10,0:0:0:0:
241,336,21293,5,2,1:2:0:0:
282,346,21393,1,2,0:0:0:0:
320,328,21494,1,2,0:0:0:0:
335,289,21595,1,2,0:0:0:0:
316,284,21695,5,2,0:0:0:0:
304,314,21796,1,2,0:0:0:0:
277,328,21897,1,2,0:0:0:0:
246,319,21997,1,2,0:0:0:0:
251,302,22098,5,2,0:0:0:0:
274,307,22198,1,2,0:0:0:0:
294,297,22299,1,2,0:0:0:0:
303,276,22400,1,2,0:0:0:0:
292,254,22501,6,0,P|278:251|252:232,3,42.5,2|2|2|2,0:0|0:0|0:0|0:0,0:0:0:0:
331,105,22904,5,14,0:0:0:0:
354,109,23004,1,2,0:0:0:0:
377,113,23105,1,2,0:0:0:0:
400,118,23206,1,2,0:0:0:0:
424,123,23307,5,2,1:2:0:0:
380,135,23407,1,2,0:0:0:0:
335,148,23508,1,2,0:0:0:0:
290,161,23609,1,0,0:0:0:0:
246,172,23709,2,0,P|197:156|157:145,1,93.5000028533936,8|0,0:0|0:0,0:0:0:0:
241,336,24112,2,0,P|290:320|330:309,1,93.5000028533936,2|2,1:2|0:0,0:0:0:0:
72,196,24515,5,10,0:0:0:0:
48,228,24615,1,2,0:0:0:0:
57,268,24716,1,2,0:0:0:0:
92,286,24817,1,2,0:0:0:0:
130,272,24917,5,2,1:2:0:0:
122,294,25017,1,2,0:0:0:0:
115,316,25118,1,2,0:0:0:0:
108,338,25219,1,0,0:0:0:0:
103,361,25319,5,8,0:0:0:0:
213,265,25521,1,0,0:0:0:0:
241,336,25723,2,0,P|253:290|268:246,1,93.5000028533936,0|8,1:2|0:0,0:0:0:0:
16,86,26125,6,0,P|77:86|94:131,1,110.499994941712,8|0,0:0|0:0,0:0:0:0:
72,196,26427,1,8,0:0:0:0:
72,196,26528,2,0,P|56:200|69:194,1,55.2499974708558,0|0,1:2|0:0,0:0:0:0:
162,279,26729,6,0,P|217:260|273:245,1,110.499994941712,8|0,0:0|0:0,0:0:0:0:
277,223,27031,1,8,0:0:0:0:
288,192,27131,1,8,0:0:0:0:
313,170,27232,1,8,0:0:0:0:
345,165,27333,5,0,1:2:0:0:
375,266,27535,1,8,0:0:0:0:
419,92,27736,6,0,P|438:146|453:202,1,110.499994941712,4|0,0:0|0:0,0:0:0:0:
511,248,28038,1,8,0:0:0:0:
511,248,28139,2,0,P|493:305|463:314,1,55.2499974708558,0|0,1:2|0:0,0:0:0:0:
356,357,28340,6,0,P|308:346|292:264,1,110.499994941712,8|0,0:0|0:0,0:0:0:0:
288,272,28642,1,8,0:0:0:0:
284,245,28742,1,8,0:0:0:0:
267,223,28843,1,8,0:0:0:0:
244,216,28944,2,0,P|214:222|186:233,1,55.2499974708558,4|0,1:2|0:0,0:0:0:0:
296,128,29145,2,0,P|321:118|348:112,1,55.2499974708558,8|0,0:0|0:0,0:0:0:0:
232,48,29347,5,0,1:2:0:0:
256,192,29447,12,0,30756,0:0:0:0:
39,76,30958,5,12,0:0:0:0:
103,26,31159,1,2,0:0:0:0:
181,47,31360,1,2,1:2:0:0:
245,135,31562,5,2,0:0:0:0:
245,135,31662,1,0,0:0:0:0:
245,135,31763,2,0,P|296:120|315:118,1,50.9999984436036,10|0,0:0|0:0,0:0:0:0:
344,184,31964,1,2,0:0:0:0:
268,292,32166,6,0,P|234:266|156:275,1,101.999996887207,2|2,1:2|0:0,0:0:0:0:
164,276,32468,1,0,0:0:0:0:
151,285,32569,1,10,0:0:0:0:
136,290,32670,1,0,0:0:0:0:
120,290,32770,1,0,0:0:0:0:
8,196,32971,2,0,P|22:247|29:296,1,101.999996887207,2|0,1:2|0:0,0:0:0:0:
77,99,33374,5,10,0:0:0:0:
91,86,33474,2,0,P|145:76|199:69,1,101.999996887207
245,135,33776,2,0,P|241:162|236:186,1,50.9999984436036,0|0,1:2|0:0,0:0:0:0:
360,56,33978,5,2,0:0:0:0:
360,56,34078,1,0,0:0:0:0:
360,56,34179,2,0,P|357:100|344:164,1,101.999996887207,10|0,0:0|0:0,0:0:0:0:
432,220,34481,1,0,0:0:0:0:
428,204,34582,2,0,B|445:186|445:186|478:197,1,50.9999984436036,0|0,1:2|0:0,0:0:0:0:
344,300,34783,5,2,0:0:0:0:
344,300,34884,1,0,0:0:0:0:
344,300,34984,2,0,P|282:296|252:250,1,101.999996887207,10|2,0:0|0:0,0:0:0:0:
236,185,35286,1,2,0:0:0:0:
227,176,35387,2,0,P|170:189|128:203,1,101.999996887207,2|2,1:2|0:0,0:0:0:0:
258,62,35790,5,10,0:0:0:0:
269,44,35890,2,0,B|307:30|307:30|372:72,1,101.999996887207
456,44,36192,2,0,P|473:12|446:37,1,101.999996887207,2|0,1:2|0:0,0:0:0:0:
492,123,36494,1,0,0:0:0:0:
488,140,36595,1,10,0:0:0:0:
448,244,36796,6,0,L|454:279,3,33.9999989624024,0|0|0|0,0:0|0:0|0:0|1:2,0:0:0:0:
345,156,37199,1,0,0:0:0:0:
343,172,37300,1,0,0:0:0:0:
341,188,37400,1,8,0:0:0:0:
257,268,37602,6,0,P|241:204|221:165,1,101.999996887207,2|2,0:0|1:2,0:0:0:0:
160,128,38005,1,2,0:0:0:0:
200,56,38206,1,10,0:0:0:0:
345,156,38407,1,2,0:0:0:0:
345,156,38508,1,0,0:0:0:0:
345,156,38609,2,0,P|400:142|433:98,1,101.999996887207,2|2,1:2|0:0,0:0:0:0:
424,96,38911,5,0,0:0:0:0:
428,116,39011,1,10,0:0:0:0:
434,136,39112,1,0,0:0:0:0:
443,155,39213,1,0,0:0:0:0:
454,171,39313,1,0,0:0:0:0:
466,186,39414,2,0,P|452:235|443:340,1,152.999995330811,2|0,1:2|0:0,0:0:0:0:
364,376,39817,2,0,B|336:355|336:355|270:374,1,101.999996887207,10|0,0:0|0:0,0:0:0:0:
212,320,40119,1,0,0:0:0:0:
216,310,40219,2,0,P|208:272|201:230,1,50.9999984436036,0|0,1:2|0:0,0:0:0:0:
118,240,40421,5,2,0:0:0:0:
98,244,40521,1,0,0:0:0:0:
78,249,40622,2,0,P|88:200|97:146,1,101.999996887207,10|0,0:0|0:0,0:0:0:0:
168,80,40924,1,0,0:0:0:0:
178,75,41025,2,0,P|229:71|260:141,1,101.999996887207,2|0,1:2|0:0,0:0:0:0:
296,212,41327,1,0,0:0:0:0:
296,212,41427,2,0,P|292:231|288:215,1,50.9999984436036,10|0,0:0|0:0,0:0:0:0:
384,120,41629,5,2,0:0:0:0:
384,120,41729,1,0,0:0:0:0:
384,120,41830,2,0,P|373:56|371:28,1,50.9999984436036,2|0,1:2|0:0,0:0:0:0:
265,29,42031,5,2,0:0:0:0:
240,21,42132,1,0,0:0:0:0:
216,30,42233,2,0,P|205:98|205:147,1,101.999996887207,10|0,0:0|0:0,0:0:0:0:
296,212,42635,6,0,P|256:269|157:268,1,152.999995330811,0|0,1:2|0:0,0:0:0:0:
156,268,43038,5,8,0:0:0:0:
133,257,43138,1,8,0:0:0:0:
114,243,43239,1,8,0:0:0:0:
101,224,43340,1,8,0:0:0:0:
92,208,43441,5,0,1:2:0:0:
65,235,43541,1,0,0:0:0:0:
52,270,43642,1,8,0:0:0:0:
53,308,43743,1,8,0:0:0:0:
68,347,43843,6,0,P|126:351|171:364,1,101.999996887207,14|2,0:0|0:0,0:0:0:0:
306,266,44246,2,0,P|299:229|293:201,1,55.2499974708558,2|0,1:2|0:0,0:0:0:0:
362,171,44447,1,2,0:0:0:0:
368,160,44548,2,0,P|291:178|232:80,1,165.749992412568,2|0,0:0|0:0,0:0:0:0:
233,105,44951,5,0,0:0:0:0:
237,89,45051,1,0,1:2:0:0:
243,73,45152,1,0,0:0:0:0:
251,58,45253,1,2,0:0:0:0:
261,45,45353,1,2,0:0:0:0:
273,29,45454,2,0,P|314:35|351:48,1,55.2499974708558,10|0,0:0|0:0,0:0:0:0:
475,136,45656,5,2,0:0:0:0:
475,136,45756,1,0,0:0:0:0:
475,136,45857,2,0,P|447:139|363:161,1,110.499994941712,2|2,1:2|0:0,0:0:0:0:
306,266,46260,1,8,0:0:0:0:
306,266,46360,1,0,0:0:0:0:
306,266,46461,1,0,0:0:0:0:
444,384,46662,5,0,1:2:0:0:
425,350,46762,1,0,0:0:0:0:
393,330,46863,1,2,0:0:0:0:
354,331,46964,1,0,0:0:0:0:
322,351,47065,2,0,P|285:345|241:333,1,55.2499974708558,10|0,0:0|0:0,0:0:0:0:
168,252,47266,1,2,0:0:0:0:
168,252,47367,1,0,0:0:0:0:
168,252,47468,2,0,P|194:246|222:241,1,55.2499974708558,2|0,1:2|0:0,0:0:0:0:
160,144,47669,5,2,0:0:0:0:
152,129,47770,2,0,P|74:106|24:181,1,165.749992412568
20,188,48172,1,0,0:0:0:0:
24,208,48272,1,2,1:2:0:0:
28,228,48374,1,0,0:0:0:0:
32,248,48474,1,0,0:0:0:0:
36,268,48575,1,0,0:0:0:0:
39,291,48676,6,0,P|66:296|93:304,1,55.2499974708558,10|0,0:0|0:0,0:0:0:0:
163,384,48877,2,0,P|167:356|175:330,1,55.2499974708558,2|0,0:0|0:0,0:0:0:0:
255,260,49078,2,0,P|227:255|201:247,1,55.2499974708558,2|0,1:2|0:0,0:0:0:0:
119,221,49280,1,2,0:0:0:0:
119,221,49380,1,2,0:0:0:0:
119,221,49481,2,0,L|109:182,2,31.8750012159348,8|8|8,0:0|0:0|0:0,0:0:0:0:
212,152,49682,5,0,0:0:0:0:
212,152,49783,1,0,0:0:0:0:
212,152,49884,1,8,1:2:0:0:
132,64,50085,1,8,0:0:0:0:
132,64,50186,1,8,0:0:0:0:
132,64,50286,2,0,P|178:23|252:44,1,118.999996368408,10|2,0:0|0:0,0:0:0:0:
367,159,50689,6,0,P|350:229|349:257,1,55.2499974708558,2|0,1:2|0:0,0:0:0:0:
414,263,50890,1,2,0:0:0:0:
421,271,50991,2,0,P|357:266|332:317,1,110.499994941712,2|0,0:0|0:0,0:0:0:0:
256,364,51293,2,0,P|186:347|158:346,1,55.2499974708558
172,336,51494,5,0,1:2:0:0:
153,296,51594,1,0,0:0:0:0:
165,255,51695,1,2,0:0:0:0:
201,231,51796,1,2,0:0:0:0:
243,219,51897,2,0,P|260:149|261:121,1,55.2499974708558,10|0,0:0|0:0,0:0:0:0:
187,87,52098,1,2,0:0:0:0:
187,87,52199,1,0,0:0:0:0:
187,87,52300,2,0,B|160:75|160:75|102:90,1,55.2499974708558,2|0,1:2|0:0,0:0:0:0:
64,156,52501,5,2,0:0:0:0:
56,140,52602,2,0,P|115:132|135:212,1,110.499994941712,2|0,0:0|0:0,0:0:0:0:
201,231,52904,2,0,P|184:301|183:329,1,55.2499974708558
256,364,53105,5,2,1:2:0:0:
282,355,53205,1,0,0:0:0:0:
308,348,53306,1,2,0:0:0:0:
335,341,53407,1,2,0:0:0:0:
362,336,53507,5,10,0:0:0:0:
432,252,53709,1,10,0:0:0:0:
437,233,53810,1,0,0:0:0:0:
428,215,53911,2,0,B|396:207|396:207|355:238,1,59.4999981842042,10|0,1:2|0:0,0:0:0:0:
264,156,54112,2,0,B|296:164|296:164|337:133,1,59.4999981842042,10|0,0:0|0:0,0:0:0:0:
416,33,54313,5,10,0:0:0:0:
418,63,54413,1,0,0:0:0:0:
424,95,54514,1,10,0:0:0:0:
432,126,54615,1,0,0:0:0:0:
441,157,54716,2,0,P|428:212|426:234,1,59.4999981842042,10|0,1:2|0:0,0:0:0:0:
288,120,54917,2,0,P|296:89|301:57,1,59.4999981842042,10|0,0:0|0:0,0:0:0:0:
156,213,55119,6,0,P|70:209|39:119,2,178.499994552612,14|6|2,0:3|0:3|0:3,0:0:0:0:
200,312,55924,2,0,P|233:317|265:326,3,59.4999981842042,10|0|0|0,0:0|0:0|0:0|0:0,0:0:0:0:
307,241,56327,1,0,1:2:0:0:
324,204,56427,1,0,0:0:0:0:
358,185,56528,1,8,0:3:0:0:
396,188,56629,1,0,0:0:0:0:
427,214,56729,6,0,P|437:279|458:381,2,165.749992412568,12|8|8,0:3|0:3|0:3,0:0:0:0:
496,56,57535,1,10,0:0:0:0:
469,49,57635,1,2,0:0:0:0:
442,41,57736,1,2,0:0:0:0:
415,34,57837,1,2,0:0:0:0:
388,26,57937,2,0,P|331:39|315:46,1,59.4999981842042,10|0,1:2|0:0,0:0:0:0:
264,120,58139,2,0,P|199:103|181:96,1,59.4999981842042,8|0,0:0|0:0,0:0:0:0:
86,55,58340,6,0,P|153:46|204:143,1,152.999995330811,14|0,0:0|0:0,0:0:0:0:
237,243,58743,2,0,B|210:249|210:249|192:233,1,50.9999984436036,0|0,1:2|0:0,0:0:0:0:
0,268,58944,5,2,0:0:0:0:
26,252,59044,1,2,0:0:0:0:
57,251,59145,1,8,0:0:0:0:
86,262,59246,1,0,0:0:0:0:
108,284,59346,1,0,0:0:0:0:
120,313,59447,1,0,0:0:0:0:
119,344,59548,6,0,P|148:349|179:357,1,50.9999984436036,2|0,1:2|0:0,0:0:0:0:
237,243,59749,2,0,P|207:248|176:256,1,50.9999984436036,2|0,0:0|0:0,0:0:0:0:
392,296,59951,6,0,P|317:312|241:324,1,152.999995330811,10|0,0:0|0:0,0:0:0:0:
148,180,60353,2,0,P|130:175|139:184,1,50.9999984436036,10|0,1:2|0:0,0:0:0:0:
200,4,60555,5,2,0:0:0:0:
178,37,60655,1,2,0:0:0:0:
178,77,60756,1,8,0:0:0:0:
197,113,60857,1,0,1:0:0:0:
232,133,60957,1,0,0:0:0:0:
272,134,61058,1,0,0:0:0:0:
309,114,61159,6,0,P|313:80|319:47,1,50.9999984436036,2|0,1:2|0:0,0:0:0:0:
388,220,61360,2,0,P|384:192|379:165,1,50.9999984436036,2|0,0:0|0:0,0:0:0:0:
449,24,61562,6,0,P|410:61|312:61,1,152.999995330811,10|0,0:0|0:0,0:0:0:0:
220,192,61964,2,0,B|247:186|247:186|269:206,1,50.9999984436036,2|0,1:2|0:0,0:0:0:0:
379,169,62166,1,2,0:0:0:0:
379,169,62266,1,2,0:0:0:0:
379,169,62367,6,0,P|383:196|390:223,1,50.9999984436036,8|0,0:0|0:0,0:0:0:0:
467,296,62568,2,0,P|438:299|412:306,1,50.9999984436036,2|0,0:0|0:0,0:0:0:0:
340,383,62769,2,0,P|335:354|328:328,1,50.9999984436036,2|0,1:2|0:0,0:0:0:0:
253,256,62971,2,0,P|281:251|307:244,1,50.9999984436036,2|0,0:0|0:0,0:0:0:0:
160,368,63172,5,10,0:0:0:0:
110,370,63272,1,0,0:0:0:0:
70,339,63373,1,2,0:0:0:0:
61,290,63474,1,0,0:0:0:0:
77,250,63575,5,2,1:2:0:0:
89,241,63676,1,0,0:0:0:0:
102,233,63776,2,0,P|96:197|92:172,1,50.9999984436036,2|2,0:0|0:0,0:0:0:0:
178,39,63978,5,8,0:0:0:0:
165,81,64078,1,0,0:0:0:0:
171,126,64179,1,0,0:0:0:0:
194,165,64280,1,0,0:0:0:0:
227,190,64380,1,2,1:2:0:0:
255,198,64481,1,0,0:0:0:0:
275,198,64582,1,10,1:2:0:0:
283,196,64682,1,0,0:0:0:0:
295,192,64783,6,0,P|284:282|271:382,1,152.999995330811,14|0,0:0|0:0,0:0:0:0:
412,305,65186,2,0,P|406:332|404:359,1,50.9999984436036,2|0,1:2|0:0,0:0:0:0:
484,236,65387,1,2,0:0:0:0:
484,236,65488,1,2,0:0:0:0:
484,236,65588,6,0,B|459:224|459:224|390:234,1,50.9999984436036,8|0,0:0|0:0,0:0:0:0:
340,132,65790,2,0,B|365:144|365:144|434:134,1,50.9999984436036
206,282,65991,5,2,1:2:0:0:
173,304,66091,1,0,0:0:0:0:
133,304,66192,1,2,0:0:0:0:
97,285,66293,1,0,0:0:0:0:
77,250,66394,6,0,P|86:174|95:98,1,152.999995330811,10|0,0:0|0:0,0:0:0:0:
172,48,66796,2,0,P|191:45|175:57,1,50.9999984436036,2|0,1:2|0:0,0:0:0:0:
284,96,66998,1,2,0:0:0:0:
284,96,67098,1,2,0:0:0:0:
284,96,67199,6,0,P|280:121|277:146,1,50.9999984436036,8|0,0:0|1:2,0:0:0:0:
168,196,67400,2,0,P|170:170|174:145,1,50.9999984436036
289,267,67602,5,2,1:2:0:0:
324,250,67702,1,0,0:0:0:0:
360,238,67803,1,2,0:0:0:0:
397,230,67904,1,0,0:0:0:0:
435,227,68004,5,14,0:0:0:0:
488,288,68206,1,2,0:0:0:0:
448,356,68407,1,2,1:2:0:0:
372,336,68609,5,2,0:0:0:0:
356,352,68709,2,0,P|300:342|211:339,1,101.999996887207,2|0,0:0|0:0,0:0:0:0:
228,340,69011,1,2,0:0:0:0:
200,344,69112,1,0,0:0:0:0:
172,348,69213,6,0,B|159:319|159:319|166:282,1,50.9999984436036,2|0,1:2|0:0,0:0:0:0:
279,219,69414,2,0,B|292:248|292:248|285:285,1,50.9999984436036,2|0,0:0|0:0,0:0:0:0:
81,171,69615,5,10,0:0:0:0:
168,196,69816,1,10,0:0:0:0:
246,134,70017,1,10,1:2:0:0:
227,19,70219,1,10,0:0:0:0:
376,48,70421,5,8,0:0:0:0:
369,79,70521,1,0,0:0:0:0:
364,110,70622,1,2,0:0:0:0:
360,142,70723,1,0,0:0:0:0:
357,174,70823,2,0,P|376:195|412:210,3,63.7500024318696,2|0|10|0,1:2|0:0|0:0|0:0,0:0:0:0:
492,156,71226,5,14,0:0:0:0:
492,156,72032,5,10,0:0:0:0:
407,209,72233,1,10,0:0:0:0:
355,263,72434,1,10,0:0:0:0:
327,311,72635,1,10,0:0:0:0:
232,240,72837,5,2,1:2:0:0:
193,231,72937,1,2,0:0:0:0:
158,248,73038,1,2,0:0:0:0:
144,284,73139,1,2,0:0:0:0:
161,289,73239,5,0,0:0:0:0:
173,261,73340,1,0,0:0:0:0:
198,248,73441,1,0,0:0:0:0:
227,256,73541,1,0,0:0:0:0:
222,272,73642,5,0,1:2:0:0:
201,268,73742,1,8,0:0:0:0:
182,277,73843,1,0,1:2:0:0:
173,297,73944,1,8,0:0:0:0:
166,320,74045,6,0,P|147:316|113:291,1,55.2499974708558,0|0,1:2|0:0,0:0:0:0:
39,279,74246,2,0,P|33:253|36:226,1,55.2499974708558,8|8,0:0|0:0,0:0:0:0:
16,117,74448,5,2,0:0:0:0:
21,102,74548,1,2,0:0:0:0:
34,93,74649,1,2,0:0:0:0:
35,75,74750,5,2,0:0:0:0:
66,65,74851,1,2,0:0:0:0:
93,84,74951,1,2,0:0:0:0:
98,117,75052,1,2,0:0:0:0:
98,117,75656,5,2,0:0:0:0:
172,40,75857,1,2,0:0:0:0:
280,128,76058,5,2,0:0:0:0:
299,161,76159,1,2,0:0:0:0:
283,195,76259,1,2,0:0:0:0:
245,199,76360,1,2,0:0:0:0:
216,212,76461,5,2,0:0:0:0:
208,223,76561,1,2,0:0:0:0:
210,237,76662,1,2,0:0:0:0:
210,237,77266,5,2,0:0:0:0:
288,288,77468,1,0,0:0:0:0:
380,232,77669,5,2,0:0:0:0:
411,212,77770,1,2,0:0:0:0:
446,229,77870,1,2,0:0:0:0:
450,266,77971,1,2,0:0:0:0:
463,295,78072,5,2,0:0:0:0:
474,304,78172,1,2,0:0:0:0:
488,302,78273,1,2,0:0:0:0:
488,302,78877,5,2,0:0:0:0:
424,384,79079,1,2,0:0:0:0:
280,313,79280,5,2,0:0:0:0:
290,292,79380,1,2,0:0:0:0:
287,270,79481,1,2,0:0:0:0:
303,251,79582,5,2,0:0:0:0:
282,209,79683,1,2,0:0:0:0:
235,201,79783,1,2,0:0:0:0:
197,230,79884,1,2,0:0:0:0:
197,230,80488,5,0,0:0:0:0:
112,168,80689,1,0,0:0:0:0:
288,84,80890,5,2,0:0:0:0:
214,117,81192,5,2,0:0:0:0:
208,36,81494,5,2,0:0:0:0:
208,36,82098,5,2,0:0:0:0:
288,84,82501,6,0,P|337:75|388:74,1,95.6250036478044,2|0,0:0|0:0,0:0:0:0:
472,136,83005,5,2,0:0:0:0:
472,136,83105,1,8,0:0:0:0:
472,136,83206,1,8,0:0:0:0:
472,136,83307,2,0,L|477:175,4,21.2500008106232,4|0|0|0|0,1:2|0:0|0:0|0:0|0:0,0:0:0:0:
424,236,83709,5,2,0:0:0:0:
344,216,83911,1,2,0:0:0:0:
256,376,84112,5,6,0:0:0:0:
204,312,84515,5,2,0:0:0:0:
224,236,84716,1,2,0:0:0:0:
224,236,84817,1,2,0:0:0:0:
256,376,85320,5,2,0:0:0:0:
204,312,85521,1,2,0:0:0:0:
224,236,85723,1,2,0:0:0:0:
280,175,86125,5,2,0:0:0:0:
204,154,86326,1,2,0:0:0:0:
204,154,86427,1,2,0:0:0:0:
224,236,86931,5,2,0:0:0:0:
280,175,87132,1,2,0:0:0:0:
352,212,87333,2,0,P|357:148|373:85,1,127.5,2|0,0:0|0:0,0:0:0:0:
440,36,87736,5,2,0:0:0:0:
373,86,87937,1,2,0:0:0:0:
363,94,88038,2,0,P|302:78|239:72,1,85,2|0,0:0|0:0,0:0:0:0:
256,68,88340,1,2,0:0:0:0:
181,91,88541,1,2,0:0:0:0:
164,168,88743,1,2,0:0:0:0:
39,48,88944,5,2,0:0:0:0:
47,80,89044,1,0,0:0:0:0:
53,111,89145,1,2,0:0:0:0:
58,148,89246,1,0,0:0:0:0:
59,187,89347,2,0,P|50:241|45:256,3,42.5,2|0|2|2,0:0|0:0|0:0|0:0,0:0:0:0:
117,321,89749,5,0,0:0:0:0:
152,344,89850,1,0,0:0:0:0:
190,344,89951,1,0,0:0:0:0:
219,328,90051,1,0,0:0:0:0:
237,304,90152,1,2,0:0:0:0:
242,279,90253,1,0,0:0:0:0:
240,257,90353,1,2,0:0:0:0:
234,240,90454,1,0,0:0:0:0:
226,229,90555,5,2,0:0:0:0:
226,229,90958,5,2,1:2:0:0:
164,168,91763,1,2,1:2:0:0:
226,229,92568,1,2,1:2:0:0:
164,168,93374,1,2,1:2:0:0:
500,208,93776,5,6,0:0:0:0:
436,168,93978,1,2,0:0:0:0:
340,204,94179,1,2,1:2:0:0:
408,312,94380,5,10,0:0:0:0:
418,298,94481,2,0,P|357:290|335:361,1,110.499994941712,10|8,0:0|0:0,0:0:0:0:
304,352,94783,1,2,0:0:0:0:
264,364,94884,1,8,0:0:0:0:
232,356,94984,6,0,P|219:296|206:256,1,55.2499974708558,10|0,0:0|0:0,0:0:0:0:
128,276,95186,2,0,P|141:216|154:176,1,55.2499974708558,10|0,0:0|0:0,0:0:0:0:
264,196,95387,5,10,0:0:0:0:
236,272,95588,1,10,0:0:0:0:
160,352,95790,1,10,0:0:0:0:
32,368,95991,1,10,0:0:0:0:
128,276,96192,6,0,P|95:268|62:262,3,59.4999981842042,2|2|2|2,0:0|0:0|0:0|0:0,0:0:0:0:
48,244,96595,5,2,1:2:0:0:
23,193,96695,1,0,0:0:0:0:
39,139,96796,1,2,0:0:0:0:
87,111,96897,1,0,0:0:0:0:
142,122,96998,6,0,P|224:99|331:73,1,191.250007295609,14|0,0:0|0:0,0:0:0:0:
392,24,97400,2,0,B|411:44|411:44|405:76,1,55.2499974708558,0|0,1:2|0:0,0:0:0:0:
496,152,97602,5,2,0:0:0:0:
473,181,97702,1,2,0:0:0:0:
450,210,97803,1,8,0:0:0:0:
427,235,97904,1,0,0:0:0:0:
394,217,98004,1,0,0:0:0:0:
362,199,98105,1,0,0:0:0:0:
330,181,98206,6,0,P|283:192|237:205,1,55.2499974708558,2|0,1:2|0:0,0:0:0:0:
223,294,98407,2,0,P|249:287|276:280,1,55.2499974708558,2|0,0:0|0:0,0:0:0:0:
405,373,98609,6,0,P|453:311|427:235,1,165.749992412568,10|0,0:0|0:0,0:0:0:0:
349,287,99011,2,0,P|361:303|358:282,1,55.2499974708558,2|0,1:2|0:0,0:0:0:0:
199,192,99213,5,2,0:0:0:0:
162,181,99313,1,2,0:0:0:0:
125,193,99414,1,8,0:0:0:0:
101,222,99515,1,0,0:0:0:0:
99,261,99615,1,0,0:0:0:0:
111,297,99716,1,0,0:0:0:0:
135,325,99817,6,0,P|125:366|120:383,1,55.2499974708558,2|0,1:2|0:0,0:0:0:0:
24,191,100018,2,0,P|33:149|38:132,1,55.2499974708558,2|0,0:0|0:0,0:0:0:0:
128,84,100219,6,0,P|187:157|264:118,1,165.749992412568,10|0,0:0|0:0,0:0:0:0:
323,253,100622,2,0,P|296:246|269:240,1,55.2499974708558,2|0,1:2|0:0,0:0:0:0:
412,144,100823,1,2,0:0:0:0:
453,145,100923,1,2,0:0:0:0:
487,170,101024,1,8,0:0:0:0:
499,210,101125,1,0,0:0:0:0:
491,251,101226,2,0,P|483:278|477:306,1,55.2499974708558,2|0,0:0|0:0,0:0:0:0:
248,301,101427,5,2,1:2:0:0:
274,294,101527,1,0,0:0:0:0:
302,289,101628,1,2,0:0:0:0:
329,285,101729,1,0,0:0:0:0:
356,282,101830,6,0,P|298:280|268:223,1,110.499994941712,10|2,0:0|0:0,0:0:0:0:
208,188,102132,1,0,0:0:0:0:
194,180,102233,2,0,P|135:199|87:219,1,63.7500024318696,2|0,1:2|0:0,0:0:0:0:
17,300,102434,5,2,0:0:0:0:
28,288,102535,2,0,B|73:267|73:267|151:306,1,127.500004863739,2|0,0:0|0:0,0:0:0:0:
209,380,102837,1,0,0:0:0:0:
233,368,102937,1,0,0:0:0:0:
261,356,103038,2,0,P|268:317|274:290,1,63.7500024318696,2|0,1:2|0:0,0:0:0:0:
371,214,103239,5,10,1:2:0:0:
371,214,103339,1,0,0:0:0:0:
371,214,103441,2,0,P|297:203|201:186,1,165.749992412568,14|0,0:0|0:0,0:0:0:0:
136,136,103843,2,0,P|113:133|133:145,1,63.7500024318696,2|0,1:2|0:0,0:0:0:0:
240,64,104045,5,2,0:0:0:0:
230,95,104145,1,2,0:0:0:0:
221,126,104246,1,8,0:0:0:0:
214,157,104347,1,0,0:0:0:0:
207,188,104447,1,0,0:0:0:0:
198,226,104548,1,0,0:0:0:0:
188,264,104649,6,0,P|107:275|83:275,1,63.7500024318696,2|0,1:2|0:0,0:0:0:0:
261,356,104850,2,0,P|342:367|366:367,1,63.7500024318696,2|0,0:0|0:0,0:0:0:0:
498,270,105051,6,0,P|429:200|347:237,1,165.749992412568,10|0,0:0|0:0,0:0:0:0:
316,160,105454,2,0,B|299:182|299:182|257:170,1,55.2499974708558,2|0,1:2|0:0,0:0:0:0:
125,274,105656,1,2,0:0:0:0:
140,241,105756,1,2,0:0:0:0:
142,204,105857,1,8,0:0:0:0:
127,170,105958,1,0,0:0:0:0:
100,146,106058,1,0,0:0:0:0:
66,134,106159,1,0,0:0:0:0:
29,138,106260,6,0,P|24:164|16:196,1,55.2499974708558,2|0,1:2|0:0,0:0:0:0:
156,64,106461,2,0,P|150:38|142:6,1,55.2499974708558,2|0,0:0|0:0,0:0:0:0:
272,174,106662,5,14,0:0:0:0:
336,80,106864,1,2,0:0:0:0:
336,80,106964,1,0,0:0:0:0:
336,80,107065,2,0,P|379:75|424:65,1,55.2499974708558,2|0,1:2|0:0,0:0:0:0:
482,151,107266,1,2,0:0:0:0:
486,165,107367,2,0,B|457:194|457:194|340:170,1,110.499994941712,2|0,0:0|0:0,0:0:0:0:
363,191,107669,1,2,0:0:0:0:
340,204,107770,1,0,0:0:0:0:
316,216,107870,1,2,1:2:0:0:
384,300,108072,1,2,0:0:0:0:
256,364,108273,5,10,0:0:0:0:
221,382,108373,1,0,0:0:0:0:
184,384,108474,1,10,0:0:0:0:
150,367,108575,1,0,0:0:0:0:
127,337,108676,5,10,1:2:0:0:
72,348,108776,1,0,0:0:0:0:
28,314,108877,1,10,0:0:0:0:
22,258,108978,1,2,0:0:0:0:
59,217,109078,5,8,0:0:0:0:
85,243,109178,1,0,0:0:0:0:
121,254,109279,1,2,0:0:0:0:
157,243,109381,1,0,0:0:0:0:
181,233,109481,1,2,1:2:0:0:
207,232,109582,1,0,0:0:0:0:
231,240,109683,1,10,0:0:0:0:
250,256,109783,1,0,0:0:0:0:
263,278,109884,5,14,0:0:0:0:
384,300,110689,5,2,0:0:0:0:
370,223,110890,1,2,0:0:0:0:
356,146,111092,1,2,0:0:0:0:
342,69,111293,1,2,0:0:0:0:
274,107,111494,1,2,0:0:0:0:
28,176,112502,5,2,0:0:0:0:
108,140,112703,1,2,0:0:0:0:
188,180,112904,1,2,0:0:0:0:
200,268,113106,1,14,0:0:0:0:
431,226,113911,5,2,0:0:0:0:
354,240,114112,1,2,0:0:0:0:
277,254,114314,1,2,0:0:0:0:
200,268,114515,1,2,0:0:0:0:
112,225,114716,5,2,0:0:0:0:
256,192,114917,12,0,116226,0:0:0:0:
