osu file format v14

[General]
AudioFilename: audio.mp3
AudioLeadIn: 0
PreviewTime: 57937
Countdown: 0
SampleSet: Soft
StackLeniency: 0.7
Mode: 0
LetterboxInBreaks: 0
WidescreenStoryboard: 0

[Editor]
Bookmarks: 22904,58340,96998
DistanceSpacing: 0.9
BeatDivisor: 4
GridSize: 4
TimelineZoom: 1

[Metadata]
Title:Oboro
TitleUnicode:朧
Artist:HHHxMMxST
ArtistUnicode:HHH×MM×ST
Creator:jordanlr7
Version:Dailycare's Normal
Source:pop'n music 20 fantasia
Tags:kkipalt morinaga dailycare pewdekz ryu* dai. vj halka 森永真由美 mayumi moimoi senya starving trancer japanese pop j-pop jpop electronic video game videogame sakura luminance
BeatmapID:3594376
BeatmapSetID:1536560

[Difficulty]
HPDrainRate:3
CircleSize:3
OverallDifficulty:3
ApproachRate:4.5
SliderMultiplier:1.15
SliderTickRate:1

[Events]
//Background and Video events
0,0,"bg.jpg",0,0
//Break Periods
2,74647,82852
//Storyboard Layer 0 (Background)
//Storyboard Layer 1 (Fail)
//Storyboard Layer 2 (Pass)
//Storyboard Layer 3 (Foreground)
//Storyboard Layer 4 (Overlay)
//Storyboard Sound Samples

[TimingPoints]
354,402.684563758389,4,2,1,40,1,0
6796,-100,4,2,1,50,0,0
6998,-100,4,2,1,50,0,0
7803,-100,4,2,1,50,0,0
8005,-100,4,2,1,50,0,0
8206,-100,4,2,1,50,0,0
8407,-100,4,2,1,50,0,0
8609,-100,4,2,1,50,0,0
9414,-100,4,2,1,50,0,0
9616,-100,4,2,1,50,0,0
9817,-100,4,2,1,50,0,0
10018,-100,4,2,1,50,0,0
10421,-100,4,2,1,50,0,0
10622,-100,4,2,1,50,0,0
10823,-100,4,2,1,50,0,0
11025,-100,4,2,1,50,0,0
11629,-100,4,2,1,50,0,0
11830,-100,4,2,1,50,0,0
12434,-100,4,2,1,50,0,0
12635,-100,4,2,1,50,0,0
13239,-100,4,2,1,50,0,0
13441,-100,4,2,1,50,0,0
14246,-100,4,2,1,50,0,0
14447,-100,4,2,1,50,0,0
14649,-100,4,2,1,50,0,0
14850,-100,4,2,1,50,0,0
15857,-100,4,2,1,50,0,0
16058,-100,4,2,1,50,0,0
16260,-100,4,2,1,50,0,0
16461,-100,4,2,1,50,0,0
16662,-100,4,2,1,50,0,0
17266,-100,4,2,1,50,0,0
17468,-100,4,2,1,50,0,0
18072,-100,4,2,1,50,0,0
18273,-100,4,2,1,50,0,0
18676,-100,4,2,1,50,0,0
19078,-100,4,2,1,50,0,0
19682,-100,4,2,1,50,0,0
21293,-100,4,2,1,60,0,0
21494,-100,4,2,1,60,0,0
22098,-100,4,2,1,50,0,0
22904,-100,4,2,1,70,0,0
30958,-100,4,2,1,50,0,0
43038,-100,4,2,1,50,0,0
43843,-100,4,2,1,60,0,0
44045,-100,4,2,1,60,0,0
49481,-100,4,2,1,60,0,0
49682,-100,4,2,1,60,0,0
49884,-100,4,2,1,60,0,0
50488,-100,4,2,1,60,0,0
53508,-100,4,2,1,60,0,0
55421,-100,4,2,1,60,0,0
56729,-100,4,2,1,60,0,0
57535,-100,4,2,1,60,0,0
58340,-100,4,2,1,70,0,1
58441,-100,4,2,1,70,0,1
64783,-100,4,2,1,70,0,1
64884,-100,4,2,1,70,0,1
69666,-100,4,2,1,70,0,1
69817,-100,4,2,1,70,0,1
69868,-100,4,2,1,70,0,1
70018,-100,4,2,1,70,0,1
70069,-100,4,2,1,70,0,1
70219,-100,4,2,1,70,0,1
70270,-100,4,2,1,70,0,1
70421,-100,4,2,1,70,0,1
70472,-100,4,2,1,70,0,1
70622,-100,4,2,1,70,0,1
70823,-100,4,2,1,70,0,1
71226,-100,4,2,1,70,0,0
72837,-100,4,2,1,70,0,0
74447,-100,4,2,1,50,0,0
74548,-100,4,2,1,50,0,0
74850,-100,4,2,1,60,0,0
75656,-100,4,2,1,50,0,0
76058,-100,4,2,1,60,0,0
76461,-100,4,2,1,50,0,0
77669,-100,4,2,1,60,0,0
78072,-100,4,2,1,45,0,0
79682,-100,4,2,1,60,0,0
80890,-100,4,2,1,60,0,0
81696,-100,4,2,1,60,0,0
81897,-100,4,2,1,60,0,0
84112,-100,4,2,1,60,0,0
90958,-100,4,2,1,60,0,0
92166,-100,4,2,1,60,0,0
92568,-100,4,2,1,60,0,0
93776,-100,4,2,1,60,0,0
95387,-100,4,2,1,60,0,0
96192,-100,4,2,1,60,0,0
96595,-100,4,2,1,60,0,0
96998,-100,4,2,1,60,0,1
97098,-100,4,2,1,60,0,1
101830,-100,4,2,1,60,0,1
102233,-100,4,2,1,60,0,1
102333,-100,4,2,1,60,0,1
102635,-100,4,2,1,60,0,1
103441,-100,4,2,1,60,0,1
103541,-100,4,2,1,60,0,1
109884,-100,4,2,1,60,0,0
110689,-100,4,2,1,45,0,0
113105,-100,4,2,1,60,0,0
113911,-100,4,2,1,45,0,0
116125,-100,4,2,1,45,0,0
116226,-100,4,2,1,5,0,0

[Colours]
Combo1 : 255,140,198
Combo2 : 255,156,108
Combo3 : 172,125,162
Combo4 : 113,143,181

[HitObjects]
48,240,6796,6,0,P|42:185|32:114,2,115,14|2|0,0:0|0:0|0:0,0:0:0:0:
139,288,8005,1,2,0:0:0:0:
225,230,8407,2,0,P|230:284|241:356,2,115,2|2|0,0:0|0:0|0:0,0:0:0:0:
133,181,9615,1,2,0:0:0:0:
218,123,10018,5,2,0:0:0:0:
310,169,10421,2,0,P|367:174|424:182,2,115,2|0|2,0:0|0:0|0:0,0:0:0:0:
225,230,11629,1,2,0:0:0:0:
133,181,12031,1,2,0:0:0:0:
48,240,12434,2,0,P|42:185|32:114,1,115,0|2,0:0|0:0,0:0:0:0:
127,80,13239,6,0,P|95:36|30:17,2,115,6|2|0,1:2|0:0|0:0,0:0:0:0:
133,181,14447,1,2,0:0:0:0:
218,123,14850,2,0,P|272:117|321:70,2,115,2|2|0,0:0|0:0|0:0,0:0:0:0:
225,230,16058,1,2,0:0:0:0:
138,287,16461,5,2,0:0:0:0:
231,330,16864,2,0,P|283:320|368:314,1,115,2|0,0:0|0:0,0:0:0:0:
396,224,17669,1,2,0:0:0:0:
489,268,18072,2,0,P|503:214|473:156,2,115,2|2|0,0:0|0:0|0:0,0:0:0:0:
438,358,19280,1,2,0:0:0:0:
344,314,19682,6,0,P|317:215|272:78,1,230,6|10,0:0|0:0,0:0:0:0:
343,13,20890,1,10,0:0:0:0:
424,77,21293,2,0,P|386:192|173:206,1,345,2|2,1:2|0:0,0:0:0:0:
98,160,22904,6,0,P|92:204|79:294,1,115,14|2,0:0|1:2,0:0:0:0:
53,316,23508,2,0,P|131:301|204:377,1,172.5,2|2,0:0|1:2,0:0:0:0:
299,334,24515,2,0,P|357:313|390:249,1,115,10|2,0:0|1:2,0:0:0:0:
436,279,25119,2,0,P|423:198|410:98,1,172.5,2|0,0:0|1:2,0:0:0:0:
382,65,25924,5,8,0:0:0:0:
382,65,26125,2,0,P|428:49|464:5,2,86.25,8|8|8,0:0|0:0|0:0,0:0:0:0:
324,151,27132,2,0,P|292:117|205:93,1,115,8|8,0:0|0:0,0:0:0:0:
178,105,27736,2,0,P|187:61|191:13,2,86.25,4|8|8,0:0|0:0|0:0,0:0:0:0:
225,197,28743,2,0,P|165:211|118:256,1,115,8|8,0:0|0:0,0:0:0:0:
73,247,29347,2,0,P|111:317|351:292,1,345,0|0,1:2|0:0,0:0:0:0:
373,204,30958,5,12,0:0:0:0:
462,255,31360,2,0,P|469:193|481:121,1,115,2|10,1:2|0:0,0:0:0:0:
431,47,32166,1,2,1:2:0:0:
342,100,32568,2,0,P|297:65|218:77,1,115,10|2,0:0|1:2,0:0:0:0:
148,18,33374,2,0,P|105:25|58:92,1,115,10|0,0:0|1:2,0:0:0:0:
12,96,33978,5,2,0:0:0:0:
12,96,34179,2,0,P|39:167|64:286,1,172.5,10|2,0:0|0:0,0:0:0:0:
104,289,34984,1,10,0:0:0:0:
178,217,35387,2,0,P|181:186|187:159,1,57.5,2|2,1:2|0:0,0:0:0:0:
167,112,35790,2,0,P|221:121|283:89,1,115,10|2,0:0|1:2,0:0:0:0:
355,32,36595,1,10,0:0:0:0:
446,81,36998,1,0,1:2:0:0:
428,182,37400,5,8,0:0:0:0:
325,197,37803,2,0,P|334:259|340:331,1,115,2|10,1:2|0:0,0:0:0:0:
251,367,38609,1,2,1:2:0:0:
235,264,39011,2,0,P|207:240|126:239,1,115,10|2,0:0|1:2,0:0:0:0:
36,278,39817,2,0,P|30:220|22:163,1,115,10|0,0:0|1:2,0:0:0:0:
6,119,40421,5,2,0:0:0:0:
6,119,40622,2,0,P|63:113|120:105,1,115,10|2,0:0|1:2,0:0:0:0:
217,141,41427,2,0,P|231:81|294:46,1,115,10|2,0:0|1:2,0:0:0:0:
309,14,42031,1,2,0:0:0:0:
309,14,42233,2,0,P|359:40|437:37,1,115,10|0,0:0|1:2,0:0:0:0:
468,131,43038,6,0,P|497:113|529:104,2,57.5,8|8|0,0:0|0:0|1:2,0:0:0:0:
365,147,43843,6,0,P|381:198|387:275,1,115,14|2,0:0|1:2,0:0:0:0:
414,303,44447,1,2,0:0:0:0:
381,343,44649,2,0,P|328:326|255:323,1,115,8|0,0:0|1:2,0:0:0:0:
174,280,45454,1,10,0:0:0:0:
89,340,45857,2,0,P|84:307|71:277,1,57.5,2|2,1:2|0:0,0:0:0:0:
29,260,46260,2,0,P|20:217|58:147,1,115,8|0,0:0|1:2,0:0:0:0:
89,122,46864,1,2,0:0:0:0:
97,71,47065,6,0,P|35:49|-10:20,2,115,10|2|10,0:0|1:2|0:0,0:0:0:0:
198,51,48273,1,2,1:2:0:0:
252,138,48676,2,0,P|242:170|238:204,1,57.5,10|2,0:0|0:0,0:0:0:0:
189,210,49078,2,0,P|198:268|204:336,1,115,2|8,1:2|0:0,0:0:0:0:
255,323,49682,1,0,0:0:0:0:
286,364,49884,1,8,1:2:0:0:
388,351,50286,6,0,P|414:303|482:277,1,115,10|2,0:0|1:2,0:0:0:0:
492,232,50890,1,2,0:0:0:0:
477,182,51092,2,0,P|421:168|356:143,1,115,8|0,0:0|1:2,0:0:0:0:
302,67,51897,1,10,0:0:0:0:
201,92,52300,2,0,P|209:119|214:147,1,57.5,2|2,1:2|0:0,0:0:0:0:
252,183,52702,2,0,P|196:192|161:236,1,115,8|2,0:0|1:2,0:0:0:0:
194,333,53508,5,10,0:0:0:0:
95,364,53911,1,10,1:2:0:0:
12,301,54313,1,10,0:0:0:0:
26,198,54716,2,0,P|34:170|39:142,1,57.5,10|10,1:2|0:0,0:0:0:0:
71,101,55119,2,0,P|173:115|253:11,2,230,14|10|12,0:3|0:0|0:3,0:0:0:0:
256,192,57535,5,10,0:0:0:0:
326,116,57937,1,10,1:2:0:0:
297,16,58340,6,0,P|349:27|417:38,1,115,14|0,0:0|1:2,0:0:0:0:
461,27,58944,2,0,P|449:83|439:140,1,115,2|0,0:0|0:0,0:0:0:0:
403,177,59548,1,2,1:2:0:0:
490,232,59951,2,0,P|478:288|468:345,1,115,10|10,0:0|1:2,0:0:0:0:
424,370,60555,2,0,P|399:344|307:332,1,115,2|0,0:0|0:0,0:0:0:0:
293,285,61159,2,0,P|262:294|223:300,1,57.5,2|2,1:2|0:0,0:0:0:0:
194,327,61562,5,10,0:0:0:0:
116,258,61964,2,0,P|77:255|11:228,2,86.25,2|2|2,1:2|0:0|0:0,0:0:0:0:
160,230,62770,2,0,P|165:201|173:174,1,57.5,2|2,1:2|0:0,0:0:0:0:
151,127,63172,5,10,0:0:0:0:
214,45,63575,1,2,1:2:0:0:
317,36,63978,1,8,0:0:0:0:
400,97,64380,2,0,P|395:130|391:175,1,57.5,2|10,1:2|1:2,0:0:0:0:
421,198,64783,6,0,P|373:208|301:235,1,115,14|2,0:0|1:2,0:0:0:0:
277,269,65387,2,0,P|267:221|240:149,1,115,2|0,0:0|0:0,0:0:0:0:
202,128,65991,1,2,1:2:0:0:
215,25,66394,2,0,P|161:45|105:57,1,115,10|2,0:0|1:2,0:0:0:0:
53,49,66998,2,0,P|73:102|85:158,1,115,2|0,0:0|0:0,0:0:0:0:
129,186,67602,2,0,P|117:229|114:267,1,57.5,2|2,1:2|0:0,0:0:0:0:
82,281,68005,1,14,0:0:0:0:
141,365,68407,6,0,P|183:335|270:331,1,115,2|8,1:2|0:0,0:0:0:0:
294,338,69011,1,2,0:0:0:0:
334,305,69213,2,0,P|336:268|343:224,1,57.5,2|2,1:2|0:0,0:0:0:0:
376,212,69615,2,0,P|418:242|505:246,2,115,10|10|8,0:0|1:2|0:0,0:0:0:0:
282,167,70823,6,0,P|280:130|273:86,1,57.5,2|10,1:2|0:0,0:0:0:0:
306,67,71226,2,0,P|262:24|141:42,1,172.5,14|0,0:0|0:0,0:0:0:0:
119,64,72031,1,10,0:0:0:0:
17,45,72434,6,0,P|13:73|12:102,1,57.5,10|10,0:0|0:0,0:0:0:0:
46,141,72837,2,0,P|3:185|21:306,1,172.5,2|0,1:2|0:0,0:0:0:0:
42,329,73642,2,0,P|100:319|176:312,1,115,0|0,1:2|1:2,0:0:0:0:
227,238,74447,1,2,0:0:0:0:
227,238,84112,6,0,P|292:243|355:247,2,115,6|2|0,0:0|0:0|0:0,0:0:0:0:
146,303,85320,1,2,0:0:0:0:
55,252,85723,2,0,P|51:194|46:137,2,115,2|2|0,0:0|0:0|0:0,0:0:0:0:
137,189,86931,1,2,0:0:0:0:
227,238,87333,5,2,0:0:0:0:
315,292,87736,2,0,P|318:234|323:177,1,115,2|0,0:0|0:0,0:0:0:0:
239,115,88541,1,2,0:0:0:0:
303,33,88944,2,0,P|354:56|428:64,1,115,2|2,0:0|0:0,0:0:0:0:
487,135,89749,1,0,0:0:0:0:
420,214,90152,1,2,0:0:0:0:
454,311,90555,5,2,0:0:0:0:
368,369,90958,2,0,P|337:315|163:291,1,230,2|2,1:2|1:2,0:0:0:0:
84,248,92166,5,2,0:0:0:0:
160,178,92568,2,0,P|191:124|365:100,1,230,2|2,1:2|1:2,0:0:0:0:
410,9,93776,5,6,0:0:0:0:
483,82,94179,2,0,P|505:46|510:-4,2,86.25,2|10|2,1:2|0:0|0:0,0:0:0:0:
442,114,94984,2,0,P|450:147|450:178,1,57.5,10|10,0:0|0:0,0:0:0:0:
491,202,95387,5,10,0:0:0:0:
477,304,95790,1,10,0:0:0:0:
385,352,96192,1,2,0:0:0:0:
290,310,96595,2,0,P|257:318|226:318,1,57.5,2|2,1:2|0:0,0:0:0:0:
215,368,96998,6,0,P|163:357|95:346,1,115,14|0,0:0|1:2,0:0:0:0:
51,357,97602,2,0,P|59:322|64:282,1,57.5,2|8,0:0|0:0,0:0:0:0:
109,207,98206,2,0,P|87:174|53:164,1,57.5,2|2,1:2|0:0,0:0:0:0:
22,152,98609,2,0,P|34:96|44:39,1,115,10|2,0:0|1:2,0:0:0:0:
89,15,99213,2,0,P|114:41|150:49,1,57.5,2|8,0:0|0:0,0:0:0:0:
220,104,99817,6,0,P|251:95|290:89,1,57.5,2|2,1:2|0:0,0:0:0:0:
318,57,100220,1,10,0:0:0:0:
396,126,100622,2,0,P|435:129|501:156,2,86.25,2|2|2,1:2|0:0|0:0,0:0:0:0:
355,158,101427,1,2,1:2:0:0:
361,261,101830,6,0,P|304:318|198:306,1,172.5,10|2,0:0|0:0,0:0:0:0:
113,326,102837,2,0,P|105:297|93:258,1,57.5,0|2,0:0|1:2,0:0:0:0:
65,230,103239,1,10,1:2:0:0:
91,186,103441,6,0,P|139:176|211:149,1,115,14|2,0:0|1:2,0:0:0:0:
252,146,104045,2,0,P|259:180|272:214,1,57.5,2|8,0:0|0:0,0:0:0:0:
229,297,104649,2,0,P|234:333|266:359,1,57.5,2|2,1:2|0:0,0:0:0:0:
297,359,105052,2,0,P|351:339|407:327,1,115,10|2,0:0|1:2,0:0:0:0:
436,284,105656,2,0,P|452:260|453:232,1,57.5,2|8,0:0|0:0,0:0:0:0:
500,139,106260,6,0,P|467:126|441:94,1,57.5,2|2,1:2|0:0,0:0:0:0:
399,117,106663,1,14,0:0:0:0:
371,19,107065,2,0,P|329:49|242:53,1,115,2|8,1:2|0:0,0:0:0:0:
218,46,107669,1,2,0:0:0:0:
178,79,107871,2,0,P|176:116|169:160,1,57.5,2|2,1:2|0:0,0:0:0:0:
192,184,108273,5,10,0:0:0:0:
124,262,108676,1,10,1:2:0:0:
165,356,109078,1,8,0:0:0:0:
267,371,109481,2,0,P|269:334|276:290,1,57.5,2|10,1:2|0:0,0:0:0:0:
294,267,109884,6,0,P|262:198|119:185,1,230,14|2,0:0|0:0,0:0:0:0:
87,85,111092,1,2,0:0:0:0:
19,162,111494,2,0,P|32:221|45:293,1,115,2|0,0:0|0:0,0:0:0:0:
90,366,112300,2,0,P|149:353|221:340,1,115,0|2,0:0|0:0,0:0:0:0:
210,295,112904,1,2,0:0:0:0:
210,295,113105,6,0,P|242:226|385:213,1,230,14|2,0:0|0:0,0:0:0:0:
417,113,114313,1,2,0:0:0:0:
485,190,114716,1,2,0:0:0:0:
256,192,114817,12,0,116226,0:0:0:0:
