osu file format v14

[General]
AudioFilename: audio.mp3
AudioLeadIn: 100
PreviewTime: 57937
Countdown: 0
SampleSet: Soft
StackLeniency: 0.7
Mode: 0
LetterboxInBreaks: 0
WidescreenStoryboard: 0

[Editor]
Bookmarks: 9414,116830
DistanceSpacing: 1.2
BeatDivisor: 4
GridSize: 4
TimelineZoom: 2.7

[Metadata]
Title:Oboro
TitleUnicode:朧
Artist:HHHxMMxST
ArtistUnicode:HHH×MM×ST
Creator:jordanlr7
Version:Collab Advanced
Source:pop'n music 20 fantasia
Tags:kkipalt morinaga dailycare pewdekz ryu* dai. vj halka 森永真由美 mayumi moimoi senya starving trancer japanese pop j-pop jpop electronic video game videogame sakura luminance
BeatmapID:3623113
BeatmapSetID:1536560

[Difficulty]
HPDrainRate:3.5
CircleSize:3.2
OverallDifficulty:5
ApproachRate:6.3
SliderMultiplier:1.25
SliderTickRate:0.5

[Events]
//Background and Video events
0,0,"bg.jpg",0,0
//Break Periods
2,74245,79857
//Storyboard Layer 0 (Background)
//Storyboard Layer 1 (Fail)
//Storyboard Layer 2 (Pass)
//Storyboard Layer 3 (Foreground)
//Storyboard Layer 4 (Overlay)
//Storyboard Sound Samples

[TimingPoints]
354,402.684563758389,4,2,1,40,1,0
6796,-103.092783505155,4,2,1,50,0,0
6998,-103.092783505155,4,2,1,50,0,0
7803,-103.092783505155,4,2,1,50,0,0
8005,-103.092783505155,4,2,1,50,0,0
8206,-103.092783505155,4,2,1,50,0,0
8407,-103.092783505155,4,2,1,50,0,0
8609,-103.092783505155,4,2,1,50,0,0
9414,-103.092783505155,4,2,1,50,0,0
9616,-103.092783505155,4,2,1,50,0,0
9817,-103.092783505155,4,2,1,50,0,0
10018,-103.092783505155,4,2,1,50,0,0
10421,-103.092783505155,4,2,1,50,0,0
10622,-103.092783505155,4,2,1,50,0,0
10823,-103.092783505155,4,2,1,50,0,0
11025,-103.092783505155,4,2,1,50,0,0
11629,-103.092783505155,4,2,1,50,0,0
11830,-103.092783505155,4,2,1,50,0,0
12434,-103.092783505155,4,2,1,50,0,0
12635,-103.092783505155,4,2,1,50,0,0
13239,-100,4,2,1,50,0,0
13441,-100,4,2,1,50,0,0
14246,-100,4,2,1,50,0,0
14447,-100,4,2,1,50,0,0
14649,-100,4,2,1,50,0,0
14850,-100,4,2,1,50,0,0
15857,-100,4,2,1,50,0,0
16058,-100,4,2,1,50,0,0
16260,-100,4,2,1,50,0,0
16461,-100,4,2,1,50,0,0
16662,-100,4,2,1,50,0,0
17266,-100,4,2,1,50,0,0
17468,-100,4,2,1,50,0,0
18072,-100,4,2,1,50,0,0
18273,-100,4,2,1,50,0,0
18676,-100,4,2,1,50,0,0
19078,-100,4,2,1,50,0,0
19682,-100,4,2,1,50,0,0
21293,-100,4,2,1,60,0,0
21494,-100,4,2,1,60,0,0
22098,-100,4,2,1,50,0,0
22904,-97.0873786407767,4,2,1,70,0,0
26125,-97.0873786407767,4,2,1,70,0,0
30958,-100,4,2,1,50,0,0
43038,-100,4,2,1,50,0,0
43843,-97.0873786407767,4,2,1,60,0,0
44045,-95.2380952380952,4,2,1,60,0,0
49481,-95.2380952380952,4,2,1,60,0,0
49682,-95.2380952380952,4,2,1,60,0,0
49884,-95.2380952380952,4,2,1,60,0,0
50488,-95.2380952380952,4,2,1,60,0,0
53508,-95.2380952380952,4,2,1,60,0,0
55421,-95.2380952380952,4,2,1,60,0,0
56729,-93.4579439252336,4,2,1,60,0,0
57535,-93.4579439252336,4,2,1,60,0,0
58340,-93.4579439252336,4,2,1,70,0,1
58441,-93.4579439252336,4,2,1,70,0,1
64783,-93.4579439252336,4,2,1,70,0,1
64884,-93.4579439252336,4,2,1,70,0,1
69666,-93.4579439252336,4,2,1,70,0,1
69817,-93.4579439252336,4,2,1,70,0,1
69868,-93.4579439252336,4,2,1,70,0,1
70018,-93.4579439252336,4,2,1,70,0,1
70069,-93.4579439252336,4,2,1,70,0,1
70219,-93.4579439252336,4,2,1,70,0,1
70270,-93.4579439252336,4,2,1,70,0,1
70421,-93.4579439252336,4,2,1,70,0,1
70472,-93.4579439252336,4,2,1,70,0,1
70622,-93.4579439252336,4,2,1,70,0,1
70823,-93.4579439252336,4,2,1,70,0,1
71226,-93.4579439252336,4,2,1,70,0,0
72031,-95.2380952380952,4,2,1,70,0,0
72837,-95.2380952380952,4,2,1,70,0,0
74447,-100,4,2,1,50,0,0
74548,-100,4,2,1,50,0,0
74850,-100,4,2,1,60,0,0
75656,-100,4,2,1,50,0,0
76058,-100,4,2,1,60,0,0
76461,-100,4,2,1,50,0,0
77669,-100,4,2,1,60,0,0
78072,-100,4,2,1,45,0,0
79682,-100,4,2,1,60,0,0
80890,-103.092783505155,4,2,1,60,0,0
81696,-103.092783505155,4,2,1,60,0,0
81897,-103.092783505155,4,2,1,60,0,0
84112,-100,4,2,1,60,0,0
87333,-100,4,2,1,60,0,0
90958,-100,4,2,1,60,0,0
92166,-100,4,2,1,60,0,0
92568,-104.166666666667,4,2,1,60,0,0
93776,-97.0873786407767,4,2,1,60,0,0
94481,-97.0873786407767,4,2,1,60,0,0
95387,-97.0873786407767,4,2,1,60,0,0
96192,-97.0873786407767,4,2,1,60,0,0
96595,-97.0873786407767,4,2,1,60,0,0
96998,-93.4579439252336,4,2,1,60,0,1
97098,-93.4579439252336,4,2,1,60,0,1
101830,-93.4579439252336,4,2,1,60,0,1
102233,-93.4579439252336,4,2,1,60,0,1
102333,-93.4579439252336,4,2,1,60,0,1
102635,-93.4579439252336,4,2,1,60,0,1
103441,-93.4579439252336,4,2,1,60,0,1
103541,-93.4579439252336,4,2,1,60,0,1
105051,-93.4579439252336,4,2,1,60,0,1
108324,-93.4579439252336,4,2,1,60,0,1
108475,-93.4579439252336,4,2,1,60,0,1
108526,-93.4579439252336,4,2,1,60,0,1
108676,-93.4579439252336,4,2,1,60,0,1
108727,-93.4579439252336,4,2,1,60,0,1
108877,-93.4579439252336,4,2,1,60,0,1
108928,-93.4579439252336,4,2,1,60,0,1
109079,-93.4579439252336,4,2,1,60,0,1
109130,-93.4579439252336,4,2,1,60,0,1
109280,-93.4579439252336,4,2,1,60,0,1
109481,-93.4579439252336,4,2,1,60,0,1
109884,-100,4,2,1,60,0,0
110689,-100,4,2,1,45,0,0
113105,-100,4,2,1,60,0,0
113911,-111.111111111111,4,2,1,45,0,0
116125,-100,4,2,1,45,0,0
116327,-100,4,2,1,45,0,0
116528,-100,4,2,1,45,0,0
116783,-100,4,2,1,45,0,0
117031,-100,4,2,1,45,0,0
117264,-100,4,2,1,45,0,0
117645,-100,4,2,1,45,0,0
117837,-100,4,2,1,45,0,0
118053,-100,4,2,1,45,0,0
118239,-100,4,2,1,45,0,0
118441,-100,4,2,1,45,0,0
118743,-100,4,2,1,5,0,0

[Colours]
Combo1 : 255,140,198
Combo2 : 255,156,108
Combo3 : 172,125,162
Combo4 : 113,143,181

[HitObjects]
90,225,6796,6,0,P|63:296|158:287,1,181.875004301548,14|2,0:0|0:0,0:0:0:0:
144,309,8005,2,0,P|173:289|211:288,1,60.6250014338494,2|2,0:0|0:0,0:0:0:0:
270,326,8407,2,0,B|319:340|354:308|354:308|389:275|439:292,1,181.875004301548,2|2,0:0|0:0,0:0:0:0:
439,292,9615,2,0,L|450:214,1,60.6250014338494,2|2,0:0|0:0,0:0:0:0:
404,160,10018,6,0,P|354:136|286:145,1,121.250002867699,2|2,0:0|0:0,0:0:0:0:
226,189,10622,1,2,0:0:0:0:
226,189,10723,2,0,L|125:166,1,90.9375021507741,2|2,0:0|0:0,0:0:0:0:
69,208,11226,1,2,0:0:0:0:
21,64,11629,2,0,L|95:50,1,60.6250014338494,2|2,0:0|0:0,0:0:0:0:
145,5,12031,2,0,P|193:46|241:52,1,90.9375021507741,2|2,0:0|0:0,0:0:0:0:
390,9,12837,2,0,L|401:85,1,60.6250014338494,2|2,0:0|0:0,0:0:0:0:
452,129,13239,6,0,B|441:196|441:196|455:216|455:216|438:332,1,187.5,6|2,1:2|0:0,0:0:0:0:
441,310,14447,2,0,P|407:326|361:317,1,62.5,2|2,0:0|0:0,0:0:0:0:
324,381,14850,2,0,B|310:367|303:344|303:344|203:324|203:324|188:342|166:349,1,187.5,2|2,0:0|0:0,0:0:0:0:
168,348,16058,2,0,L|161:271,1,62.5,2|2,0:0|0:0,0:0:0:0:
109,225,16461,6,0,P|129:173|139:101,1,125,2|2,0:0|0:0,0:0:0:0:
114,31,17065,1,2,0:0:0:0:
114,31,17166,2,0,P|75:11|13:18,1,93.75,2|2,0:0|0:0,0:0:0:0:
0,88,17669,2,0,L|10:176,1,62.5,2|2,0:0|0:0,0:0:0:0:
49,218,18072,2,0,B|35:259|35:259|46:274|46:274|22:345,1,125,2|2,0:0|0:0,0:0:0:0:
97,382,18676,1,2,0:0:0:0:
97,382,18776,1,2,0:0:0:0:
207,331,19078,2,0,P|250:359|277:354,2,62.5,2|2|2,0:0|0:0|0:0,0:0:0:0:
174,256,19682,5,6,0:0:0:0:
174,256,20488,2,0,L|199:112,1,125,10|10,0:0|0:0,0:0:0:0:
234,63,21092,1,10,0:0:0:0:
314,62,21293,1,2,1:2:0:0:
256,192,21494,12,2,22501,0:0:0:0:
64,66,22904,6,0,B|98:52|123:69|123:69|150:87|189:73,1,128.749998919487,14|2,0:0|1:2,0:0:0:0:
252,26,23508,2,0,P|316:23|373:128,1,193.124998379231,2|2,0:0|1:2,0:0:0:0:
370,201,24313,1,2,0:0:0:0:
314,255,24515,2,0,B|259:247|259:247|253:236|253:236|191:228,1,128.749998919487,10|2,0:0|1:2,0:0:0:0:
132,276,25119,2,0,P|74:292|56:179,1,193.124998379231,2|0,0:0|1:2,0:0:0:0:
51,111,25924,1,8,0:0:0:0:
124,80,26125,6,0,P|156:48|172:1,2,96.5624991896153,8|8|8,0:0|0:0|0:0,0:0:0:0:
157,152,26931,2,0,L|174:286,1,128.749998919487,0|0,0:0|1:2,0:0:0:0:
216,347,27535,1,8,0:0:0:0:
283,304,27736,2,0,B|305:277|328:271|328:271|360:297|412:288,1,128.749998919487,4|0,0:0|1:2,0:0:0:0:
465,251,28340,2,0,P|499:196|491:124,1,128.749998919487,8|8,0:0|0:0,0:0:0:0:
456,63,28944,1,4,1:2:0:0:
256,192,29347,12,0,30555,0:0:0:0:
483,58,30958,6,0,P|440:90|359:77,1,125,12|2,0:0|1:2,0:0:0:0:
306,43,31562,1,2,0:0:0:0:
246,91,31763,2,0,L|252:152,1,62.5,10|2,0:0|0:0,0:0:0:0:
299,214,32166,2,0,L|292:275,1,62.5,2|2,1:2|0:0,0:0:0:0:
246,337,32568,2,0,P|188:352|120:320,2,125,10|2|10,0:0|1:2|0:0,0:0:0:0:
322,352,33575,2,0,L|345:383,2,31.25,0|0|0,0:0|0:0|1:2,0:0:0:0:
377,298,33978,1,2,0:0:0:0:
452,282,34179,6,0,B|463:232|463:232|458:217|458:217|474:147,1,125,10|0,0:0|1:2,0:0:0:0:
466,83,34783,1,2,0:0:0:0:
411,28,34984,2,0,L|341:42,1,62.5,10|2,0:0|0:0,0:0:0:0:
323,68,35286,1,2,0:0:0:0:
323,68,35387,2,0,L|253:54,1,62.5,2|2,1:2|0:0,0:0:0:0:
194,93,35790,2,0,B|209:188|209:188|244:211,2,125,10|2|10,0:0|1:2|0:0,0:0:0:0:
137,41,36796,2,0,L|144:-3,2,31.25,0|0|0,0:0|0:0|1:2,0:0:0:0:
67,75,37199,1,0,0:0:0:0:
0,35,37400,6,0,P|30:83|32:151,1,125,8|2,0:0|1:2,0:0:0:0:
15,225,38005,1,2,0:0:0:0:
56,289,38206,2,0,L|132:277,1,62.5,10|2,0:0|0:0,0:0:0:0:
177,229,38609,2,0,L|253:241,1,62.5,2|2,1:2|0:0,0:0:0:0:
298,287,39011,2,0,P|341:302|421:248,2,125,10|2|10,0:0|1:2|0:0,0:0:0:0:
231,325,40018,2,0,P|240:351|240:380,2,31.25,0|0|0,0:0|0:0|1:2,0:0:0:0:
165,283,40421,1,2,0:0:0:0:
140,208,40622,6,0,B|154:152|154:152|151:143|151:143|167:79,1,125,10|2,0:0|1:2,0:0:0:0:
165,86,41427,2,0,P|189:66|231:61,1,62.5,10|2,0:0|0:0,0:0:0:0:
258,47,41729,1,0,0:0:0:0:
258,47,41830,2,0,L|331:72,1,62.5,2|2,1:2|0:0,0:0:0:0:
362,129,42233,2,0,B|344:189|344:189|373:253,2,125,10|0|8,0:0|1:2|0:0,0:0:0:0:
418,77,43239,1,8,0:0:0:0:
483,119,43441,2,0,L|495:170,3,31.25,0|0|8|8,1:2|0:0|0:0|0:0,0:0:0:0:
511,182,43843,6,0,L|502:274,1,64.3749994597435,14|2,0:0|0:0,0:0:0:0:
447,300,44246,2,0,P|420:277|382:267,1,65.624997997284,2|2,1:2|0:0,0:0:0:0:
353,277,44548,2,0,P|310:307|246:304,1,98.437496995926,2|0,0:0|0:0,0:0:0:0:
214,248,45051,1,0,1:2:0:0:
250,178,45253,1,2,0:0:0:0:
250,178,45353,1,2,0:0:0:0:
250,178,45454,6,0,P|253:136|231:91,1,65.624997997284,10|2,0:0|0:0,0:0:0:0:
301,57,45857,2,0,P|264:36|214:37,1,65.624997997284,2|2,1:2|0:0,0:0:0:0:
212,6,46159,2,0,B|170:8|170:8|165:15|165:15|96:22,1,98.437496995926,2|0,0:0|0:0,0:0:0:0:
40,2,46662,2,0,L|32:83,1,65.624997997284,0|2,1:2|0:0,0:0:0:0:
1,145,47065,6,0,P|67:162|108:231,1,131.249995994568,10|2,0:0|1:2,0:0:0:0:
124,286,47669,1,2,0:0:0:0:
198,261,47870,2,0,B|215:201|215:201|213:188|213:188|233:119,2,131.249995994568,10|2|10,0:0|1:2|0:0,0:0:0:0:
242,326,48877,1,2,0:0:0:0:
314,299,49078,2,0,P|341:288|396:294,1,65.624997997284,2|2,1:2|0:0,0:0:0:0:
408,313,49380,2,0,P|484:324|508:242,1,164.06249499321,2|8,0:0|1:2,0:0:0:0:
512,254,50286,6,0,P|501:230|498:186,1,65.624997997284,10|2,0:0|0:0,0:0:0:0:
445,131,50689,2,0,L|379:124,1,65.624997997284,2|2,1:2|0:0,0:0:0:0:
354,94,50991,2,0,L|237:115,1,98.437496995926,2|0,0:0|0:0,0:0:0:0:
183,82,51494,1,0,1:2:0:0:
130,141,51696,1,2,0:0:0:0:
130,141,51796,1,2,0:0:0:0:
130,141,51897,2,0,P|128:181|105:220,1,65.624997997284,10|2,0:0|0:0,0:0:0:0:
60,258,52300,2,0,L|75:343,1,65.624997997284,2|2,1:2|0:0,0:0:0:0:
81,360,52602,2,0,P|118:378|175:374,1,98.437496995926,2|0,0:0|0:0,0:0:0:0:
232,321,53105,1,2,1:2:0:0:
261,195,53508,5,10,0:0:0:0:
239,119,53709,1,10,0:0:0:0:
285,54,53911,2,0,B|345:47|345:47|357:55|357:55|418:50,1,131.249995994568,10|10,1:2|0:0,0:0:0:0:
464,111,54515,1,10,0:0:0:0:
454,189,54716,2,0,P|424:209|378:210,1,65.624997997284,10|10,1:2|0:0,0:0:0:0:
351,279,55119,2,0,P|317:249|237:239,2,98.437496995926,14|6|2,0:3|0:3|0:3,0:0:0:0:
380,352,55924,1,10,0:0:0:0:
256,192,56327,12,10,57535,0:0:0:0:
27,131,57937,6,0,L|15:203,1,66.874997959137,10|8,1:2|0:0,0:0:0:0:
29,276,58340,2,0,P|92:279|146:221,1,133.749995918274,14|0,0:0|1:2,0:0:0:0:
169,157,58944,1,2,0:0:0:0:
169,157,59045,2,0,L|279:147,1,100.312496938706,2|0,0:0|0:0,0:0:0:0:
330,199,59548,1,2,1:2:0:0:
303,274,59749,1,2,0:0:0:0:
335,347,59951,6,0,B|363:325|396:340|396:340|427:353|463:339,1,133.749995918274,10|10,0:0|1:2,0:0:0:0:
509,274,60555,1,2,0:0:0:0:
509,274,60656,2,0,L|495:152,1,100.312496938706,2|0,0:0|0:0,0:0:0:0:
448,110,61159,1,2,1:2:0:0:
372,136,61360,1,2,0:0:0:0:
295,112,61562,6,0,P|247:155|171:153,1,133.749995918274,10|2,0:0|1:2,0:0:0:0:
117,108,62166,1,2,0:0:0:0:
117,108,62266,2,0,P|58:112|36:165,1,100.312496938706,2|2,0:0|0:0,0:0:0:0:
46,222,62770,1,2,1:2:0:0:
29,300,62971,1,2,0:0:0:0:
80,361,63172,6,0,P|113:343|155:347,2,66.874997959137,10|2|2,0:0|0:0|1:2,0:0:0:0:
154,246,63776,1,2,0:0:0:0:
154,246,63877,2,0,P|187:274|250:269,1,100.312496938706,2|0,0:0|0:0,0:0:0:0:
312,235,64380,1,2,1:2:0:0:
387,262,64582,1,10,1:2:0:0:
460,230,64783,6,0,B|471:172|471:172|466:164|466:164|481:80,1,133.749995918274,14|2,0:0|1:2,0:0:0:0:
431,32,65387,1,2,0:0:0:0:
431,32,65488,2,0,P|387:61|323:58,1,100.312496938706,2|0,0:0|0:0,0:0:0:0:
268,29,65991,1,2,1:2:0:0:
208,83,66192,1,2,0:0:0:0:
128,68,66394,6,0,P|82:94|70:181,1,133.749995918274,10|2,0:0|1:2,0:0:0:0:
93,250,66998,1,2,0:0:0:0:
93,250,67098,2,0,B|140:236|140:236|199:256,1,100.312496938706,2|0,0:0|0:0,0:0:0:0:
252,302,67602,1,2,1:2:0:0:
329,283,67803,1,2,0:0:0:0:
401,341,68005,6,0,P|455:348|487:275,1,133.749995918274,14|2,0:0|1:2,0:0:0:0:
510,206,68609,1,2,0:0:0:0:
510,206,68709,2,0,L|492:99,1,100.312496938706,2|2,0:0|0:0,0:0:0:0:
430,56,69213,1,2,1:2:0:0:
357,90,69414,1,2,0:0:0:0:
288,48,69615,6,0,P|231:49|214:124,1,133.749995918274,10|10,0:0|1:2,0:0:0:0:
159,177,70219,1,10,0:0:0:0:
159,177,70320,2,0,L|173:295,1,100.312496938706,2|2,0:0|0:0,0:0:0:0:
116,336,70823,2,0,P|87:331|54:299,2,66.874997959137,2|10|14,1:2|0:0|0:0,0:0:0:0:
307,349,72031,6,0,L|298:275,1,65.624997997284,10|10,0:0|0:0,0:0:0:0:
376,247,72434,2,0,L|384:318,1,65.624997997284,10|10,0:0|0:0,0:0:0:0:
301,202,72837,2,0,P|292:99|214:175,1,262.499991989136,2|0,1:2|1:2,0:0:0:0:
213,172,74045,1,0,1:2:0:0:
304,360,80890,6,0,P|350:334|410:340,2,90.9375021507741,2|2|2,0:0|0:0|0:0,0:0:0:0:
304,360,82098,1,2,0:0:0:0:
183,302,82501,2,0,P|161:160|140:59,1,242.500005735397,2|4,0:0|1:2,0:0:0:0:
247,4,83709,1,2,0:0:0:0:
362,100,84112,6,0,P|435:82|413:175,1,187.5,6|2,0:0|0:0,0:0:0:0:
432,168,85321,2,0,P|407:193|401:231,1,62.5,2|2,0:0|0:0,0:0:0:0:
365,287,85723,2,0,P|280:307|210:240,1,187.5,2|2,0:0|0:0,0:0:0:0:
211,244,86931,2,0,L|200:166,1,62.5,2|2,0:0|0:0,0:0:0:0:
209,104,87334,6,0,P|263:93|326:120,1,125,2|2,0:0|0:0,0:0:0:0:
401,84,87937,1,2,0:0:0:0:
401,84,88038,2,0,L|502:107,1,93.75,2|2,0:0|0:0,0:0:0:0:
511,184,88542,1,2,0:0:0:0:
395,279,88944,2,0,L|381:353,1,62.5,2|2,0:0|0:0,0:0:0:0:
316,376,89347,2,0,P|268:335|220:329,1,93.75,2|2,0:0|0:0,0:0:0:0:
239,328,90152,1,2,0:0:0:0:
101,379,90555,6,0,P|95:326|83:248,1,125,2|2,0:0|1:2,0:0:0:0:
84,255,91763,1,2,1:2:0:0:
7,126,92166,2,0,B|16:116|20:101|20:101|86:88|86:88|96:100|110:104,1,125,2|2,0:0|1:2,0:0:0:0:
109,103,93374,1,2,1:2:0:0:
236,190,93776,6,0,P|268:193|297:179,2,64.3749994597435,6|2|2,0:0|0:0|1:2,0:0:0:0:
195,123,94380,1,10,0:0:0:0:
195,123,94481,2,0,P|202:80|209:21,1,96.5624991896153,10|2,0:0|0:0,0:0:0:0:
288,3,94984,2,0,P|325:6|351:42,1,64.3749994597435,10|10,0:0|0:0,0:0:0:0:
410,77,95387,6,0,B|400:128|400:128|405:136|405:136|390:218,1,128.749998919487,10|10,0:0|0:0,0:0:0:0:
359,279,95991,1,10,0:0:0:0:
359,279,96092,2,0,P|311:283|263:246,1,96.5624991896153,0|2,0:0|0:0,0:0:0:0:
196,295,96595,2,0,P|191:326|186:358,1,64.3749994597435,2|2,1:2|0:0,0:0:0:0:
96,381,96998,6,0,P|61:354|75:259,1,133.749995918274,14|0,0:0|1:2,0:0:0:0:
123,217,97602,1,2,0:0:0:0:
123,217,97702,2,0,P|131:176|91:121,1,100.312496938706,2|0,0:0|0:0,0:0:0:0:
36,80,98206,1,2,1:2:0:0:
92,23,98407,1,2,0:0:0:0:
164,58,98609,6,0,B|203:63|226:35|226:35|249:5|290:13,1,133.749995918274,10|2,0:0|1:2,0:0:0:0:
364,35,99213,1,2,0:0:0:0:
364,35,99313,2,0,P|396:72|399:134,1,100.312496938706,2|0,0:0|0:0,0:0:0:0:
398,201,99817,1,2,1:2:0:0:
439,269,100018,1,2,0:0:0:0:
388,330,100219,6,0,B|372:336|361:349|361:349|286:331|286:331|281:312|269:301,1,133.749995918274,10|2,0:0|1:2,0:0:0:0:
231,246,100823,1,2,0:0:0:0:
231,246,100924,2,0,P|176:252|130:262,1,100.312496938706,2|2,0:0|0:0,0:0:0:0:
54,242,101427,1,2,1:2:0:0:
11,173,101629,1,2,0:0:0:0:
47,101,101830,6,0,P|41:61|20:35,2,66.874997959137,10|2|2,0:0|0:0|1:2,0:0:0:0:
122,141,102434,1,2,0:0:0:0:
122,141,102535,2,0,P|157:129|223:118,1,100.312496938706,2|0,0:0|0:0,0:0:0:0:
269,55,103038,1,2,1:2:0:0:
337,97,103239,1,10,1:2:0:0:
409,64,103441,6,0,P|450:70|466:159,1,133.749995918274,14|2,0:0|1:2,0:0:0:0:
430,218,104045,1,2,0:0:0:0:
430,218,104145,2,0,P|438:261|451:318,1,100.312496938706,2|0,0:0|0:0,0:0:0:0:
391,370,104649,1,2,1:2:0:0:
317,337,104850,1,2,0:0:0:0:
241,363,105051,6,0,P|197:351|105:334,1,133.749995918274,10|2,0:0|1:2,0:0:0:0:
72,269,105656,1,2,0:0:0:0:
72,269,105756,2,0,P|102:236|164:242,1,100.312496938706,2|0,0:0|0:0,0:0:0:0:
230,264,106260,1,2,1:2:0:0:
297,221,106461,1,2,0:0:0:0:
359,271,106662,6,0,P|354:304|349:337,2,66.874997959137,14|2|2,0:0|0:0|1:2,0:0:0:0:
427,227,107266,1,2,0:0:0:0:
427,227,107367,2,0,P|434:188|441:107,1,100.312496938706,2|2,0:0|0:0,0:0:0:0:
393,63,107870,1,2,1:2:0:0:
317,90,108072,1,2,0:0:0:0:
241,63,108273,2,0,P|231:16|247:-16,2,66.874997959137,10|10|10,0:0|0:0|1:2,0:0:0:0:
191,127,108877,1,10,0:0:0:0:
191,127,108978,2,0,P|159:106|85:129,1,100.312496938706,2|2,0:0|0:0,0:0:0:0:
35,163,109481,2,0,P|28:199|24:235,1,66.874997959137,2|10,1:2|0:0,0:0:0:0:
76,290,109884,1,14,0:0:0:0:
256,192,110085,12,2,112702,0:0:0:0:
344,268,113105,5,14,0:0:0:0:
243,77,113911,6,0,L|169:68,1,56.2499982833863,2|2,0:0|0:0,0:0:0:0:
141,146,114314,2,0,L|212:154,1,56.2499982833863,2|2,0:0|0:0,0:0:0:0:
264,202,114716,2,0,P|308:171|369:374,1,393.749987983704,2|0,0:0|0:0,0:0:0:0:
256,192,116327,12,0,118743,0:0:0:0:
