osu file format v14

[General]
AudioFilename: audio.mp3
AudioLeadIn: 0
PreviewTime: 57924
Countdown: 0
SampleSet: Soft
StackLeniency: 0.7
Mode: 0
LetterboxInBreaks: 0
WidescreenStoryboard: 0

[Editor]
Bookmarks: 204753
DistanceSpacing: 1.9
BeatDivisor: 4
GridSize: 16
TimelineZoom: 1.6

[Metadata]
Title:Oboro
TitleUnicode:朧
Artist:HHHxMMxST
ArtistUnicode:HHH×MM×ST
Creator:Santtu
Version:Misty
Source:ポップンミュージック20 ファンタジア
Tags:mayumi morigana senya moimoi sakura luminance Dai Ryu☆ Starving Trancer KONAMI Pop'n Music fantasia Poppun Myujikku Fantashia bemania beatstream ゆうき
BeatmapID:1290575
BeatmapSetID:611324

[Difficulty]
HPDrainRate:6
CircleSize:4
OverallDifficulty:8
ApproachRate:9
SliderMultiplier:1.7
SliderTickRate:1

[Events]
//Background and Video events
Video,10,"oboroismywaifu.avi"
0,0,"oboroisloveoboroislife.jpg",0,0
//Break Periods
//Storyboard Layer 0 (Background)
//Storyboard Layer 1 (Fail)
//Storyboard Layer 2 (Pass)
//Storyboard Layer 3 (Foreground)
//Storyboard Sound Samples

[TimingPoints]
391,402.684563758389,4,2,1,75,1,0
22941,-76.9230769230769,4,2,1,75,0,1
29384,-100,4,2,2,75,0,0
29484,-100,4,2,1,75,0,0
43880,-86.9565217391304,4,2,1,75,0,0
58377,-76.9230769230769,4,2,1,90,0,1
64719,-76.9230769230769,4,2,1,90,0,0
64820,-76.9230769230769,4,2,1,90,0,1
71263,-76.9230769230769,4,2,2,90,0,0
71364,-76.9230769230769,4,2,1,90,0,0
74484,-133.333333333333,4,2,1,75,0,0
82941,-100,4,2,1,75,0,0
83344,-133.333333333333,4,2,1,75,0,0
84149,-100,4,2,1,60,0,0
90894,-100,4,2,2,90,0,0
91095,-100,4,2,1,60,0,0
91699,-100,4,2,2,90,0,0
91901,-100,4,2,1,60,0,0
92505,-100,4,2,2,90,0,0
92706,-100,4,2,1,60,0,0
93310,-100,4,2,2,90,0,0
93511,-100,4,2,1,60,0,0
94115,-100,4,2,2,90,0,0
94317,-100,4,2,1,60,0,0
95021,-100,4,2,2,90,0,0
95072,-100,4,2,1,60,0,0
95424,-86.9565217391304,4,2,1,75,0,0
96632,-55.5555555555556,4,2,1,75,0,0
97035,-71.4285714285714,4,2,1,90,0,1
103377,-71.4285714285714,4,2,1,90,0,0
103478,-71.4285714285714,4,2,1,90,0,1
109921,-100,4,2,1,75,0,0
114753,-133.333333333333,4,2,1,75,0,0
116364,-133.333333333333,4,2,1,50,0,0
116464,-133.333333333333,4,2,1,20,0,0
116968,-133.333333333333,4,2,1,25,0,0
117572,-133.333333333333,4,2,1,10,0,0
118377,-133.333333333333,4,2,1,5,0,0

[Colours]
Combo1 : 255,128,255
Combo2 : 128,128,192
Combo3 : 151,47,255
Combo4 : 255,0,255

[HitObjects]
307,162,366,5,2,0:0:0:0:
316,143,491,1,0,0:0:0:0:
322,122,592,1,0,0:0:0:0:
325,101,693,1,0,0:0:0:0:
323,80,793,1,0,0:0:0:0:
317,60,894,1,0,0:0:0:0:
308,40,995,1,2,0:0:0:0:
212,97,1599,5,2,0:0:0:0:
409,50,1800,1,2,0:0:0:0:
269,271,2001,5,2,0:0:0:0:
289,274,2102,1,0,0:0:0:0:
311,275,2203,1,0,0:0:0:0:
332,272,2303,1,0,0:0:0:0:
352,265,2404,1,0,0:0:0:0:
370,254,2505,1,0,0:0:0:0:
387,240,2605,1,2,0:0:0:0:
307,162,3209,5,2,0:0:0:0:
403,340,3411,1,2,0:0:0:0:
194,209,3612,5,2,0:0:0:0:
185,228,3713,1,0,0:0:0:0:
179,249,3813,1,0,0:0:0:0:
176,270,3914,1,0,0:0:0:0:
178,291,4015,1,0,0:0:0:0:
184,311,4115,1,0,0:0:0:0:
193,331,4216,1,2,0:0:0:0:
289,274,4820,5,2,0:0:0:0:
92,321,5021,1,2,0:0:0:0:
232,100,5223,5,2,0:0:0:0:
212,97,5323,1,0,0:0:0:0:
190,96,5424,1,0,0:0:0:0:
169,99,5525,1,0,0:0:0:0:
149,106,5625,1,0,0:0:0:0:
131,117,5726,1,0,0:0:0:0:
114,131,5827,1,2,0:0:0:0:
194,209,6431,5,2,0:0:0:0:
98,31,6632,1,2,0:0:0:0:
48,289,6833,5,4,0:0:0:0:
270,193,7236,2,0,L|157:180,1,85,2|0,0:0|0:0,0:0:0:0:
101,168,7538,1,2,0:0:0:0:
189,351,7840,1,0,0:0:0:0:
344,280,8042,2,0,P|365:220|357:171,1,85,2|0,0:0|0:0,0:0:0:0:
279,346,8444,5,2,0:0:0:0:
342,109,8847,2,0,L|426:103,1,85,2|0,0:0|0:0,0:0:0:0:
512,101,9149,1,2,0:0:0:0:
286,220,9451,1,0,0:0:0:0:
192,121,9652,2,0,P|191:66|206:19,1,85,2|0,0:0|0:0,0:0:0:0:
376,190,10055,6,0,L|399:334,1,127.5,2|0,0:0|0:0,0:0:0:0:
386,335,10458,1,2,0:0:0:0:
183,302,10659,1,0,0:0:0:0:
173,283,10760,2,0,L|193:157,1,127.5,2|0,0:0|0:0,0:0:0:0:
256,317,11263,1,2,0:0:0:0:
90,292,11464,1,0,0:0:0:0:
258,95,11666,5,2,0:0:0:0:
442,156,11867,1,0,0:0:0:0:
341,119,12068,2,0,L|352:220,1,85,2|0,0:0|0:0,0:0:0:0:
357,288,12370,1,2,0:0:0:0:
332,34,12672,1,0,0:0:0:0:
442,156,12874,2,0,P|452:204|441:246,1,85,2|0,0:0|0:0,0:0:0:0:
420,49,13276,5,4,0:0:0:0:
256,176,13679,2,0,L|247:270,1,85,2|0,0:0|0:0,0:0:0:0:
238,345,13981,1,2,0:0:0:0:
61,162,14283,1,0,0:0:0:0:
17,290,14484,2,0,L|117:277,1,85,2|0,0:0|0:0,0:0:0:0:
17,94,14887,5,2,0:0:0:0:
256,208,15290,2,0,L|247:114,1,85,2|0,0:0|0:0,0:0:0:0:
238,39,15592,1,2,0:0:0:0:
61,222,15894,1,0,0:0:0:0:
17,94,16095,2,0,L|117:107,1,85,2|0,0:0|0:0,0:0:0:0:
277,131,16498,5,2,0:0:0:0:
255,313,16699,1,0,0:0:0:0:
172,118,16901,1,2,0:0:0:0:
382,144,17102,1,0,0:0:0:0:
382,144,17203,2,0,P|345:122|330:203,1,127.5,2|0,0:0|0:0,0:0:0:0:
472,213,17706,1,2,0:0:0:0:
264,258,17907,1,0,0:0:0:0:
325,53,18109,6,0,P|372:54|423:84,1,85,2|0,0:0|0:0,0:0:0:0:
224,95,18511,1,2,0:0:0:0:
147,184,18713,2,0,L|156:261,1,42.5,0|2,0:0|0:0,0:0:0:0:
169,353,19115,5,2,0:0:0:0:
151,226,19317,1,2,0:0:0:0:
136,99,19518,1,2,0:0:0:0:
4,335,19719,6,0,B|57:350|57:350|107:338|107:338|168:352,1,170,4|0,0:0|0:0,0:0:0:0:
297,134,20525,5,2,0:3:0:0:
125,182,20726,1,2,0:3:0:0:
289,251,20927,1,2,0:3:0:0:
199,95,21129,1,2,0:3:0:0:
195,323,21330,5,4,0:0:0:0:
215,285,21431,1,0,0:0:0:0:
248,260,21531,1,0,0:0:0:0:
289,251,21632,1,0,0:0:0:0:
331,259,21733,1,0,0:0:0:0:
365,284,21833,1,0,0:0:0:0:
385,321,21934,2,0,P|377:356|347:378,1,42.5
254,184,22135,5,0,0:0:0:0:
259,141,22236,1,0,0:0:0:0:
276,103,22337,1,0,0:0:0:0:
305,72,22437,1,0,0:0:0:0:
341,51,22538,1,0,0:0:0:0:
383,42,22639,1,0,0:0:0:0:
425,46,22739,1,0,0:0:0:0:
464,62,22840,1,0,0:0:0:0:
492,105,22941,6,0,P|498:167|458:243,1,110.499994941712,4|2,0:0|0:0,0:0:0:0:
414,260,23243,1,0,0:0:0:0:
406,274,23344,2,0,L|401:356,1,55.2499974708558,8|0,0:0|0:0,0:0:0:0:
299,369,23545,2,0,L|294:287,1,55.2499974708558,2|0,0:0|0:0,0:0:0:0:
333,191,23746,6,0,P|282:213|228:209,1,110.499994941712,0|2,0:0|0:0,0:0:0:0:
150,180,24048,1,0,0:0:0:0:
144,164,24149,2,0,L|156:87,1,55.2499974708558,8|0,0:0|0:0,0:0:0:0:
228,21,24350,2,0,L|240:98,1,55.2499974708558,2|0,0:0|0:0,0:0:0:0:
34,49,24552,6,0,L|219:22,2,165.749992412568,2|2|2,0:0|0:0|0:0,0:0:0:0:
233,148,25357,1,0,0:0:0:0:
0,216,25558,1,2,0:0:0:0:
0,216,25659,1,2,0:0:0:0:
0,216,25760,1,8,0:0:0:0:
174,384,25961,1,2,0:0:0:0:
100,206,26162,6,0,P|96:268|154:304,1,110.499994941712,4|2,0:0|0:0,0:0:0:0:
204,256,26464,2,0,P|260:240|316:256,1,110.499994941712,8|0,0:0|0:0,0:0:0:0:
383,298,26766,2,0,P|419:259|412:206,1,110.499994941712,10|0,0:0|0:0,0:0:0:0:
361,139,27068,2,0,L|376:67,2,55.2499974708558,0|2|0,0:0|0:0|0:0,0:0:0:0:
308,337,27370,1,8,0:0:0:0:
243,133,27572,1,2,0:0:0:0:
512,162,27773,6,0,L|411:205,1,110.499994941712,4|2,0:0|0:0,0:0:0:0:
329,203,28075,1,0,0:0:0:0:
317,191,28176,2,0,L|300:111,1,55.2499974708558,8|0,0:0|0:0,0:0:0:0:
196,65,28377,2,0,P|176:132|184:181,1,110.499994941712,2|0,0:0|0:0,0:0:0:0:
193,253,28679,2,0,L|170:315,2,55.2499974708558,0|2|0,0:0|0:0|0:0,0:0:0:0:
272,54,28981,1,8,0:0:0:0:
143,378,29384,5,8,0:0:0:0:
272,203,30995,6,0,L|381:187,1,85,4|0,1:0|0:0,0:0:0:0:
240,66,31397,1,0,1:0:0:0:
184,190,31599,1,0,0:0:0:0:
24,131,31800,2,0,L|15:230,1,85,0|0,1:0|0:0,0:0:0:0:
50,374,32203,2,0,P|128:360|151:342,1,85,0|0,1:0|0:0,0:0:0:0:
220,218,32605,6,0,P|288:194|277:265,1,170,0|0,1:0|1:0,0:0:0:0:
155,145,33209,1,0,0:0:0:0:
344,18,33411,2,0,P|351:71|340:105,1,85,0|0,1:0|0:0,0:0:0:0:
300,165,33713,1,0,0:0:0:0:
306,185,33813,1,0,1:0:0:0:
426,320,34015,1,0,0:0:0:0:
192,362,34216,6,0,P|240:295|323:285,1,170,0|0,1:0|1:0,0:0:0:0:
218,215,34820,1,0,0:0:0:0:
80,359,35021,2,0,P|72:301|95:245,1,85,0|0,1:0|0:0,0:0:0:0:
113,207,35323,1,0,0:0:0:0:
106,186,35424,1,0,1:0:0:0:
218,29,35625,1,0,0:0:0:0:
4,98,35827,6,0,L|131:78,1,127.5,0|0,1:0|0:0,0:0:0:0:
192,121,36229,2,0,L|305:131,1,85,0|0,1:0|0:0,0:0:0:0:
416,60,36632,1,0,1:0:0:0:
384,228,36833,1,0,0:0:0:0:
370,206,36934,1,0,0:0:0:0:
366,181,37035,1,0,1:0:0:0:
484,167,37236,1,0,0:0:0:0:
246,233,37437,5,0,1:0:0:0:
416,326,37639,1,0,0:0:0:0:
222,359,37840,2,0,L|311:330,1,85,0|0,1:0|0:0,0:0:0:0:
92,261,38243,2,0,L|181:290,1,85,0|0,1:0|0:0,0:0:0:0:
29,383,38646,2,0,P|10:344|8:302,1,85,0|0,1:0|0:0,0:0:0:0:
85,81,39048,6,0,P|107:163|23:164,1,170,0|0,1:0|1:0,0:0:0:0:
209,140,39652,1,0,0:0:0:0:
368,30,39854,2,0,L|259:16,1,85,0|0,1:0|0:0,0:0:0:0:
207,29,40156,1,0,0:0:0:0:
201,44,40256,1,0,1:0:0:0:
263,250,40458,1,0,0:0:0:0:
443,120,40659,6,0,P|385:112|316:184,1,127.5,0|0,1:0|0:0,0:0:0:0:
410,231,41062,2,0,P|448:182|443:120,1,127.5,0|0,1:0|0:0,0:0:0:0:
330,228,41464,1,0,1:0:0:0:
456,357,41666,1,0,0:0:0:0:
456,357,41766,1,0,0:0:0:0:
456,357,41867,1,0,1:0:0:0:
443,120,42068,1,0,0:0:0:0:
326,326,42270,6,0,L|226:347,1,85,0|0,1:0|0:0,0:0:0:0:
125,212,42672,2,0,L|139:129,1,85,0|0,1:0|0:0,0:0:0:0:
388,19,43075,5,2,1:2:0:0:
381,60,43176,1,2,0:0:0:0:
363,99,43276,1,2,0:0:0:0:
335,130,43377,1,2,0:0:0:0:
299,153,43478,1,2,1:2:0:0:
258,165,43578,1,2,0:0:0:0:
216,165,43679,1,2,0:0:0:0:
175,153,43780,1,2,0:0:0:0:
139,129,43880,6,0,P|92:119|20:157,1,97.7500018644333,4|0,1:2|0:0,0:0:0:0:
196,238,44283,1,0,1:0:0:0:
246,92,44484,2,0,L|229:35,1,48.8750009322167
153,33,44686,2,0,P|100:32|46:64,1,97.7500018644333,0|0,1:0|0:0,0:0:0:0:
18,213,45088,2,0,L|41:315,1,97.7500018644333,0|0,1:0|0:0,0:0:0:0:
96,362,45390,1,0,0:0:0:0:
111,349,45491,6,0,L|234:360,1,97.7500018644333,0|0,1:0|0:0,0:0:0:0:
391,279,45894,1,0,1:0:0:0:
238,247,46095,2,0,L|243:307,1,48.8750009322167
315,228,46297,2,0,L|325:120,1,97.7500018644333,0|0,1:0|0:0,0:0:0:0:
153,70,46699,2,0,L|291:53,1,97.7500018644333,0|0,1:0|0:0,0:0:0:0:
328,48,47001,1,0,0:0:0:0:
344,37,47102,6,0,L|441:48,1,97.7500018644333,0|0,1:0|0:0,0:0:0:0:
488,222,47505,2,0,P|471:301|446:324,1,97.7500018644333,0|0,1:0|0:0,0:0:0:0:
301,168,47907,2,0,L|467:141,1,146.62500279665,0|0,1:0|0:0,0:0:0:0:
460,131,48310,2,0,L|371:113,1,48.8750009322167,0|0,1:0|0:0,0:0:0:0:
352,239,48511,2,0,L|263:257,1,48.8750009322167
225,92,48713,6,0,P|196:143|199:196,1,97.7500018644333,0|0,1:0|0:0,0:0:0:0:
214,256,49015,1,0,0:0:0:0:
208,274,49115,2,0,L|98:286,1,97.7500018644333,0|0,1:0|0:0,0:0:0:0:
46,239,49417,1,0,0:0:0:0:
37,221,49518,2,0,L|49:157,3,48.8750009322167,0|0|0|0,1:0|0:0|0:0|0:0,0:0:0:0:
80,26,49921,1,8,1:2:0:0:
276,51,50122,1,0,0:0:0:0:
281,66,50223,1,0,0:0:0:0:
285,81,50323,6,0,P|333:77|372:48,1,97.7500018644333,4|0,1:2|0:0,0:0:0:0:
182,9,50726,1,0,1:0:0:0:
123,128,50927,2,0,L|126:187,1,48.8750009322167
177,236,51129,2,0,P|225:232|264:203,1,97.7500018644333,0|0,1:0|0:0,0:0:0:0:
34,179,51531,2,0,L|23:287,1,97.7500018644333,0|0,1:0|0:0,0:0:0:0:
55,347,51833,1,0,0:0:0:0:
60,360,51934,5,0,1:0:0:0:
273,336,52135,1,0,0:0:0:0:
181,141,52337,2,0,P|168:202|184:249,1,97.7500018644333,0|0,1:0|0:0,0:0:0:0:
254,247,52639,1,0,0:0:0:0:
272,231,52739,1,0,1:0:0:0:
477,128,52941,1,0,0:0:0:0:
275,95,53142,1,0,1:0:0:0:
421,242,53344,1,0,0:0:0:0:
393,38,53545,5,0,1:0:0:0:
322,319,53746,1,0,1:0:0:0:
164,38,53948,5,0,1:0:0:0:
248,375,54149,1,0,1:0:0:0:
502,271,54350,5,0,1:0:0:0:
220,200,54552,1,0,1:0:0:0:
484,60,54753,5,0,1:0:0:0:
147,144,54954,1,0,1:0:0:0:
346,293,55156,6,0,P|363:236|297:181,2,146.62500279665,0|2|2,1:0|0:0|0:0,0:0:0:0:
220,200,55961,2,0,L|227:103,1,97.7500018644333,8|0,1:3|0:0,0:0:0:0:
378,23,56364,2,0,L|270:48,1,97.7500018644333,8|0,3:0|0:0,0:0:0:0:
82,147,56766,6,0,P|70:72|127:22,1,146.62500279665,0|0,1:0|1:0,0:0:0:0:
227,297,57370,1,0,1:0:0:0:
369,244,57572,5,2,0:0:0:0:
377,221,57672,1,2,0:0:0:0:
308,183,57773,5,2,0:0:0:0:
300,160,57874,1,2,0:0:0:0:
368,122,57974,6,0,L|381:25,1,97.7500018644333,4|2,0:3|0:0,0:0:0:0:
443,311,58377,6,0,P|391:345|308:343,1,110.499994941712,4|2,0:1|0:0,0:0:0:0:
207,221,58780,2,0,L|191:333,1,110.499994941712,8|2,0:0|0:0,0:0:0:0:
115,346,59082,2,0,L|107:160,1,165.749992412568,0|2,0:0|0:0,0:0:0:0:
179,17,59585,1,8,0:0:0:0:
29,73,59786,1,2,0:0:0:0:
278,119,59988,6,0,P|356:75|371:27,1,110.499994941712,0|2,0:0|0:0,0:0:0:0:
198,168,60390,2,0,L|204:289,1,110.499994941712,8|2,0:0|0:0,0:0:0:0:
145,331,60693,2,0,L|324:265,1,165.749992412568,0|2,0:0|0:0,0:0:0:0:
119,121,61196,2,0,P|109:184|130:228,1,110.499994941712,8|2,0:0|0:0,0:0:0:0:
461,148,61599,6,0,L|340:189,1,110.499994941712,0|2,0:0|0:0,0:0:0:0:
127,224,62001,1,8,0:0:0:0:
307,331,62203,1,2,0:0:0:0:
307,331,62303,2,0,P|355:261|356:182,1,165.749992412568,0|2,0:0|0:0,0:0:0:0:
196,266,62807,2,0,L|186:394,1,110.499994941712,8|2,0:0|0:0,0:0:0:0:
272,136,63209,5,0,0:0:0:0:
274,82,63310,1,0,0:0:0:0:
239,41,63411,1,2,0:0:0:0:
185,38,63511,1,0,0:0:0:0:
144,72,63612,1,8,0:0:0:0:
139,126,63713,1,0,0:0:0:0:
174,168,63813,2,0,P|177:222|170:239,1,55.2499974708558,2|0,0:0|0:0,0:0:0:0:
15,301,64015,5,0,0:0:0:0:
61,271,64115,1,0,0:0:0:0:
115,273,64216,1,2,0:0:0:0:
163,300,64317,1,0,0:0:0:0:
210,328,64417,1,8,0:0:0:0:
264,330,64518,1,0,0:0:0:0:
311,301,64619,2,0,P|322:258|317:226,1,55.2499974708558,2|0,0:0|0:0,0:0:0:0:
238,46,64820,6,0,L|252:175,1,110.499994941712,4|2,0:1|0:0,0:0:0:0:
109,334,65223,2,0,L|130:215,1,110.499994941712,8|2,0:0|0:0,0:0:0:0:
97,153,65525,2,0,L|190:302,1,165.749992412568,0|2,0:0|0:0,0:0:0:0:
6,197,66028,2,0,P|-4:126|20:81,1,110.499994941712,8|2,0:0|0:0,0:0:0:0:
68,40,66330,5,0,0:0:0:0:
68,40,66431,2,0,L|186:46,1,110.499994941712,0|2,0:0|0:0,0:0:0:0:
357,136,66833,1,8,0:0:0:0:
271,210,67035,2,0,L|279:148,1,55.2499974708558,2|0,0:0|0:0,0:0:0:0:
342,26,67236,2,0,L|356:135,1,110.499994941712,0|2,0:0|0:0,0:0:0:0:
306,320,67639,1,8,0:0:0:0:
175,185,67840,1,2,0:0:0:0:
407,240,68042,5,4,0:0:0:0:
158,293,68243,1,2,0:0:0:0:
247,55,68444,1,8,0:0:0:0:
302,337,68646,1,2,0:0:0:0:
302,337,68746,2,0,L|276:207,1,110.499994941712
268,174,69048,1,2,0:0:0:0:
69,137,69250,2,0,L|177:155,1,110.499994941712,8|2,0:0|0:0,0:0:0:0:
484,101,69652,5,0,0:0:0:0:
438,131,69753,1,0,0:0:0:0:
384,129,69854,1,2,0:0:0:0:
336,102,69954,1,0,0:0:0:0:
289,74,70055,1,8,0:0:0:0:
235,72,70156,1,0,0:0:0:0:
188,101,70256,2,0,P|177:144|182:176,1,55.2499974708558,2|0,0:0|0:0,0:0:0:0:
270,352,70458,5,0,0:0:0:0:
222,379,70558,1,0,0:0:0:0:
167,370,70659,1,0,0:0:0:0:
132,327,70760,1,0,0:0:0:0:
132,272,70860,1,0,0:0:0:0:
167,230,70961,1,0,0:0:0:0:
222,220,71062,2,0,P|267:241|285:265,1,55.2499974708558
213,306,71263,5,8,0:0:0:0:
213,306,71666,1,8,0:0:0:0:
213,306,72068,5,8,0:3:0:0:
258,32,72270,1,8,0:3:0:0:
345,288,72471,5,8,0:3:0:0:
379,83,72672,1,0,0:3:0:0:
172,205,72874,5,4,0:0:0:0:
150,187,72974,1,0,0:0:0:0:
134,165,73075,1,0,0:0:0:0:
123,140,73176,1,0,0:0:0:0:
119,112,73276,2,0,L|137:43,1,55.2499974708558
248,101,73478,2,0,L|265:170,1,55.2499974708558
164,350,73679,5,8,0:3:0:0:
148,298,73780,1,8,0:3:0:0:
172,250,73880,1,8,0:3:0:0:
223,231,73981,1,8,0:3:0:0:
272,252,74082,2,0,L|283:323,3,55.2499974708558,8|0|0|0,0:0|0:0|0:0|0:0,0:0:0:0:
352,352,74484,5,4,0:1:0:0:
370,348,74585,1,0,0:0:0:0:
389,345,74686,1,2,0:0:0:0:
408,341,74786,1,0,0:0:0:0:
427,338,74887,1,0,0:0:0:0:
446,334,74988,1,0,0:0:0:0:
464,331,75088,1,2,0:0:0:0:
284,311,75491,5,2,0:0:0:0:
284,311,75693,1,0,0:0:0:0:
311,206,75894,1,2,0:0:0:0:
217,99,76095,5,0,0:0:0:0:
224,121,76196,1,0,0:0:0:0:
225,145,76297,1,2,0:0:0:0:
218,168,76397,1,0,0:0:0:0:
210,190,76498,1,0,0:0:0:0:
208,214,76599,1,0,0:0:0:0:
214,237,76699,1,2,0:0:0:0:
124,129,77102,5,2,0:0:0:0:
124,129,77303,1,0,0:0:0:0:
151,24,77505,1,2,0:0:0:0:
327,98,77706,5,4,0:0:0:0:
309,106,77807,1,0,0:0:0:0:
291,112,77907,1,2,0:0:0:0:
272,114,78008,1,0,0:0:0:0:
253,113,78109,1,0,0:0:0:0:
234,108,78209,1,0,0:0:0:0:
217,99,78310,1,2,0:0:0:0:
392,24,78713,5,2,0:0:0:0:
392,24,78914,1,0,0:0:0:0:
419,129,79115,1,2,0:0:0:0:
337,250,79317,5,4,0:0:0:0:
319,246,79417,1,0,0:0:0:0:
300,243,79518,1,2,0:0:0:0:
281,239,79619,1,0,0:0:0:0:
262,236,79719,1,0,0:0:0:0:
243,232,79820,1,0,0:0:0:0:
225,229,79921,1,2,0:0:0:0:
93,330,80323,5,2,0:0:0:0:
93,330,80525,1,0,0:0:0:0:
66,225,80726,1,2,0:0:0:0:
159,44,80927,6,0,P|173:71|175:128,1,63.7500024318696,4|2,0:0|0:0,0:0:0:0:
173,135,81229,1,0,0:0:0:0:
228,332,81531,2,0,P|252:269|242:209,1,127.500004863739,2|2,0:0|0:0,0:0:0:0:
65,224,82135,2,0,P|87:245|116:259,1,63.7500024318696,0|2,0:0|0:0,0:0:0:0:
148,81,82538,5,4,0:0:0:0:
43,51,82739,1,2,0:0:0:0:
148,81,82941,6,0,L|178:78,1,28.3333333333333,2|0,0:0|0:0,0:0:0:0:
343,60,83075,2,0,L|346:16,3,28.3333333333333
259,109,83344,5,8,0:0:0:0:
367,175,83545,1,2,0:0:0:0:
262,247,83746,1,0,0:0:0:0:
340,322,83948,1,2,0:0:0:0:
40,247,84149,5,4,0:1:0:0:
72,168,84350,1,2,0:0:0:0:
72,168,84451,1,0,0:0:0:0:
72,168,84552,1,0,0:0:0:0:
151,136,84753,1,2,0:0:0:0:
151,136,84854,1,0,0:0:0:0:
230,168,85055,1,0,0:0:0:0:
230,168,85156,1,2,0:0:0:0:
262,247,85357,1,0,0:0:0:0:
341,279,85558,1,2,0:0:0:0:
420,247,85760,5,0,0:0:0:0:
452,168,85961,1,2,0:0:0:0:
452,168,86062,1,0,0:0:0:0:
452,168,86162,1,0,0:0:0:0:
420,89,86364,1,2,0:0:0:0:
420,89,86464,1,0,0:0:0:0:
341,57,86666,1,0,0:0:0:0:
341,57,86766,1,2,0:0:0:0:
262,89,86968,1,0,0:0:0:0:
230,168,87169,1,2,0:0:0:0:
262,247,87370,5,0,0:0:0:0:
230,326,87572,1,2,0:0:0:0:
230,326,87672,1,0,0:0:0:0:
230,326,87773,1,0,0:0:0:0:
151,358,87974,1,2,0:0:0:0:
151,358,88075,1,0,0:0:0:0:
72,326,88276,1,0,0:0:0:0:
72,326,88377,1,2,0:0:0:0:
40,247,88578,1,0,0:0:0:0:
72,168,88780,1,2,0:0:0:0:
150,135,88981,5,0,0:0:0:0:
164,149,89082,1,0,0:0:0:0:
175,168,89182,1,2,0:0:0:0:
179,189,89283,1,0,0:0:0:0:
177,210,89384,1,0,0:0:0:0:
168,229,89484,1,0,0:0:0:0:
154,246,89585,2,0,L|106:236,1,42.5,2|0,0:0|0:0,0:0:0:0:
341,279,89786,5,0,0:0:0:0:
326,264,89887,1,0,0:0:0:0:
315,245,89988,1,2,0:0:0:0:
311,224,90088,1,0,0:0:0:0:
313,203,90189,1,0,0:0:0:0:
322,184,90290,1,0,0:0:0:0:
336,167,90390,2,0,L|384:177,1,42.5,2|0,0:0|0:0,0:0:0:0:
217,346,90592,5,4,0:1:0:0:
217,346,90793,1,2,0:0:0:0:
458,105,90995,1,8,0:0:0:0:
377,175,91196,2,0,L|384:116,1,42.5,2|0,0:0|0:0,0:0:0:0:
458,105,91599,1,2,0:0:0:0:
130,18,91800,1,8,0:0:0:0:
130,18,92001,1,2,0:0:0:0:
295,38,92203,5,4,0:1:0:0:
295,38,92404,1,2,0:0:0:0:
54,279,92605,1,8,0:0:0:0:
135,209,92807,2,0,L|128:268,1,42.5,2|0,0:0|0:0,0:0:0:0:
54,279,93209,1,2,0:0:0:0:
382,366,93411,1,8,0:0:0:0:
382,366,93612,1,2,0:0:0:0:
382,366,93813,6,0,L|373:281,1,85,4|2,0:1|0:0,0:0:0:0:
351,112,94216,1,8,0:0:0:0:
185,268,94417,1,2,0:0:0:0:
205,273,94518,2,0,P|245:263|271:230,1,85
276,209,94820,2,0,L|261:151,1,42.5,2|0,0:0|0:0,0:0:0:0:
54,271,95021,2,0,L|69:329,1,42.5,8|0,0:0|0:0,0:0:0:0:
183,126,95223,2,0,L|141:83,1,42.5,2|0,0:0|0:0,0:0:0:0:
147,354,95424,5,2,0:0:0:0:
192,370,95525,1,0,0:0:0:0:
240,364,95625,1,2,0:0:0:0:
282,339,95726,1,0,0:0:0:0:
308,298,95827,1,2,0:0:0:0:
313,250,95927,1,0,0:0:0:0:
298,204,96028,2,0,P|250:226|242:245,1,48.8750009322167,2|0,0:0|0:0,0:0:0:0:
452,255,96229,5,0,0:0:0:0:
495,231,96330,1,0,0:0:0:0:
512,185,96431,1,0,0:0:0:0:
497,139,96531,1,0,0:0:0:0:
456,107,96632,6,0,B|420:70|346:135|297:75,1,152.999995330811,8|2,0:0|0:0,0:0:0:0:
89,78,97035,6,0,L|81:241,1,118.999996368408,6|2,0:0|0:0,0:0:0:0:
291,315,97437,2,0,P|270:259|225:221,1,118.999996368408,8|2,0:0|0:0,0:0:0:0:
148,253,97739,2,0,P|92:280|-2:202,1,178.499994552612,0|2,0:0|0:0,0:0:0:0:
164,39,98243,1,8,0:0:0:0:
225,221,98444,1,2,0:0:0:0:
422,76,98646,6,0,L|284:62,1,118.999996368408,0|2,0:0|0:0,0:0:0:0:
455,160,99048,2,0,P|433:224|449:287,1,118.999996368408,8|2,0:0|0:0,0:0:0:0:
490,342,99350,2,0,L|331:216,1,178.499994552612,0|2,0:0|0:0,0:0:0:0:
66,156,99854,2,0,P|53:218|72:283,1,118.999996368408,8|2,0:0|0:0,0:0:0:0:
290,263,100256,6,0,P|279:206|229:176,1,118.999996368408,0|2,0:0|0:0,0:0:0:0:
161,198,100558,1,0,0:0:0:0:
156,215,100659,1,8,0:0:0:0:
291,368,100860,1,2,0:0:0:0:
304,355,100961,2,0,L|346:171,1,178.499994552612,0|2,0:0|0:0,0:0:0:0:
163,28,101464,2,0,L|185:166,1,118.999996368408,8|2,0:0|0:0,0:0:0:0:
331,42,101867,5,0,0:0:0:0:
97,77,102068,1,2,0:0:0:0:
255,202,102270,1,8,0:0:0:0:
440,34,102471,1,2,0:0:0:0:
450,48,102572,2,0,P|458:126|372:173,1,178.499994552612,0|2,0:0|0:0,0:0:0:0:
218,44,103075,2,0,P|273:25|330:41,1,118.999996368408,8|2,0:0|0:0,0:0:0:0:
171,314,103478,6,0,L|16:296,1,118.999996368408,4|2,0:1|0:0,0:0:0:0:
253,195,103880,2,0,P|303:272|300:315,1,118.999996368408,8|2,0:0|0:0,0:0:0:0:
267,371,104182,2,0,L|421:247,1,178.499994552612,0|2,0:0|0:0,0:0:0:0:
475,36,104686,2,0,P|502:89|494:147,1,118.999996368408,8|2,0:0|0:0,0:0:0:0:
416,149,104988,1,0,0:0:0:0:
404,135,105088,6,0,P|351:108|293:116,1,118.999996368408,0|2,0:0|0:0,0:0:0:0:
82,231,105491,1,8,0:0:0:0:
140,39,105693,2,0,L|148:114,1,59.4999981842042,2|0,0:0|0:0,0:0:0:0:
210,220,105894,2,0,L|222:98,1,118.999996368408,0|2,0:0|0:0,0:0:0:0:
9,137,106297,1,8,0:0:0:0:
157,290,106498,1,2,0:0:0:0:
226,21,106699,5,4,0:0:0:0:
137,173,106901,1,2,0:0:0:0:
404,190,107102,1,8,0:0:0:0:
340,334,107303,1,2,0:0:0:0:
326,322,107404,2,0,P|289:240|296:199,1,118.999996368408
311,138,107706,2,0,L|383:126,1,59.4999981842042,2|0,0:0|0:0,0:0:0:0:
307,40,107907,2,0,L|235:28,1,59.4999981842042,8|0,0:0|0:0,0:0:0:0:
197,132,108109,2,0,L|125:120,1,59.4999981842042,2|0,0:0|0:0,0:0:0:0:
64,59,108310,5,6,0:0:0:0:
40,112,108411,1,0,0:0:0:0:
51,170,108511,1,2,0:0:0:0:
93,210,108612,1,0,0:0:0:0:
117,263,108713,1,10,0:0:0:0:
106,321,108813,1,0,0:0:0:0:
64,361,108914,2,0,P|25:346|7:319,1,59.4999981842042,2|0,0:0|0:0,0:0:0:0:
170,202,109115,5,2,0:0:0:0:
223,178,109216,1,0,0:0:0:0:
281,189,109317,1,2,0:0:0:0:
321,231,109417,1,0,0:0:0:0:
374,255,109518,1,10,0:0:0:0:
432,244,109619,1,0,0:0:0:0:
472,202,109719,1,0,0:0:0:0:
476,142,109820,1,0,0:0:0:0:
443,91,109921,6,0,L|354:75,1,85,4|0,0:1|0:0,0:0:0:0:
256,128,110323,1,2,0:0:0:0:
152,75,110525,1,0,0:0:0:0:
192,192,110726,2,0,P|129:192|100:179,1,85,2|0,0:0|0:0,0:0:0:0:
11,132,111129,2,0,P|0:172|3:214,1,85,2|0,0:0|0:0,0:0:0:0:
152,308,111531,5,2,0:0:0:0:
256,256,111733,1,0,0:0:0:0:
359,308,111934,1,2,0:0:0:0:
320,192,112135,1,0,0:0:0:0:
359,75,112337,1,2,0:0:0:0:
256,128,112538,2,0,P|242:82|248:39,1,85,0|2,0:0|0:0,0:0:0:0:
320,192,112941,1,0,0:0:0:0:
188,193,113142,6,0,P|163:152|151:27,1,170,4|2,0:1|0:0,0:0:0:0:
359,75,113746,1,0,0:0:0:0:
404,189,113948,2,0,P|361:193|319:191,1,85,2|0,0:0|0:0,0:0:0:0:
128,272,114350,2,0,P|171:268|213:270,1,85,2|0,0:0|0:0,0:0:0:0:
400,368,114753,38,0,B|417:308|502:333|553:231|459:188|417:222|417:222|406:230|400:239|400:239|392:229|382:222|382:222|340:188|256:224|297:333|382:308|368:342,1,510.000019454957
256,192,116464,12,0,118780,0:0:0:0:
