osu file format v14

[General]
AudioFilename: Oboro.mp3
AudioLeadIn: 0
PreviewTime: 57845
Countdown: 0
SampleSet: Soft
StackLeniency: 0.5
Mode: 0
LetterboxInBreaks: 0
WidescreenStoryboard: 1

[Editor]
Bookmarks: 80798
DistanceSpacing: 0.92
BeatDivisor: 4
GridSize: 4
TimelineZoom: 1

[Metadata]
Title:Oboro
TitleUnicode:朧
Artist:HHHxMMxST
ArtistUnicode:HHH×MM×ST
Creator:Morinaga
Version:Normal
Source:pop'n music 20 fantasia
Tags:FASCINATION Ryu* Dai. VJ Halka 森永真由美 Morinaga Mayumi moimoi senya Starving Trancer Dailycare Satellite Dagger-Gazel
BeatmapID:1539844
BeatmapSetID:650215

[Difficulty]
HPDrainRate:3.5
CircleSize:3.3
OverallDifficulty:4
ApproachRate:4.5
SliderMultiplier:1.17
SliderTickRate:1

[Events]
//Background and Video events
0,0,"4.jpg",0,0
//Break Periods
2,74455,82852
//Storyboard Layer 0 (Background)
//Storyboard Layer 1 (Fail)
//Storyboard Layer 2 (Pass)
//Storyboard Layer 3 (Foreground)
//Storyboard Sound Samples

[TimingPoints]
354,402.684563758389,4,2,0,30,1,0
6796,-100,4,2,1,60,0,0
6998,-100,4,2,1,48,0,0
8407,-100,4,2,1,60,0,0
8810,-100,4,2,1,48,0,0
10421,-100,4,2,1,60,0,0
10823,-100,4,2,1,28,0,0
11629,-100,4,2,1,60,0,0
11830,-100,4,2,1,48,0,0
12434,-100,4,2,1,28,0,0
13239,-100,4,2,1,60,0,0
13441,-100,4,2,1,48,0,0
14850,-100,4,2,1,48,0,0
16461,-100,4,2,1,60,0,0
16662,-100,4,2,1,48,0,0
17266,-100,4,2,1,28,0,0
17468,-100,4,2,1,48,0,0
18072,-100,4,2,1,60,0,0
18273,-100,4,2,1,48,0,0
18877,-100,4,2,1,28,0,0
19078,-100,4,2,1,48,0,0
19682,-100,4,2,1,60,0,0
21293,-100,4,2,1,48,0,0
22904,-100,4,2,1,68,0,0
30958,-100,4,1,1,56,0,0
43038,-100,4,1,1,64,0,0
44045,-100,4,1,0,64,0,0
49481,-100,4,1,1,64,0,0
50488,-100,4,1,0,64,0,0
53508,-100,4,2,1,68,0,0
55521,-100,4,2,1,56,0,0
56729,-100,4,2,1,60,0,0
57535,-100,4,1,1,64,0,0
58340,-100,4,2,1,70,0,1
58441,-100,4,2,1,60,0,0
64783,-100,4,2,1,70,0,0
64884,-100,4,2,1,60,0,0
72837,-100,4,1,1,48,0,0
74447,-100,4,2,0,48,0,0
84112,-100,4,2,0,60,0,0
90958,-100,4,1,1,60,0,0
92166,-100,4,2,0,60,0,0
92568,-100,4,1,1,60,0,0
93776,-100,4,1,1,68,0,0
95387,-100,4,1,1,64,0,0
96192,-100,4,2,1,64,0,0
96595,-100,4,2,1,74,0,1
96897,-100,4,2,1,20,0,0
96998,-100,4,2,1,80,0,1
97098,-100,4,2,1,70,0,0
101830,-100,4,2,0,70,0,0
102635,-100,4,2,1,70,0,0
103441,-100,4,2,1,80,0,0
103541,-100,4,2,1,70,0,0
109884,-100,4,2,1,60,0,0
110689,-100,4,2,0,48,0,0
113105,-100,4,2,1,60,0,0
113911,-100,4,2,0,48,0,0
116125,-100,4,2,0,20,0,0

[Colours]
Combo1 : 209,82,101
Combo2 : 208,154,252

[HitObjects]
117,278,6796,6,0,L|-10:298,2,117,8|0|0,0:1|0:0|0:0,0:0:0:0:
213,329,8005,1,0,0:0:0:0:
287,249,8407,2,0,L|414:269,2,117,0|0|0,0:0|0:0|0:0,0:0:0:0:
232,154,9615,1,0,0:0:0:0:
126,180,10018,6,0,P|116:124|98:44,1,117,0|0,0:0|0:0,0:0:0:0:
209,39,10823,2,0,P|219:95|237:175,1,117,0|0,0:0|0:0,0:0:0:0:
322,215,11629,2,0,P|367:222|457:238,2,117,0|0|0,0:0|0:0|0:0,0:0:0:0:
223,260,12837,1,0,0:0:0:0:
231,153,13239,6,0,L|104:133,2,117,8|0|0,0:1|0:0|0:0,0:0:0:0:
323,101,14448,1,0,0:0:0:0:
397,181,14850,2,0,L|524:161,2,117,0|0|0,0:0|0:0|0:0,0:0:0:0:
342,276,16058,1,0,0:0:0:0:
234,256,16461,6,0,P|179:244|103:233,1,117,0|0,0:0|0:0,0:0:0:0:
65,247,17065,2,0,L|53:180,1,58.5,0|0,0:0|0:0,0:0:0:0:
142,125,17669,1,0,0:0:0:0:
109,21,18072,2,0,P|54:18|0:49,2,117,0|0|0,0:0|0:0|0:0,0:0:0:0:
213,50,19280,2,0,L|276:38,1,58.5
314,7,19682,5,8,1:0:0:0:
211,164,20488,2,0,L|148:152,1,58.5,8|8,0:1|0:1,0:0:0:0:
141,101,20890,2,0,L|78:113,1,58.5,8|8,0:1|0:1,0:0:0:0:
41,82,21293,5,8,0:1:0:0:
41,82,22904,6,0,B|65:118|65:118|50:209,1,117,2|8,3:2|1:2,0:0:0:0:
25,237,23508,2,0,L|215:214,1,175.5,0|8,0:0|1:2,0:0:0:0:
243,246,24313,1,0,0:0:0:0:
243,246,24515,2,0,P|301:242|365:280,1,117,2|8,3:2|1:2,0:0:0:0:
394,302,25119,2,0,L|404:238,1,58.5,0|2,0:0|0:0,0:0:0:0:
491,181,25723,2,0,L|501:117,1,58.5,8|0,1:2|1:0,0:0:0:0:
462,84,26125,6,0,L|481:-7,2,87.75,2|0|2,3:2|1:0|3:2,0:0:0:0:
377,152,27132,2,0,P|321:158|264:117,1,117,0|8,1:2|1:2,0:0:0:0:
236,85,27736,6,0,L|255:-6,2,87.75,2|0|2,3:2|1:0|3:2,0:0:0:0:
147,148,28743,2,0,L|159:219,2,58.5,0|8|8,1:0|1:0|1:2,0:0:0:0:
105,112,29347,1,4,1:2:0:0:
105,112,30958,6,0,P|119:173|127:236,1,117,4|8,1:2|0:0,0:0:0:0:
156,272,31562,1,2,0:0:0:0:
156,272,31763,2,0,L|289:289,1,117,0|8,0:0|0:0,0:0:0:0:
357,354,32568,2,0,P|410:365|485:387,2,117,0|8|0,0:0|0:0|2:0,0:0:0:0:
365,245,33776,2,0,L|402:179,1,58.5,8|2,0:0|0:0,0:0:0:0:
447,182,34179,6,0,P|469:124|410:22,1,175.5,0|2,0:0|0:0,0:0:0:0:
370,49,34984,2,0,P|306:37|237:19,1,117,8|8,0:0|0:0,0:0:0:0:
151,57,35790,1,8,0:0:0:0:
167,164,36192,1,8,0:0:0:0:
271,132,36595,2,0,P|312:143|331:148,2,58.5,8|2|8,0:0|0:0|0:0,0:0:0:0:
244,237,37400,6,0,B|262:276|262:276|247:361,1,117,8|8,0:0|0:0,0:0:0:0:
198,368,38005,1,2,0:0:0:0:
198,368,38206,2,0,L|74:378,1,117,0|8,0:0|0:0,0:0:0:0:
103,270,39011,2,0,L|-19:252,2,117,0|8|0,0:0|0:0|2:0,0:0:0:0:
182,195,40219,2,0,P|184:158|177:116,1,58.5,8|2,0:0|0:0,0:0:0:0:
162,85,40622,6,0,P|201:78|290:123,1,117,0|8,0:0|0:0,0:0:0:0:
358,170,41427,2,0,L|347:252,1,58.5,8|2,0:0|0:0,0:0:0:0:
299,248,41830,2,0,L|310:330,1,58.5,8|2,0:0|0:0,0:0:0:0:
334,352,42233,2,0,P|396:346|463:387,1,117,8|8,0:0|0:0,0:0:0:0:
499,274,43038,5,8,0:0:0:0:
424,194,43441,2,0,P|414:157|417:116,1,58.5,8|10,0:0|0:0,0:0:0:0:
392,87,43843,6,0,L|512:105,2,117,8|0|0,0:0|0:0|0:0,0:0:0:0:
289,49,45051,2,0,L|299:127,1,58.5,0|2,0:0|0:2,0:0:0:0:
261,149,45454,2,0,L|141:167,2,117,0|0|0,0:0|0:0|0:0,0:0:0:0:
358,197,46662,2,0,L|348:275,1,58.5,0|2,0:0|0:2,0:0:0:0:
296,265,47065,6,0,L|306:343,1,58.5,0|2,0:0|0:2,0:0:0:0:
333,368,47468,2,0,P|394:376|452:340,2,117
226,343,48676,1,0,0:0:0:0:
124,380,49078,1,4,0:2:0:0:
142,272,49481,2,0,P|134:224|116:144,1,117,8|8,0:0|0:0,0:0:0:0:
142,108,50085,1,10,0:0:0:0:
142,108,50286,6,0,L|22:126,2,117,8|0|0,0:0|0:0|0:0,0:0:0:0:
245,70,51494,2,0,L|235:148,1,58.5,0|2,0:0|0:2,0:0:0:0:
273,170,51897,2,0,L|393:188,2,117,0|0|0,0:0|0:0|0:0,0:0:0:0:
176,218,53105,2,0,L|186:296,1,58.5,0|2,0:0|0:2,0:0:0:0:
221,315,53508,5,12,1:2:0:0:
321,357,53911,1,8,1:0:0:0:
425,327,54313,1,8,1:0:0:0:
475,230,54716,1,8,1:0:0:0:
429,131,55119,6,0,P|439:45|519:115,2,234,8|8|4,1:0|0:1|0:2,0:0:0:0:
256,264,57535,6,0,L|234:182,1,58.5,0|0,0:0|0:0,0:0:0:0:
256,156,57937,2,0,L|273:79,1,58.5,8|2,1:2|0:2,0:0:0:0:
256,44,58340,6,0,P|202:37|136:19,1,117,14|8,1:2|1:0,0:0:0:0:
88,32,58944,2,0,P|100:58|105:104,1,58.5,2|0,0:0|1:0,0:0:0:0:
95,195,59548,2,0,L|26:204,1,58.5,10|2,1:2|0:0,0:0:0:0:
0,243,59951,6,0,P|-13:298|9:351,1,117,2|8,1:2|1:0,0:0:0:0:
59,374,60555,2,0,L|128:365,1,58.5,2|0,0:0|1:0,0:0:0:0:
211,309,61159,2,0,L|216:236,1,58.5,10|10,1:2|0:0,0:0:0:0:
184,205,61562,5,2,1:2:0:0:
256,124,61964,2,0,L|244:27,2,87.75,8|2|2,1:0|0:3|0:1,0:0:0:0:
295,162,62770,2,0,B|323:178|353:173,1,58.5,10|2,1:2|0:0,0:0:0:0:
401,151,63172,5,2,1:2:0:0:
499,100,63575,1,10,1:2:0:0:
497,208,63978,1,2,0:0:0:0:
492,316,64380,2,0,L|414:335,1,58.5,10|10,1:2|1:2,0:0:0:0:
384,351,64783,6,0,P|316:344|241:338,1,117,6|8,1:2|1:0,0:0:0:0:
217,360,65387,2,0,L|207:292,1,58.5,2|0,0:0|1:2,0:0:0:0:
196,190,65991,2,0,L|277:199,1,58.5,10|2,1:2|0:0,0:0:0:0:
307,210,66394,6,0,P|337:162|320:95,1,117,2|8,1:2|1:0,0:0:0:0:
317,51,66998,2,0,P|282:44|242:37,1,58.5,2|0,0:0|1:0,0:0:0:0:
151,25,67602,2,0,L|160:94,1,58.5,10|10,1:2|0:0,0:0:0:0:
128,128,68005,5,2,1:2:0:0:
65,218,68407,2,0,L|-30:206,2,87.75,8|2|2,1:0|0:3|0:1,0:0:0:0:
99,260,69213,2,0,L|168:250,1,58.5,10|2,1:2|0:0,0:0:0:0:
210,254,69615,6,0,P|207:224|197:197,2,58.5,12|4|4,0:1|0:1|0:1,0:0:0:0:
210,307,70219,1,4,0:1:0:0:
186,355,70421,1,12,0:1:0:0:
317,276,70823,6,0,P|304:321|307:348,1,58.5,8|8,0:1|0:1,0:0:0:0:
320,384,71226,1,8,1:2:0:0:
240,235,72031,6,0,P|227:207|232:166,1,58.5,8|8,1:0|1:0,0:0:0:0:
278,162,72434,2,0,P|291:134|286:93,1,58.5,8|8,1:0|1:0,0:0:0:0:
256,64,72837,5,0,0:0:0:0:
256,64,84112,6,0,P|201:63|121:35,1,117,4|0,0:0|0:0,0:0:0:0:
87,54,84716,2,0,L|118:246,1,175.5,2|0,0:0|0:0,0:0:0:0:
46,311,85723,2,0,P|82:336|166:323,1,117,2|0,0:0|0:0,0:0:0:0:
194,296,86327,2,0,P|280:283|385:270,1,175.5,2|0,0:0|0:0,0:0:0:0:
454,336,87333,5,2,0:0:0:0:
461,227,87736,2,0,P|483:133|391:32,1,234,0|0,0:0|0:0,0:0:0:0:
361,136,88944,1,2,1:2:0:0:
253,116,89347,1,2,1:2:0:0:
291,14,89749,2,0,P|236:19|155:37,1,117,2|2,0:0|1:2,0:0:0:0:
76,76,90555,6,2,L|63:208,1,117,2|4,1:0|0:0,0:0:0:0:
279,228,91763,1,8,0:0:0:0:
367,164,92166,6,2,L|380:296,1,117,2|4,1:0|0:0,0:0:0:0:
164,316,93374,1,8,0:0:0:0:
76,252,93776,6,0,P|67:207|103:132,1,117,8|8,0:0|0:0,0:0:0:0:
106,90,94380,2,0,P|168:107|241:120,1,117,8|8,0:0|0:0,0:0:0:0:
264,147,94984,2,0,L|334:135,1,58.5,8|0,0:0|0:0,0:0:0:0:
377,137,95387,1,8,0:0:0:0:
466,200,95790,5,8,0:0:0:0:
472,91,96193,1,0,0:0:0:0:
377,137,96595,2,0,L|304:147,1,58.5,8|0,1:2|1:0,0:0:0:0:
270,169,96998,6,0,P|263:111|259:37,1,117,14|8,1:2|1:0,0:0:0:0:
205,42,97602,2,0,P|181:31|145:34,1,58.5,2|0,0:0|1:0,0:0:0:0:
40,39,98206,2,0,L|30:118,1,58.5,10|2,1:2|0:0,0:0:0:0:
28,151,98609,6,0,P|84:159|136:134,1,117,2|8,1:2|1:0,0:0:0:0:
188,151,99213,2,0,P|207:187|205:223,1,58.5,2|0,0:0|1:0,0:0:0:0:
193,312,99817,2,0,L|260:318,1,58.5,10|10,1:2|0:0,0:0:0:0:
297,345,100219,5,2,1:2:0:0:
399,308,100622,2,0,P|440:330|499:325,2,87.75,8|2|2,1:0|0:3|0:1,0:0:0:0:
368,262,101427,1,10,1:2:0:0:
310,168,101830,6,0,L|327:59,2,87.75,2|2|2,1:0|1:0|1:0,0:0:0:0:
272,206,102635,2,0,P|222:216|139:240,1,117,2|8,0:2|1:2,0:0:0:0:
104,222,103239,1,2,1:0:0:0:
104,222,103441,6,0,P|70:171|81:111,1,117,14|8,1:2|1:0,0:0:0:0:
73,63,104045,2,0,L|147:76,1,58.5,2|0,0:0|1:0,0:0:0:0:
217,138,104649,2,0,P|276:124|290:122,1,58.5,8|2,1:2|0:0,0:0:0:0:
305,80,105051,6,0,P|377:93|427:109,1,117,2|8,1:2|1:0,0:0:0:0:
473,100,105656,2,0,L|488:171,1,58.5,2|0,0:0|1:0,0:0:0:0:
422,246,106260,2,0,L|407:317,1,58.5,8|10,1:2|0:0,0:0:0:0:
368,338,106662,5,2,1:2:0:0:
277,277,107065,2,0,L|175:289,2,87.75,8|2|2,1:0|0:3|0:1,0:0:0:0:
313,236,107870,2,0,P|320:195|317:167,1,58.5,8|2,1:2|0:0,0:0:0:0:
340,128,108273,6,0,L|413:137,2,58.5,12|4|4,0:1|0:1|0:1,0:0:0:0:
318,78,108877,1,4,0:1:0:0:
326,24,109078,1,12,0:1:0:0:
206,160,109481,6,0,P|213:119|210:91,1,58.5,8|8,0:1|0:1,0:0:0:0:
186,54,109884,1,8,1:0:0:0:
15,188,110689,6,0,P|2:227|39:306,1,117,2|2,0:0|0:0,0:0:0:0:
72,325,111293,1,2,0:0:0:0:
72,325,111494,2,0,L|196:303,2,117,2|0|0,0:0|0:0|0:0,0:0:0:0:
189,211,112702,6,0,P|222:218|251:234,1,58.5,2|2,0:0|0:0,0:0:0:0:
288,261,113105,1,8,0:1:0:0:
497,196,113911,6,0,P|510:157|473:78,1,117,2|2,0:0|0:0,0:0:0:0:
440,59,114515,1,2,0:0:0:0:
440,59,114716,6,0,B|257:176|208:-12|324:-106|443:41|390:97|354:213,1,468,2|0,0:0|0:0,0:0:0:0:
