osu file format v14

[General]
AudioFilename: audio.mp3
AudioLeadIn: 0
PreviewTime: 15911
Countdown: 0
SampleSet: Normal
StackLeniency: 0.7
Mode: 1
LetterboxInBreaks: 0
WidescreenStoryboard: 0

[Editor]
Bookmarks: 16009,29723,43438,57152,65723,79438,136009
DistanceSpacing: 0.2
BeatDivisor: 4
GridSize: 32
TimelineZoom: 0.9999999

[Metadata]
Title:Follow Tomorrow (for future mix)
TitleUnicode:Follow Tomorrow (for future mix)
Artist:HHHxMMxST
ArtistUnicode:HHH×MM×ST
Creator:Yales
Version:Muzukashii
Source:beatmania IIDX 19 Lincle
Tags:Mayumi Morinaga senya ryu* starving trancer moimoi Dal extended [r] ron
BeatmapID:1771797
BeatmapSetID:841545

[Difficulty]
HPDrainRate:6
CircleSize:2
OverallDifficulty:4.5
ApproachRate:9
SliderMultiplier:1.4
SliderTickRate:1

[Events]
//Background and Video events
0,0,"bg.jpg",0,-50
//Break Periods
//Storyboard Layer 0 (Background)
//Storyboard Layer 1 (Fail)
//Storyboard Layer 2 (Pass)
//Storyboard Layer 3 (Foreground)
//Storyboard Sound Samples

[TimingPoints]
590,428.571428571429,4,1,0,80,1,0
16018,-100,4,1,0,80,0,1
28018,-100,4,1,0,80,0,0
29732,-100,4,1,0,80,0,1
43447,-100,4,1,0,80,0,0
65732,-100,4,1,0,80,0,1
79447,-100,4,1,0,80,0,0
101732,-100,4,1,0,80,0,1
115447,-100,4,1,0,80,0,0
145018,-100,4,1,0,40,0,0
145446,-100,4,1,0,30,0,0
145875,-100,4,1,0,10,0,0
146304,428.571428571429,4,1,0,10,1,8
147161,428.571428571429,4,1,0,80,1,1
159161,-100,4,1,0,80,0,0
160875,-100,4,1,0,80,0,1
174589,-100,4,1,0,80,0,0

[HitObjects]
256,192,590,5,8,0:0:0:0:
256,192,911,1,0,0:0:0:0:
256,192,1232,1,8,0:0:0:0:
256,192,1447,1,8,0:0:0:0:
256,192,2304,1,8,0:0:0:0:
256,192,2625,1,8,0:0:0:0:
256,192,2947,1,0,0:0:0:0:
256,192,3161,1,8,0:0:0:0:
256,192,4018,1,8,0:0:0:0:
256,192,4340,1,0,0:0:0:0:
256,192,4661,1,8,0:0:0:0:
256,192,4875,1,8,0:0:0:0:
256,192,5732,1,8,0:0:0:0:
256,192,6054,1,0,0:0:0:0:
256,192,6375,1,8,0:0:0:0:
256,192,6590,1,0,0:0:0:0:
256,192,7447,1,12,0:0:0:0:
256,192,7768,1,0,0:0:0:0:
256,192,8090,1,8,0:0:0:0:
256,192,8304,1,8,0:0:0:0:
256,192,8732,1,0,0:0:0:0:
256,192,9161,1,8,0:0:0:0:
256,192,9482,1,8,0:0:0:0:
256,192,9804,1,0,0:0:0:0:
256,192,10018,1,8,0:0:0:0:
256,192,10447,1,0,0:0:0:0:
256,192,10875,1,12,0:0:0:0:
256,192,11197,1,0,0:0:0:0:
256,192,11518,1,8,0:0:0:0:
256,192,11732,1,8,0:0:0:0:
256,192,12161,1,0,0:0:0:0:
256,192,12590,1,12,0:0:0:0:
256,192,12911,1,0,0:0:0:0:
256,192,13232,1,8,0:0:0:0:
256,192,13447,1,0,0:0:0:0:
256,192,13768,1,0,0:0:0:0:
256,192,14090,1,8,0:0:0:0:
256,192,14304,1,4,0:0:0:0:
256,192,16018,1,12,0:0:0:0:
256,192,16447,1,0,0:0:0:0:
256,192,16661,1,0,0:0:0:0:
256,192,16875,1,8,0:0:0:0:
256,192,17090,1,0,0:0:0:0:
256,192,17518,1,0,0:0:0:0:
256,192,17732,1,8,0:0:0:0:
256,192,18161,1,8,0:0:0:0:
256,192,18375,1,8,0:0:0:0:
256,192,18590,1,0,0:0:0:0:
256,192,18804,1,8,0:0:0:0:
256,192,18911,1,8,0:0:0:0:
256,192,19018,1,8,0:0:0:0:
256,192,19232,1,0,0:0:0:0:
256,192,19447,1,8,0:0:0:0:
256,192,19875,1,0,0:0:0:0:
256,192,20090,1,8,0:0:0:0:
256,192,20304,1,8,0:0:0:0:
256,192,20518,1,0,0:0:0:0:
256,192,21161,1,8,0:0:0:0:
256,192,21482,1,0,0:0:0:0:
256,192,21804,1,8,0:0:0:0:
256,192,22018,1,8,0:0:0:0:
256,192,22232,1,0,0:0:0:0:
256,192,22340,1,0,0:0:0:0:
256,192,22447,1,0,0:0:0:0:
256,192,22661,1,0,0:0:0:0:
256,192,22875,1,12,0:0:0:0:
256,192,23304,1,0,0:0:0:0:
256,192,23518,1,0,0:0:0:0:
256,192,23732,1,8,0:0:0:0:
256,192,23947,1,8,0:0:0:0:
256,192,24375,1,0,0:0:0:0:
256,192,24590,1,8,0:0:0:0:
256,192,25018,1,8,0:0:0:0:
256,192,25232,1,8,0:0:0:0:
256,192,25447,1,0,0:0:0:0:
256,192,25661,1,8,0:0:0:0:
256,192,25768,1,8,0:0:0:0:
256,192,25875,1,8,0:0:0:0:
256,192,26090,1,0,0:0:0:0:
256,192,26304,1,8,0:0:0:0:
256,192,26732,1,0,0:0:0:0:
256,192,26947,1,0,0:0:0:0:
256,192,27161,1,8,0:0:0:0:
256,192,27375,1,0,0:0:0:0:
256,192,27804,1,0,0:0:0:0:
256,192,28018,1,12,0:0:0:0:
256,192,28340,1,12,0:0:0:0:
256,192,28661,1,4,0:0:0:0:
256,192,28875,1,12,0:0:0:0:
256,192,29732,1,12,0:0:0:0:
256,192,30161,1,0,0:0:0:0:
256,192,30375,1,0,0:0:0:0:
256,192,30590,1,8,0:0:0:0:
256,192,30804,1,0,0:0:0:0:
256,192,31232,1,0,0:0:0:0:
256,192,31447,1,8,0:0:0:0:
256,192,31875,1,8,0:0:0:0:
256,192,32090,1,8,0:0:0:0:
256,192,32304,1,0,0:0:0:0:
256,192,32518,1,8,0:0:0:0:
256,192,32625,1,8,0:0:0:0:
256,192,32840,1,0,0:0:0:0:
256,192,32947,1,0,0:0:0:0:
256,192,33161,1,8,0:0:0:0:
256,192,33590,1,0,0:0:0:0:
256,192,33804,1,8,0:0:0:0:
256,192,34018,1,8,0:0:0:0:
256,192,34232,1,0,0:0:0:0:
256,192,34875,1,8,0:0:0:0:
256,192,35197,1,0,0:0:0:0:
256,192,35518,1,8,0:0:0:0:
256,192,35732,1,8,0:0:0:0:
256,192,35947,1,0,0:0:0:0:
256,192,36054,1,0,0:0:0:0:
256,192,36268,1,0,0:0:0:0:
256,192,36375,1,0,0:0:0:0:
256,192,36590,1,12,0:0:0:0:
256,192,37018,1,0,0:0:0:0:
256,192,37232,1,0,0:0:0:0:
256,192,37447,1,8,0:0:0:0:
256,192,37661,1,8,0:0:0:0:
256,192,38090,1,0,0:0:0:0:
256,192,38304,1,8,0:0:0:0:
256,192,38732,1,8,0:0:0:0:
256,192,38947,1,8,0:0:0:0:
256,192,39161,1,0,0:0:0:0:
256,192,39375,1,8,0:0:0:0:
256,192,39482,1,8,0:0:0:0:
256,192,39697,1,0,0:0:0:0:
256,192,39804,1,0,0:0:0:0:
256,192,40018,1,8,0:0:0:0:
256,192,40447,1,0,0:0:0:0:
256,192,40661,1,0,0:0:0:0:
256,192,40875,1,8,0:0:0:0:
256,192,41090,1,0,0:0:0:0:
256,192,41518,1,0,0:0:0:0:
256,192,41732,1,12,0:0:0:0:
256,192,42054,1,12,0:0:0:0:
256,192,42375,1,4,0:0:0:0:
256,192,42590,1,12,0:0:0:0:
256,192,43447,5,12,0:0:0:0:
256,192,43875,1,0,0:0:0:0:
256,192,44304,5,8,0:0:0:0:
256,192,44518,1,0,0:0:0:0:
256,192,44732,1,0,0:0:0:0:
256,192,45161,1,8,0:0:0:0:
256,192,45590,1,0,0:0:0:0:
256,192,45804,1,0,0:0:0:0:
256,192,46018,1,8,0:0:0:0:
256,192,46340,1,8,0:0:0:0:
256,192,46661,1,0,0:0:0:0:
256,192,46875,1,8,0:0:0:0:
256,192,47304,1,0,0:0:0:0:
256,192,47732,1,8,0:0:0:0:
256,192,47947,1,0,0:0:0:0:
256,192,48161,1,8,0:0:0:0:
256,192,48590,1,8,0:0:0:0:
256,192,49447,1,8,0:0:0:0:
256,192,49768,1,8,0:0:0:0:
256,192,50090,1,0,0:0:0:0:
256,192,50304,1,12,0:0:0:0:
256,192,50732,1,0,0:0:0:0:
256,192,50947,5,0,0:0:0:0:
256,192,51161,1,8,0:0:0:0:
256,192,51375,1,0,0:0:0:0:
256,192,51482,1,0,0:0:0:0:
256,192,51590,1,0,0:0:0:0:
256,192,51804,1,0,0:0:0:0:
256,192,52018,1,8,0:0:0:0:
256,192,52447,1,8,0:0:0:0:
256,192,52661,1,0,0:0:0:0:
256,192,52768,1,0,0:0:0:0:
256,192,52875,1,0,0:0:0:0:
256,192,53197,1,8,0:0:0:0:
256,192,53518,1,0,0:0:0:0:
256,192,53732,1,8,0:0:0:0:
256,192,54161,1,0,0:0:0:0:
256,192,54375,1,0,0:0:0:0:
256,192,54590,1,8,0:0:0:0:
256,192,54804,1,0,0:0:0:0:
256,192,55018,1,8,0:0:0:0:
256,192,55447,1,8,0:0:0:0:
256,192,55661,1,0,0:0:0:0:
256,192,55875,1,0,0:0:0:0:
256,192,56090,1,0,0:0:0:0:
256,192,56304,1,8,0:0:0:0:
256,192,56518,1,0,0:0:0:0:
256,192,56625,1,0,0:0:0:0:
256,192,56732,1,0,0:0:0:0:
256,192,56947,1,0,0:0:0:0:
256,192,57161,1,12,0:0:0:0:
256,192,57804,1,0,0:0:0:0:
256,192,58018,1,8,0:0:0:0:
256,192,58232,1,0,0:0:0:0:
256,192,58340,1,0,0:0:0:0:
256,192,58447,1,0,0:0:0:0:
256,192,58875,1,8,0:0:0:0:
256,192,59090,1,8,0:0:0:0:
256,192,59304,1,0,0:0:0:0:
256,192,59518,1,0,0:0:0:0:
256,192,59732,1,8,0:0:0:0:
256,192,59947,1,0,0:0:0:0:
256,192,60054,1,0,0:0:0:0:
256,192,60161,1,0,0:0:0:0:
256,192,60375,1,0,0:0:0:0:
256,192,60590,1,8,0:0:0:0:
256,192,61018,1,0,0:0:0:0:
256,192,61447,1,8,0:0:0:0:
256,192,61875,1,0,0:0:0:0:
256,192,62304,1,8,0:0:0:0:
256,192,62732,1,0,0:0:0:0:
256,192,62947,1,0,0:0:0:0:
256,192,63054,1,0,0:0:0:0:
256,192,63161,1,0,0:0:0:0:
256,192,63375,1,8,0:0:0:0:
256,192,63482,1,8,0:0:0:0:
256,192,63590,1,8,0:0:0:0:
256,192,63804,1,0,0:0:0:0:
256,192,64018,1,12,0:0:0:0:
256,192,64340,1,4,0:0:0:0:
256,192,64661,1,4,0:0:0:0:
256,192,64875,1,12,0:0:0:0:
256,192,65732,1,12,0:0:0:0:
256,192,66161,1,0,0:0:0:0:
256,192,66375,1,0,0:0:0:0:
256,192,66590,1,8,0:0:0:0:
256,192,66804,1,0,0:0:0:0:
256,192,67232,1,0,0:0:0:0:
256,192,67447,1,8,0:0:0:0:
256,192,67875,1,8,0:0:0:0:
256,192,68090,1,8,0:0:0:0:
256,192,68304,1,0,0:0:0:0:
256,192,68518,1,8,0:0:0:0:
256,192,68625,1,8,0:0:0:0:
256,192,68732,1,8,0:0:0:0:
256,192,68947,1,0,0:0:0:0:
256,192,69161,1,8,0:0:0:0:
256,192,69590,1,0,0:0:0:0:
256,192,69804,1,8,0:0:0:0:
256,192,70018,1,8,0:0:0:0:
256,192,70232,1,0,0:0:0:0:
256,192,70875,1,8,0:0:0:0:
256,192,71197,1,0,0:0:0:0:
256,192,71518,1,8,0:0:0:0:
256,192,71732,1,8,0:0:0:0:
256,192,71947,1,0,0:0:0:0:
256,192,72054,1,0,0:0:0:0:
256,192,72161,1,0,0:0:0:0:
256,192,72375,1,0,0:0:0:0:
256,192,72590,1,12,0:0:0:0:
256,192,73018,1,0,0:0:0:0:
256,192,73232,1,0,0:0:0:0:
256,192,73447,1,8,0:0:0:0:
256,192,73661,1,8,0:0:0:0:
256,192,74090,1,0,0:0:0:0:
256,192,74304,1,8,0:0:0:0:
256,192,74732,1,8,0:0:0:0:
256,192,74947,1,8,0:0:0:0:
256,192,75161,1,0,0:0:0:0:
256,192,75375,1,8,0:0:0:0:
256,192,75482,1,8,0:0:0:0:
256,192,75590,1,8,0:0:0:0:
256,192,75804,1,0,0:0:0:0:
256,192,76018,1,8,0:0:0:0:
256,192,76447,1,0,0:0:0:0:
256,192,76661,5,0,0:0:0:0:
256,192,76875,1,8,0:0:0:0:
256,192,77090,1,0,0:0:0:0:
256,192,77518,1,0,0:0:0:0:
256,192,77732,1,12,0:0:0:0:
256,192,78054,1,12,0:0:0:0:
256,192,78375,1,4,0:0:0:0:
256,192,78590,1,12,0:0:0:0:
256,192,79447,5,12,0:0:0:0:
256,192,79875,1,0,0:0:0:0:
256,192,80304,5,8,0:0:0:0:
256,192,80518,1,0,0:0:0:0:
256,192,80732,1,0,0:0:0:0:
256,192,81161,1,8,0:0:0:0:
256,192,81590,1,0,0:0:0:0:
256,192,81804,1,0,0:0:0:0:
256,192,82018,1,8,0:0:0:0:
256,192,82340,1,8,0:0:0:0:
256,192,82661,1,0,0:0:0:0:
256,192,82875,1,8,0:0:0:0:
256,192,83304,1,0,0:0:0:0:
256,192,83732,1,8,0:0:0:0:
256,192,83947,1,0,0:0:0:0:
256,192,84161,1,8,0:0:0:0:
256,192,84590,1,12,0:0:0:0:
256,192,85232,1,0,0:0:0:0:
256,192,85447,1,8,0:0:0:0:
256,192,85768,1,8,0:0:0:0:
256,192,86090,1,0,0:0:0:0:
256,192,86304,1,12,0:0:0:0:
256,192,86732,1,0,0:0:0:0:
256,192,86947,5,0,0:0:0:0:
256,192,87161,1,8,0:0:0:0:
256,192,87375,1,0,0:0:0:0:
256,192,87482,1,0,0:0:0:0:
256,192,87590,1,0,0:0:0:0:
256,192,87804,1,0,0:0:0:0:
256,192,88018,1,8,0:0:0:0:
256,192,88447,1,8,0:0:0:0:
256,192,88661,1,0,0:0:0:0:
256,192,88768,1,0,0:0:0:0:
256,192,88875,1,0,0:0:0:0:
256,192,89197,1,8,0:0:0:0:
256,192,89518,1,0,0:0:0:0:
256,192,89732,1,8,0:0:0:0:
256,192,90161,1,0,0:0:0:0:
256,192,90375,1,0,0:0:0:0:
256,192,90590,1,8,0:0:0:0:
256,192,90804,1,0,0:0:0:0:
256,192,91018,1,8,0:0:0:0:
256,192,91447,1,8,0:0:0:0:
256,192,91661,1,0,0:0:0:0:
256,192,91875,1,0,0:0:0:0:
256,192,92090,1,0,0:0:0:0:
256,192,92304,1,8,0:0:0:0:
256,192,92518,1,0,0:0:0:0:
256,192,92625,1,0,0:0:0:0:
256,192,92732,1,0,0:0:0:0:
256,192,92947,1,0,0:0:0:0:
256,192,93161,1,12,0:0:0:0:
256,192,93804,1,0,0:0:0:0:
256,192,94018,1,8,0:0:0:0:
256,192,94232,1,0,0:0:0:0:
256,192,94340,1,0,0:0:0:0:
256,192,94447,1,0,0:0:0:0:
256,192,94875,1,8,0:0:0:0:
256,192,95090,1,8,0:0:0:0:
256,192,95304,1,0,0:0:0:0:
256,192,95518,1,0,0:0:0:0:
256,192,95732,1,8,0:0:0:0:
256,192,95947,1,0,0:0:0:0:
256,192,96054,1,0,0:0:0:0:
256,192,96161,1,0,0:0:0:0:
256,192,96375,1,0,0:0:0:0:
256,192,96590,1,8,0:0:0:0:
256,192,97018,1,0,0:0:0:0:
256,192,97447,1,8,0:0:0:0:
256,192,97875,1,0,0:0:0:0:
256,192,98304,1,8,0:0:0:0:
256,192,98732,1,0,0:0:0:0:
256,192,98947,1,0,0:0:0:0:
256,192,99054,1,0,0:0:0:0:
256,192,99161,1,0,0:0:0:0:
256,192,99375,1,8,0:0:0:0:
256,192,99482,1,8,0:0:0:0:
256,192,99590,1,8,0:0:0:0:
256,192,99804,1,0,0:0:0:0:
256,192,100018,1,12,0:0:0:0:
256,192,100340,1,4,0:0:0:0:
256,192,100661,1,4,0:0:0:0:
256,192,100875,1,12,0:0:0:0:
256,192,101732,1,12,0:0:0:0:
256,192,102161,1,0,0:0:0:0:
256,192,102375,1,0,0:0:0:0:
256,192,102590,1,8,0:0:0:0:
256,192,102804,1,0,0:0:0:0:
256,192,103232,1,0,0:0:0:0:
256,192,103447,1,8,0:0:0:0:
256,192,103875,1,8,0:0:0:0:
256,192,104090,1,8,0:0:0:0:
256,192,104304,1,0,0:0:0:0:
256,192,104518,1,8,0:0:0:0:
256,192,104625,1,8,0:0:0:0:
256,192,104732,1,8,0:0:0:0:
256,192,104947,1,0,0:0:0:0:
256,192,105161,1,8,0:0:0:0:
256,192,105590,1,0,0:0:0:0:
256,192,105804,1,8,0:0:0:0:
256,192,106018,1,8,0:0:0:0:
256,192,106232,1,0,0:0:0:0:
256,192,106875,1,8,0:0:0:0:
256,192,107197,1,0,0:0:0:0:
256,192,107518,1,8,0:0:0:0:
256,192,107732,1,8,0:0:0:0:
256,192,107947,1,0,0:0:0:0:
256,192,108054,1,0,0:0:0:0:
256,192,108161,1,0,0:0:0:0:
256,192,108375,1,0,0:0:0:0:
256,192,108590,1,12,0:0:0:0:
256,192,109018,1,0,0:0:0:0:
256,192,109232,1,0,0:0:0:0:
256,192,109447,1,8,0:0:0:0:
256,192,109661,1,8,0:0:0:0:
256,192,110090,1,0,0:0:0:0:
256,192,110304,1,8,0:0:0:0:
256,192,110732,1,8,0:0:0:0:
256,192,110947,1,8,0:0:0:0:
256,192,111161,1,0,0:0:0:0:
256,192,111375,1,8,0:0:0:0:
256,192,111482,1,8,0:0:0:0:
256,192,111590,1,8,0:0:0:0:
256,192,111804,1,0,0:0:0:0:
256,192,112018,1,8,0:0:0:0:
256,192,112447,1,0,0:0:0:0:
256,192,112661,1,0,0:0:0:0:
256,192,112875,1,8,0:0:0:0:
256,192,113090,1,0,0:0:0:0:
256,192,113518,1,0,0:0:0:0:
256,192,113732,1,12,0:0:0:0:
256,192,114054,1,12,0:0:0:0:
256,192,114375,1,4,0:0:0:0:
256,192,114590,1,12,0:0:0:0:
256,192,115447,5,12,0:0:0:0:
256,192,115768,5,0,0:0:0:0:
256,192,116090,5,8,0:0:0:0:
256,192,116518,1,8,0:0:0:0:
256,192,116732,5,0,0:0:0:0:
256,192,116947,1,0,0:0:0:0:
256,192,117161,1,8,0:0:0:0:
256,192,117482,1,0,0:0:0:0:
256,192,117804,1,8,0:0:0:0:
256,192,118125,1,0,0:0:0:0:
256,192,118447,1,8,0:0:0:0:
256,192,118661,1,8,0:0:0:0:
256,192,118875,1,0,0:0:0:0:
256,192,119732,1,0,0:0:0:0:
256,192,120161,1,0,0:0:0:0:
256,192,120268,1,0,0:0:0:0:
256,192,120375,1,0,0:0:0:0:
256,192,120590,1,8,0:0:0:0:
256,192,121018,1,0,0:0:0:0:
256,192,121232,1,0,0:0:0:0:
256,192,121447,1,8,0:0:0:0:
256,192,121661,1,0,0:0:0:0:
256,192,121875,1,8,0:0:0:0:
256,192,122090,1,8,0:0:0:0:
256,192,122304,1,4,0:0:0:0:
256,192,122732,1,8,0:0:0:0:
256,192,122947,1,0,0:0:0:0:
256,192,123161,1,8,0:0:0:0:
256,192,123375,1,0,0:0:0:0:
256,192,123482,1,0,0:0:0:0:
256,192,123590,1,0,0:0:0:0:
256,192,123804,1,0,0:0:0:0:
256,192,124018,1,8,0:0:0:0:
256,192,124447,1,0,0:0:0:0:
256,192,124661,1,8,0:0:0:0:
256,192,124768,1,8,0:0:0:0:
256,192,124875,1,8,0:0:0:0:
256,192,125090,1,0,0:0:0:0:
256,192,125304,1,8,0:0:0:0:
256,192,125518,1,8,0:0:0:0:
256,192,125732,1,4,0:0:0:0:
256,192,127447,1,12,0:0:0:0:
256,192,127768,1,0,0:0:0:0:
256,192,128090,1,0,0:0:0:0:
256,192,128304,1,8,0:0:0:0:
256,192,128625,1,8,0:0:0:0:
256,192,128947,1,0,0:0:0:0:
256,192,129161,1,12,0:0:0:0:
256,192,129590,1,0,0:0:0:0:
256,192,130018,1,8,0:0:0:0:
256,192,130447,1,8,0:0:0:0:
256,192,130661,1,0,0:0:0:0:
256,192,130875,1,8,0:0:0:0:
256,192,131518,1,0,0:0:0:0:
256,192,131732,1,8,0:0:0:0:
256,192,131947,1,0,0:0:0:0:
256,192,132054,1,0,0:0:0:0:
256,192,132161,1,0,0:0:0:0:
256,192,132375,1,0,0:0:0:0:
256,192,132590,1,12,0:0:0:0:
256,192,133018,5,8,0:0:0:0:
256,192,133232,1,0,0:0:0:0:
256,192,133340,1,0,0:0:0:0:
256,192,133447,1,0,0:0:0:0:
256,192,133661,1,8,0:0:0:0:
256,192,133875,1,0,0:0:0:0:
256,192,134304,1,12,0:0:0:0:
256,192,134947,1,0,0:0:0:0:
256,192,135161,1,8,0:0:0:0:
256,192,135482,1,0,0:0:0:0:
256,192,135804,1,0,0:0:0:0:
256,192,136018,1,12,0:0:0:0:
256,192,136447,1,0,0:0:0:0:
256,192,136661,1,0,0:0:0:0:
256,192,136875,1,8,0:0:0:0:
256,192,137090,1,0,0:0:0:0:
256,192,137197,1,0,0:0:0:0:
256,192,137304,1,0,0:0:0:0:
256,192,137518,1,0,0:0:0:0:
256,192,137732,1,8,0:0:0:0:
256,192,138161,1,8,0:0:0:0:
256,192,138375,1,0,0:0:0:0:
256,192,138482,1,0,0:0:0:0:
256,192,138590,1,0,0:0:0:0:
256,192,138911,1,8,0:0:0:0:
256,192,139232,1,0,0:0:0:0:
256,192,139447,1,8,0:0:0:0:
256,192,139875,1,0,0:0:0:0:
256,192,140090,1,8,0:0:0:0:
256,192,140304,1,8,0:0:0:0:
256,192,140518,1,0,0:0:0:0:
256,192,140732,1,8,0:0:0:0:
256,192,141161,1,8,0:0:0:0:
256,192,141375,1,0,0:0:0:0:
256,192,141590,1,0,0:0:0:0:
256,192,141804,1,0,0:0:0:0:
256,192,142018,1,8,0:0:0:0:
256,192,142232,1,0,0:0:0:0:
256,192,142340,1,0,0:0:0:0:
256,192,142447,1,0,0:0:0:0:
256,192,142661,1,0,0:0:0:0:
256,192,142875,1,12,0:0:0:0:
256,192,143197,5,4,0:0:0:0:
256,192,143518,1,12,0:0:0:0:
256,192,143840,1,12,0:0:0:0:
256,192,144161,1,4,0:0:0:0:
256,192,144375,1,12,0:0:0:0:
256,192,144590,12,0,146304,0:0:0:0:
256,192,147161,5,12,0:0:0:0:
256,192,147589,1,0,0:0:0:0:
256,192,147803,1,0,0:0:0:0:
256,192,148018,1,8,0:0:0:0:
256,192,148233,1,0,0:0:0:0:
256,192,148661,1,0,0:0:0:0:
256,192,148875,1,8,0:0:0:0:
256,192,149303,1,8,0:0:0:0:
256,192,149518,1,8,0:0:0:0:
256,192,149733,1,0,0:0:0:0:
256,192,149947,1,8,0:0:0:0:
256,192,150054,1,8,0:0:0:0:
256,192,150161,1,8,0:0:0:0:
256,192,150375,1,0,0:0:0:0:
256,192,150590,1,8,0:0:0:0:
256,192,151018,1,0,0:0:0:0:
256,192,151232,1,8,0:0:0:0:
256,192,151447,1,8,0:0:0:0:
256,192,151661,1,0,0:0:0:0:
256,192,152304,1,8,0:0:0:0:
256,192,152625,1,0,0:0:0:0:
256,192,152947,1,8,0:0:0:0:
256,192,153161,1,8,0:0:0:0:
256,192,153375,1,0,0:0:0:0:
256,192,153483,1,0,0:0:0:0:
256,192,153590,1,0,0:0:0:0:
256,192,153803,1,0,0:0:0:0:
256,192,154018,1,12,0:0:0:0:
256,192,154446,1,0,0:0:0:0:
256,192,154661,1,0,0:0:0:0:
256,192,154875,1,8,0:0:0:0:
256,192,155089,1,8,0:0:0:0:
256,192,155518,1,0,0:0:0:0:
256,192,155733,1,8,0:0:0:0:
256,192,156161,1,8,0:0:0:0:
256,192,156375,1,8,0:0:0:0:
256,192,156589,1,0,0:0:0:0:
256,192,156804,1,8,0:0:0:0:
256,192,156911,1,8,0:0:0:0:
256,192,157018,1,8,0:0:0:0:
256,192,157232,1,0,0:0:0:0:
256,192,157447,1,8,0:0:0:0:
256,192,157875,1,0,0:0:0:0:
256,192,158089,1,0,0:0:0:0:
256,192,158304,1,8,0:0:0:0:
256,192,158518,1,0,0:0:0:0:
256,192,158946,1,0,0:0:0:0:
256,192,159161,1,12,0:0:0:0:
256,192,159483,1,12,0:0:0:0:
256,192,159804,1,4,0:0:0:0:
256,192,160018,1,12,0:0:0:0:
256,192,160875,5,12,0:0:0:0:
256,192,161303,1,0,0:0:0:0:
256,192,161518,1,0,0:0:0:0:
256,192,161732,1,8,0:0:0:0:
256,192,161947,1,0,0:0:0:0:
256,192,162053,1,0,0:0:0:0:
256,192,162161,1,0,0:0:0:0:
256,192,162375,1,0,0:0:0:0:
256,192,162589,1,8,0:0:0:0:
256,192,163018,1,8,0:0:0:0:
256,192,163232,1,8,0:0:0:0:
256,192,163447,1,0,0:0:0:0:
256,192,163661,1,8,0:0:0:0:
256,192,163768,1,8,0:0:0:0:
256,192,163875,1,8,0:0:0:0:
256,192,164089,1,0,0:0:0:0:
256,192,164304,1,8,0:0:0:0:
256,192,164732,1,0,0:0:0:0:
256,192,164946,1,8,0:0:0:0:
256,192,165161,1,8,0:0:0:0:
256,192,165375,1,0,0:0:0:0:
256,192,166018,1,8,0:0:0:0:
256,192,166339,1,0,0:0:0:0:
256,192,166661,1,8,0:0:0:0:
256,192,166875,1,8,0:0:0:0:
256,192,167089,1,0,0:0:0:0:
256,192,167196,1,0,0:0:0:0:
256,192,167303,1,0,0:0:0:0:
256,192,167518,1,0,0:0:0:0:
256,192,167732,1,12,0:0:0:0:
256,192,168161,1,0,0:0:0:0:
256,192,168375,1,0,0:0:0:0:
256,192,168589,1,8,0:0:0:0:
256,192,168804,1,8,0:0:0:0:
256,192,169232,1,0,0:0:0:0:
256,192,169447,1,8,0:0:0:0:
256,192,169875,1,8,0:0:0:0:
256,192,170089,1,8,0:0:0:0:
256,192,170304,1,0,0:0:0:0:
256,192,170518,1,8,0:0:0:0:
256,192,170625,1,8,0:0:0:0:
256,192,170732,1,8,0:0:0:0:
256,192,170946,1,0,0:0:0:0:
256,192,171161,1,8,0:0:0:0:
256,192,171589,1,0,0:0:0:0:
256,192,171803,1,0,0:0:0:0:
256,192,172018,1,8,0:0:0:0:
256,192,172232,1,0,0:0:0:0:
256,192,172661,1,0,0:0:0:0:
256,192,172875,1,12,0:0:0:0:
256,192,173197,1,12,0:0:0:0:
256,192,173518,1,4,0:0:0:0:
256,192,173733,1,12,0:0:0:0:
256,192,174590,1,12,0:0:0:0:
256,192,174911,1,0,0:0:0:0:
256,192,175232,1,8,0:0:0:0:
256,192,175447,1,8,0:0:0:0:
256,192,176304,1,8,0:0:0:0:
256,192,176625,1,8,0:0:0:0:
256,192,176947,1,0,0:0:0:0:
256,192,177161,1,8,0:0:0:0:
256,192,178018,1,8,0:0:0:0:
256,192,178340,1,0,0:0:0:0:
256,192,178661,1,8,0:0:0:0:
256,192,178875,1,8,0:0:0:0:
256,192,179732,1,8,0:0:0:0:
256,192,180054,1,0,0:0:0:0:
256,192,180375,1,8,0:0:0:0:
256,192,180590,1,0,0:0:0:0:
256,192,180911,1,0,0:0:0:0:
256,192,181232,1,8,0:0:0:0:
