osu file format v14

[General]
AudioFilename: audio.mp3
AudioLeadIn: 0
PreviewTime: 16018
Countdown: 0
SampleSet: Soft
StackLeniency: 0.7
Mode: 3
LetterboxInBreaks: 0
SpecialStyle: 1
WidescreenStoryboard: 1

[Editor]
DistanceSpacing: 1.2
BeatDivisor: 4
GridSize: 4
TimelineZoom: 1.3

[Metadata]
Title:Follow Tomorrow
TitleUnicode:Follow Tomorrow
Artist:HHHxMMxST
ArtistUnicode:HHH×MM×ST
Creator:dosyeru
Version:Normal
Source:beatmania IIDX
Tags:19 Lincle Ryu☆ DanceEvolution Dance Dance Revolution jubeat
BeatmapID:1102866
BeatmapSetID:518090

[Difficulty]
HPDrainRate:7
CircleSize:8
OverallDifficulty:8
ApproachRate:5
SliderMultiplier:1.4
SliderTickRate:1

[Events]
//Background and Video events
0,0,"follow tomorrow.PNG",0,0
//Break Periods
//Storyboard Layer 0 (Background)
//Storyboard Layer 1 (Fail)
//Storyboard Layer 2 (Pass)
//Storyboard Layer 3 (Foreground)
//Storyboard Sound Samples

[TimingPoints]
590,428.571428571429,4,2,0,30,1,0
97447,428.571428571429,4,2,0,30,1,0

[HitObjects]
224,192,590,5,0,0:0:0:0:
224,192,911,1,0,0:0:0:0:
352,192,1232,1,0,0:0:0:0:
352,192,1447,1,0,0:0:0:0:
288,192,2304,1,0,0:0:0:0:
288,192,2625,1,0,0:0:0:0:
416,192,2947,1,0,0:0:0:0:
416,192,3161,1,0,0:0:0:0:
416,192,3482,1,0,0:0:0:0:
96,192,3804,1,0,0:0:0:0:
224,192,4018,1,0,0:0:0:0:
224,192,4340,1,0,0:0:0:0:
352,192,4661,1,0,0:0:0:0:
352,192,4875,1,0,0:0:0:0:
288,192,5732,1,0,0:0:0:0:
288,192,6054,1,0,0:0:0:0:
416,192,6375,1,0,0:0:0:0:
160,192,6590,1,0,0:0:0:0:
288,192,6911,1,0,0:0:0:0:
416,192,7232,1,0,0:0:0:0:
32,192,7447,1,0,0:0:0:0:
224,192,7447,1,0,0:0:0:0:
224,192,7768,1,0,0:0:0:0:
352,192,8090,1,0,0:0:0:0:
352,192,8304,1,0,0:0:0:0:
288,192,9161,1,0,0:0:0:0:
288,192,9482,1,0,0:0:0:0:
416,192,9804,1,0,0:0:0:0:
416,192,10018,1,0,0:0:0:0:
416,192,10340,1,0,0:0:0:0:
160,192,10661,1,0,0:0:0:0:
224,192,10875,1,0,0:0:0:0:
224,192,11197,1,0,0:0:0:0:
352,192,11518,1,0,0:0:0:0:
352,192,11732,1,0,0:0:0:0:
96,192,12590,1,0,0:0:0:0:
160,192,12911,1,0,0:0:0:0:
160,192,13232,1,0,0:0:0:0:
224,192,13447,1,0,0:0:0:0:
352,192,13768,1,0,0:0:0:0:
480,192,14090,1,0,0:0:0:0:
32,192,14304,1,0,0:0:0:0:
352,192,15161,1,0,0:0:0:0:
224,192,15590,1,0,0:0:0:0:
96,192,16018,1,0,0:0:0:0:
32,192,16018,1,0,0:0:0:0:
288,192,16340,1,0,0:0:0:0:
96,192,16661,1,0,0:0:0:0:
224,192,16875,1,0,0:0:0:0:
416,192,17197,1,0,0:0:0:0:
224,192,17518,1,0,0:0:0:0:
160,192,17732,1,0,0:0:0:0:
352,192,18054,1,0,0:0:0:0:
160,192,18375,1,0,0:0:0:0:
416,192,18590,1,0,0:0:0:0:
224,192,18911,1,0,0:0:0:0:
416,192,19232,1,0,0:0:0:0:
96,192,19447,1,0,0:0:0:0:
288,192,19768,1,0,0:0:0:0:
96,192,20090,1,0,0:0:0:0:
224,192,20304,1,0,0:0:0:0:
416,192,20625,1,0,0:0:0:0:
224,192,20947,1,0,0:0:0:0:
352,192,21161,1,0,0:0:0:0:
224,192,21482,1,0,0:0:0:0:
416,192,21804,1,0,0:0:0:0:
160,192,22018,1,0,0:0:0:0:
32,192,22447,1,0,0:0:0:0:
96,192,22875,1,0,0:0:0:0:
288,192,23197,1,0,0:0:0:0:
96,192,23518,1,0,0:0:0:0:
224,192,23732,1,0,0:0:0:0:
416,192,24054,1,0,0:0:0:0:
224,192,24375,1,0,0:0:0:0:
160,192,24590,1,0,0:0:0:0:
352,192,24911,1,0,0:0:0:0:
160,192,25232,1,0,0:0:0:0:
416,192,25447,1,0,0:0:0:0:
224,192,25768,1,0,0:0:0:0:
416,192,26090,1,0,0:0:0:0:
96,192,26304,1,0,0:0:0:0:
352,192,26625,1,0,0:0:0:0:
96,192,26947,1,0,0:0:0:0:
224,192,27161,1,0,0:0:0:0:
480,192,27482,1,0,0:0:0:0:
224,192,27804,1,0,0:0:0:0:
32,192,28018,1,0,0:0:0:0:
288,192,28018,1,0,0:0:0:0:
32,192,28340,1,0,0:0:0:0:
288,192,28340,1,0,0:0:0:0:
32,192,28661,1,0,0:0:0:0:
224,192,28661,1,0,0:0:0:0:
32,192,28875,1,0,0:0:0:0:
224,192,28875,1,0,0:0:0:0:
288,192,29304,1,0,0:0:0:0:
32,192,29732,1,0,0:0:0:0:
96,192,29732,1,0,0:0:0:0:
352,192,29947,1,0,0:0:0:0:
96,192,30161,1,0,0:0:0:0:
352,192,30375,1,0,0:0:0:0:
160,192,30590,1,0,0:0:0:0:
416,192,30804,1,0,0:0:0:0:
160,192,31018,1,0,0:0:0:0:
416,192,31232,1,0,0:0:0:0:
224,192,31447,1,0,0:0:0:0:
480,192,31661,1,0,0:0:0:0:
224,192,31875,1,0,0:0:0:0:
480,192,32090,1,0,0:0:0:0:
288,192,32304,1,0,0:0:0:0:
288,192,32732,1,0,0:0:0:0:
96,192,33161,1,0,0:0:0:0:
352,192,33375,1,0,0:0:0:0:
96,192,33590,1,0,0:0:0:0:
352,192,33804,1,0,0:0:0:0:
160,192,34018,1,0,0:0:0:0:
416,192,34232,1,0,0:0:0:0:
160,192,34447,1,0,0:0:0:0:
416,192,34661,1,0,0:0:0:0:
224,192,34875,1,0,0:0:0:0:
352,192,35304,1,0,0:0:0:0:
480,192,35732,1,0,0:0:0:0:
32,192,36161,1,0,0:0:0:0:
480,192,36590,1,0,0:0:0:0:
224,192,36804,1,0,0:0:0:0:
480,192,37018,1,0,0:0:0:0:
224,192,37232,1,0,0:0:0:0:
416,192,37447,1,0,0:0:0:0:
160,192,37661,1,0,0:0:0:0:
416,192,37875,1,0,0:0:0:0:
160,192,38090,1,0,0:0:0:0:
352,192,38304,1,0,0:0:0:0:
96,192,38518,1,0,0:0:0:0:
352,192,38732,1,0,0:0:0:0:
96,192,38947,1,0,0:0:0:0:
288,192,39161,1,0,0:0:0:0:
288,192,39590,1,0,0:0:0:0:
160,192,40018,1,0,0:0:0:0:
352,192,40340,1,0,0:0:0:0:
160,192,40661,1,0,0:0:0:0:
224,192,40875,1,0,0:0:0:0:
416,192,41197,1,0,0:0:0:0:
224,192,41518,1,0,0:0:0:0:
32,192,41732,1,0,0:0:0:0:
352,192,41732,1,0,0:0:0:0:
32,192,42054,1,0,0:0:0:0:
352,192,42054,1,0,0:0:0:0:
32,192,42375,1,0,0:0:0:0:
224,192,42375,1,0,0:0:0:0:
32,192,42590,1,0,0:0:0:0:
352,192,42590,1,0,0:0:0:0:
224,192,43018,1,0,0:0:0:0:
352,192,43232,1,0,0:0:0:0:
32,192,43447,1,0,0:0:0:0:
96,192,43661,1,0,0:0:0:0:
352,192,43875,1,0,0:0:0:0:
96,192,44090,1,0,0:0:0:0:
96,192,44518,1,0,0:0:0:0:
352,192,44732,1,0,0:0:0:0:
96,192,44947,1,0,0:0:0:0:
96,192,45375,1,0,0:0:0:0:
352,192,45590,1,0,0:0:0:0:
96,192,45804,1,0,0:0:0:0:
96,192,46232,1,0,0:0:0:0:
352,192,46447,1,0,0:0:0:0:
96,192,46661,1,0,0:0:0:0:
160,192,47090,1,0,0:0:0:0:
416,192,47304,1,0,0:0:0:0:
160,192,47518,1,0,0:0:0:0:
160,192,47947,1,0,0:0:0:0:
416,192,48161,1,0,0:0:0:0:
160,192,48375,1,0,0:0:0:0:
224,192,48804,1,0,0:0:0:0:
480,192,49018,1,0,0:0:0:0:
224,192,49232,1,0,0:0:0:0:
224,192,49661,1,0,0:0:0:0:
480,192,49875,1,0,0:0:0:0:
224,192,50090,1,0,0:0:0:0:
32,192,50304,1,0,0:0:0:0:
352,192,50304,1,0,0:0:0:0:
352,192,50518,1,0,0:0:0:0:
224,192,50840,1,0,0:0:0:0:
352,192,51161,1,0,0:0:0:0:
224,192,51482,1,0,0:0:0:0:
352,192,51804,1,0,0:0:0:0:
224,192,52018,1,0,0:0:0:0:
224,192,52232,1,0,0:0:0:0:
160,192,52661,1,0,0:0:0:0:
416,192,52875,1,0,0:0:0:0:
288,192,53197,1,0,0:0:0:0:
160,192,53518,1,0,0:0:0:0:
416,192,53732,1,0,0:0:0:0:
416,192,53947,1,0,0:0:0:0:
160,192,54268,1,0,0:0:0:0:
416,192,54590,1,0,0:0:0:0:
160,192,54911,1,0,0:0:0:0:
416,192,55232,1,0,0:0:0:0:
96,192,55447,1,0,0:0:0:0:
160,192,55661,1,0,0:0:0:0:
288,192,55875,1,0,0:0:0:0:
416,192,56090,1,0,0:0:0:0:
480,192,56304,1,0,0:0:0:0:
352,192,56518,1,0,0:0:0:0:
224,192,56732,1,0,0:0:0:0:
96,192,56947,1,0,0:0:0:0:
32,192,57161,1,0,0:0:0:0:
416,192,57161,1,0,0:0:0:0:
288,192,57482,1,0,0:0:0:0:
416,192,57804,1,0,0:0:0:0:
160,192,58018,1,0,0:0:0:0:
32,192,58232,1,0,0:0:0:0:
352,192,58875,1,0,0:0:0:0:
224,192,59197,1,0,0:0:0:0:
352,192,59518,1,0,0:0:0:0:
480,192,59732,1,0,0:0:0:0:
352,192,60054,1,0,0:0:0:0:
224,192,60375,1,0,0:0:0:0:
224,192,60590,1,0,0:0:0:0:
160,192,61018,1,0,0:0:0:0:
288,192,61447,1,0,0:0:0:0:
416,192,61875,1,0,0:0:0:0:
480,192,62304,1,0,0:0:0:0:
352,192,62625,1,0,0:0:0:0:
480,192,62947,1,0,0:0:0:0:
96,192,63161,1,0,0:0:0:0:
224,192,63482,1,0,0:0:0:0:
96,192,63804,1,0,0:0:0:0:
288,192,64018,1,0,0:0:0:0:
32,192,64018,1,0,0:0:0:0:
288,192,64340,1,0,0:0:0:0:
32,192,64340,1,0,0:0:0:0:
32,192,64661,1,0,0:0:0:0:
288,192,64661,1,0,0:0:0:0:
32,192,64875,1,0,0:0:0:0:
288,192,64875,1,0,0:0:0:0:
32,192,65304,1,0,0:0:0:0:
96,192,65732,1,0,0:0:0:0:
288,192,66054,1,0,0:0:0:0:
96,192,66375,1,0,0:0:0:0:
224,192,66590,1,0,0:0:0:0:
416,192,66911,1,0,0:0:0:0:
224,192,67232,1,0,0:0:0:0:
160,192,67447,1,0,0:0:0:0:
352,192,67768,1,0,0:0:0:0:
160,192,68090,1,0,0:0:0:0:
416,192,68304,1,0,0:0:0:0:
224,192,68625,1,0,0:0:0:0:
416,192,68947,1,0,0:0:0:0:
96,192,69161,1,0,0:0:0:0:
288,192,69482,1,0,0:0:0:0:
96,192,69804,1,0,0:0:0:0:
224,192,70018,1,0,0:0:0:0:
416,192,70340,1,0,0:0:0:0:
224,192,70661,1,0,0:0:0:0:
352,192,70875,1,0,0:0:0:0:
224,192,71197,1,0,0:0:0:0:
416,192,71518,1,0,0:0:0:0:
160,192,71732,1,0,0:0:0:0:
32,192,72161,1,0,0:0:0:0:
480,192,72590,1,0,0:0:0:0:
288,192,72911,1,0,0:0:0:0:
480,192,73232,1,0,0:0:0:0:
352,192,73447,1,0,0:0:0:0:
160,192,73768,1,0,0:0:0:0:
352,192,74090,1,0,0:0:0:0:
416,192,74304,1,0,0:0:0:0:
224,192,74625,1,0,0:0:0:0:
416,192,74947,1,0,0:0:0:0:
160,192,75161,1,0,0:0:0:0:
352,192,75482,1,0,0:0:0:0:
160,192,75804,1,0,0:0:0:0:
480,192,76018,1,0,0:0:0:0:
288,192,76340,1,0,0:0:0:0:
480,192,76661,1,0,0:0:0:0:
96,192,76875,1,0,0:0:0:0:
288,192,77197,1,0,0:0:0:0:
96,192,77518,1,0,0:0:0:0:
32,192,77732,1,0,0:0:0:0:
224,192,77732,1,0,0:0:0:0:
32,192,78054,1,0,0:0:0:0:
352,192,78054,1,0,0:0:0:0:
32,192,78375,1,0,0:0:0:0:
224,192,78375,1,0,0:0:0:0:
32,192,78590,1,0,0:0:0:0:
224,192,78590,1,0,0:0:0:0:
224,192,79447,1,0,0:0:0:0:
352,192,79875,1,0,0:0:0:0:
224,192,80090,1,0,0:0:0:0:
224,192,80304,1,0,0:0:0:0:
224,192,81161,1,0,0:0:0:0:
352,192,81590,1,0,0:0:0:0:
224,192,81804,1,0,0:0:0:0:
224,192,82018,1,0,0:0:0:0:
352,192,82447,1,0,0:0:0:0:
224,192,82661,1,0,0:0:0:0:
416,192,82875,1,0,0:0:0:0:
160,192,83304,1,0,0:0:0:0:
416,192,83518,1,0,0:0:0:0:
416,192,83732,1,0,0:0:0:0:
416,192,84590,1,0,0:0:0:0:
160,192,85018,1,0,0:0:0:0:
416,192,85232,1,0,0:0:0:0:
96,192,85447,1,0,0:0:0:0:
480,192,85661,1,0,0:0:0:0:
96,192,85875,1,0,0:0:0:0:
480,192,86090,1,0,0:0:0:0:
32,192,86304,1,0,0:0:0:0:
96,192,86304,1,0,0:0:0:0:
416,192,86518,1,0,0:0:0:0:
416,192,86840,1,0,0:0:0:0:
224,192,87161,1,0,0:0:0:0:
352,192,87482,1,0,0:0:0:0:
224,192,87804,1,0,0:0:0:0:
96,192,88018,1,0,0:0:0:0:
416,192,88232,1,0,0:0:0:0:
160,192,88661,1,0,0:0:0:0:
480,192,88875,1,0,0:0:0:0:
352,192,89197,1,0,0:0:0:0:
224,192,89518,1,0,0:0:0:0:
160,192,89732,1,0,0:0:0:0:
480,192,89947,1,0,0:0:0:0:
480,192,90268,1,0,0:0:0:0:
288,192,90590,1,0,0:0:0:0:
416,192,90911,1,0,0:0:0:0:
288,192,91232,1,0,0:0:0:0:
96,192,91447,1,0,0:0:0:0:
480,192,91661,1,0,0:0:0:0:
96,192,91875,1,0,0:0:0:0:
480,192,92090,1,0,0:0:0:0:
416,192,92304,1,0,0:0:0:0:
288,192,92518,1,0,0:0:0:0:
160,192,92732,1,0,0:0:0:0:
288,192,92947,1,0,0:0:0:0:
32,192,93161,1,0,0:0:0:0:
480,192,93161,1,0,0:0:0:0:
32,192,93482,1,0,0:0:0:0:
352,192,93482,1,0,0:0:0:0:
32,192,93804,1,0,0:0:0:0:
288,192,93804,1,0,0:0:0:0:
32,192,94125,1,0,0:0:0:0:
224,192,94125,1,0,0:0:0:0:
32,192,94447,1,0,0:0:0:0:
96,192,94447,1,0,0:0:0:0:
288,192,94875,1,0,0:0:0:0:
32,192,94875,1,0,0:0:0:0:
32,192,95732,1,0,0:0:0:0:
96,192,97447,1,0,0:0:0:0:
32,192,97447,1,0,0:0:0:0:
352,192,97768,1,0,0:0:0:0:
96,192,98089,1,0,0:0:0:0:
224,192,98304,1,0,0:0:0:0:
480,192,98625,1,0,0:0:0:0:
224,192,98947,1,0,0:0:0:0:
160,192,99161,1,0,0:0:0:0:
416,192,99482,1,0,0:0:0:0:
160,192,99804,1,0,0:0:0:0:
352,192,100018,1,0,0:0:0:0:
224,192,100339,1,0,0:0:0:0:
352,192,100661,1,0,0:0:0:0:
96,192,100875,1,0,0:0:0:0:
288,192,101197,1,0,0:0:0:0:
96,192,101518,1,0,0:0:0:0:
224,192,101732,1,0,0:0:0:0:
416,192,102054,1,0,0:0:0:0:
224,192,102375,1,0,0:0:0:0:
352,192,102589,1,0,0:0:0:0:
224,192,102911,1,0,0:0:0:0:
416,192,103232,1,0,0:0:0:0:
160,192,103447,1,0,0:0:0:0:
32,192,103875,1,0,0:0:0:0:
480,192,104304,1,0,0:0:0:0:
224,192,104625,1,0,0:0:0:0:
480,192,104947,1,0,0:0:0:0:
352,192,105161,1,0,0:0:0:0:
96,192,105482,1,0,0:0:0:0:
352,192,105804,1,0,0:0:0:0:
416,192,106018,1,0,0:0:0:0:
160,192,106339,1,0,0:0:0:0:
416,192,106661,1,0,0:0:0:0:
224,192,106875,1,0,0:0:0:0:
352,192,107197,1,0,0:0:0:0:
224,192,107518,1,0,0:0:0:0:
480,192,107732,1,0,0:0:0:0:
352,192,108054,1,0,0:0:0:0:
352,192,108375,1,0,0:0:0:0:
96,192,108589,1,0,0:0:0:0:
224,192,108911,1,0,0:0:0:0:
224,192,109232,1,0,0:0:0:0:
32,192,109447,1,0,0:0:0:0:
352,192,109447,1,0,0:0:0:0:
32,192,109768,1,0,0:0:0:0:
352,192,109768,1,0,0:0:0:0:
32,192,110089,1,0,0:0:0:0:
224,192,110089,1,0,0:0:0:0:
32,192,110304,1,0,0:0:0:0:
224,192,110304,1,0,0:0:0:0:
224,192,111161,5,0,0:0:0:0:
224,192,111482,1,0,0:0:0:0:
352,192,111804,1,0,0:0:0:0:
352,192,112018,1,0,0:0:0:0:
288,192,112875,1,0,0:0:0:0:
288,192,113197,1,0,0:0:0:0:
416,192,113518,1,0,0:0:0:0:
416,192,113732,1,0,0:0:0:0:
416,192,114054,1,0,0:0:0:0:
96,192,114375,1,0,0:0:0:0:
224,192,114589,1,0,0:0:0:0:
224,192,114911,1,0,0:0:0:0:
352,192,115232,1,0,0:0:0:0:
352,192,115447,1,0,0:0:0:0:
288,192,116304,1,0,0:0:0:0:
288,192,116625,1,0,0:0:0:0:
416,192,116947,1,0,0:0:0:0:
160,192,117161,1,0,0:0:0:0:
288,192,117482,1,0,0:0:0:0:
416,192,117804,1,0,0:0:0:0:
