osu file format v14

[General]
AudioFilename: audio.mp3
AudioLeadIn: 0
PreviewTime: 15983
Countdown: 0
SampleSet: Soft
StackLeniency: 0.7
Mode: 3
LetterboxInBreaks: 0
SpecialStyle: 0
WidescreenStoryboard: 0

[Editor]
DistanceSpacing: 1.2
BeatDivisor: 4
GridSize: 4
TimelineZoom: 1.8

[Metadata]
Title:Follow Tomorrow
TitleUnicode:Follow Tomorrow
Artist:HHHxMMxST
ArtistUnicode:HHH×MM×ST
Creator:YaHao
Version:Yeon's Normal
Source:beatmania IIDX 19 Lincle
Tags:DanceDanceRevolution DanceEvolution jubeat 森永真由美 Mayumi Morinaga Kuo Kyoka SoYeon Raymond
BeatmapID:1172719
BeatmapSetID:553860

[Difficulty]
HPDrainRate:7
CircleSize:4
OverallDifficulty:7
ApproachRate:5
SliderMultiplier:1.4
SliderTickRate:1

[Events]
//Background and Video events
0,0,"52200483.jpg",0,0
//Break Periods
//Storyboard Layer 0 (Background)
//Storyboard Layer 1 (Fail)
//Storyboard Layer 2 (Pass)
//Storyboard Layer 3 (Foreground)
//Storyboard Sound Samples

[TimingPoints]
555,428.571428571429,4,2,1,50,1,0
15983,-100,4,2,1,50,0,1
29697,-100,4,2,1,50,0,0
65697,-100,4,2,1,50,0,1
79412,-100,4,2,1,50,0,0
97412,428.571428571429,4,2,1,50,1,1
111126,-100,4,2,1,50,0,0

[HitObjects]
448,192,555,5,0,0:0:0:0:
448,192,876,1,0,0:0:0:0:
192,192,1197,1,0,0:0:0:0:
320,192,1412,1,0,0:0:0:0:
64,192,2269,1,0,0:0:0:0:
64,192,2590,1,0,0:0:0:0:
320,192,2912,1,0,0:0:0:0:
192,192,3126,1,0,0:0:0:0:
192,192,3447,1,0,0:0:0:0:
448,192,3769,1,0,0:0:0:0:
320,192,3983,1,0,0:0:0:0:
320,192,4305,1,0,0:0:0:0:
64,192,4626,1,0,0:0:0:0:
192,192,4840,1,0,0:0:0:0:
448,192,5697,1,0,0:0:0:0:
448,192,6019,1,0,0:0:0:0:
64,192,6340,1,0,0:0:0:0:
320,192,6555,1,0,0:0:0:0:
192,192,6876,1,0,0:0:0:0:
64,192,7197,1,0,0:0:0:0:
320,192,7412,1,2,0:0:0:0:
448,192,7412,1,4,0:0:0:0:
64,192,7840,1,8,0:0:0:0:
448,192,7840,1,0,0:0:0:0:
192,192,8055,1,2,0:0:0:0:
320,192,8269,1,2,0:0:0:0:
192,192,8697,1,8,0:0:0:0:
64,192,8697,1,0,0:0:0:0:
64,192,9126,1,2,0:0:0:0:
320,192,9555,1,8,0:0:0:0:
448,192,9555,1,0,0:0:0:0:
192,192,9769,1,2,0:0:0:0:
64,192,9983,1,2,0:0:0:0:
448,192,10412,1,8,0:0:0:0:
320,192,10412,1,0,0:0:0:0:
192,192,10626,1,2,0:0:0:0:
320,192,10840,1,6,0:0:0:0:
448,192,11269,1,8,0:0:0:0:
64,192,11269,1,0,0:0:0:0:
192,192,11483,1,2,0:0:0:0:
320,192,11697,1,2,0:0:0:0:
448,192,12126,1,8,0:0:0:0:
64,192,12126,1,0,0:0:0:0:
320,192,12555,1,2,0:0:0:0:
64,192,12983,1,8,0:0:0:0:
448,192,12983,1,0,0:0:0:0:
192,192,13197,1,2,0:0:0:0:
320,192,13412,1,2,0:0:0:0:
64,192,13626,1,2,0:0:0:0:
320,192,13840,1,8,0:0:0:0:
64,192,14055,1,8,0:0:0:0:
448,192,14269,1,4,0:0:0:0:
320,192,14269,1,2,0:0:0:0:
192,192,15126,1,8,0:0:0:0:
448,192,15340,1,0,0:0:0:0:
192,192,15555,1,0,0:0:0:0:
448,192,15769,1,0,0:0:0:0:
64,192,15983,1,2,0:0:0:0:
192,192,15983,1,4,0:0:0:0:
192,192,16412,1,8,0:0:0:0:
320,192,16412,1,0,0:0:0:0:
448,192,16840,1,2,0:0:0:0:
64,192,16840,1,0,0:0:0:0:
320,192,17269,1,8,0:0:0:0:
192,192,17269,1,0,0:0:0:0:
448,192,17697,1,2,0:0:0:0:
64,192,17697,1,0,0:0:0:0:
320,192,18126,1,8,0:0:0:0:
448,192,18126,1,0,0:0:0:0:
64,192,18555,1,2,0:0:0:0:
192,192,18555,1,0,0:0:0:0:
320,192,18983,1,8,0:0:0:0:
448,192,18983,1,0,0:0:0:0:
64,192,19412,1,2,0:0:0:0:
320,192,19412,1,0,0:0:0:0:
192,192,19840,1,8,0:0:0:0:
448,192,19840,1,0,0:0:0:0:
64,192,20269,1,2,0:0:0:0:
192,192,20269,1,0,0:0:0:0:
320,192,20697,1,8,0:0:0:0:
448,192,20697,1,0,0:0:0:0:
192,192,21126,128,2,21447:0:0:0:0:
64,192,21126,1,0,0:0:0:0:
320,192,21447,128,0,21769:0:0:0:0:
448,192,21769,1,0,0:0:0:0:
64,192,21983,1,2,0:0:0:0:
448,192,22197,1,2,0:0:0:0:
64,192,22412,1,8,0:0:0:0:
192,192,22412,1,2,0:0:0:0:
448,192,22626,1,2,0:0:0:0:
64,192,22840,1,2,0:0:0:0:
192,192,22840,1,4,0:0:0:0:
320,192,23269,1,8,0:0:0:0:
448,192,23269,1,0,0:0:0:0:
192,192,23697,1,2,0:0:0:0:
320,192,23697,1,0,0:0:0:0:
64,192,24126,1,8,0:0:0:0:
448,192,24126,1,0,0:0:0:0:
320,192,24555,1,2,0:0:0:0:
192,192,24555,1,0,0:0:0:0:
192,192,24983,1,8,0:0:0:0:
64,192,24983,1,0,0:0:0:0:
448,192,25412,1,2,0:0:0:0:
320,192,25412,1,0,0:0:0:0:
64,192,25840,1,8,0:0:0:0:
448,192,25840,1,0,0:0:0:0:
320,192,26269,1,2,0:0:0:0:
192,192,26269,1,0,0:0:0:0:
64,192,26697,1,8,0:0:0:0:
448,192,26697,1,0,0:0:0:0:
192,192,27126,1,2,0:0:0:0:
64,192,27126,1,0,0:0:0:0:
320,192,27555,1,8,0:0:0:0:
448,192,27555,1,0,0:0:0:0:
64,192,27983,1,2,0:0:0:0:
448,192,28305,1,2,0:0:0:0:
64,192,28626,1,2,0:0:0:0:
192,192,28840,1,2,0:0:0:0:
320,192,29055,1,2,0:0:0:0:
64,192,29269,1,2,0:0:0:0:
192,192,29483,1,2,0:0:0:0:
320,192,29697,1,4,0:0:0:0:
448,192,29697,1,2,0:0:0:0:
448,192,29912,1,0,0:0:0:0:
192,192,30126,1,8,0:0:0:0:
320,192,30340,1,0,0:0:0:0:
64,192,30555,1,2,0:0:0:0:
64,192,30769,1,0,0:0:0:0:
320,192,30983,1,8,0:0:0:0:
192,192,31197,1,0,0:0:0:0:
448,192,31412,1,2,0:0:0:0:
448,192,31626,1,0,0:0:0:0:
64,192,31840,1,8,0:0:0:0:
192,192,32055,1,0,0:0:0:0:
320,192,32269,1,2,0:0:0:0:
448,192,32483,1,0,0:0:0:0:
192,192,32697,1,8,0:0:0:0:
320,192,32912,1,0,0:0:0:0:
64,192,33126,1,2,0:0:0:0:
64,192,33340,1,0,0:0:0:0:
320,192,33555,1,8,0:0:0:0:
192,192,33769,1,0,0:0:0:0:
448,192,33983,1,2,0:0:0:0:
448,192,34197,1,0,0:0:0:0:
192,192,34412,1,8,0:0:0:0:
320,192,34626,1,0,0:0:0:0:
64,192,34840,1,2,0:0:0:0:
192,192,35055,1,0,0:0:0:0:
320,192,35269,1,8,0:0:0:0:
64,192,35697,1,2,0:0:0:0:
448,192,35912,1,2,0:0:0:0:
64,192,36126,1,8,0:0:0:0:
192,192,36126,1,2,0:0:0:0:
448,192,36340,1,2,0:0:0:0:
64,192,36555,1,4,0:0:0:0:
192,192,36555,1,2,0:0:0:0:
64,192,36769,1,0,0:0:0:0:
320,192,36983,1,8,0:0:0:0:
192,192,37197,1,0,0:0:0:0:
448,192,37412,1,2,0:0:0:0:
448,192,37626,1,0,0:0:0:0:
192,192,37840,1,8,0:0:0:0:
320,192,38055,1,0,0:0:0:0:
64,192,38269,1,2,0:0:0:0:
64,192,38483,1,0,0:0:0:0:
320,192,38697,1,8,0:0:0:0:
192,192,38912,1,0,0:0:0:0:
448,192,39126,1,2,0:0:0:0:
64,192,39126,1,0,0:0:0:0:
320,192,39555,1,8,0:0:0:0:
192,192,39769,1,0,0:0:0:0:
448,192,39983,1,2,0:0:0:0:
448,192,40197,1,0,0:0:0:0:
192,192,40412,1,8,0:0:0:0:
320,192,40626,1,0,0:0:0:0:
64,192,40840,1,2,0:0:0:0:
64,192,41055,1,0,0:0:0:0:
320,192,41269,1,8,0:0:0:0:
192,192,41483,1,0,0:0:0:0:
448,192,41697,1,4,0:0:0:0:
64,192,41697,1,2,0:0:0:0:
448,192,42019,1,2,0:0:0:0:
320,192,42019,1,4,0:0:0:0:
192,192,42340,1,4,0:0:0:0:
64,192,42340,1,2,0:0:0:0:
448,192,42555,1,2,0:0:0:0:
64,192,42769,1,2,0:0:0:0:
448,192,42983,1,2,0:0:0:0:
320,192,43197,1,2,0:0:0:0:
192,192,43412,1,4,0:0:0:0:
64,192,43412,1,2,0:0:0:0:
448,192,43840,1,8,0:0:0:0:
192,192,44269,1,2,0:0:0:0:
320,192,44697,1,8,0:0:0:0:
64,192,45126,128,2,45555:0:0:0:0:
448,192,45555,1,8,0:0:0:0:
320,192,45983,1,2,0:0:0:0:
64,192,46412,1,8,0:0:0:0:
320,192,46840,1,2,0:0:0:0:
192,192,47269,1,8,0:0:0:0:
448,192,47697,1,2,0:0:0:0:
320,192,48126,1,8,0:0:0:0:
192,192,48555,128,2,48983:0:0:0:0:
448,192,48983,1,8,0:0:0:0:
64,192,49412,1,2,0:0:0:0:
448,192,49840,1,8,0:0:0:0:
320,192,50055,1,2,0:0:0:0:
192,192,50269,1,2,0:0:0:0:
448,192,50697,1,8,0:0:0:0:
64,192,51126,1,2,0:0:0:0:
448,192,51555,1,8,0:0:0:0:
64,192,51983,128,2,52412:0:0:0:0:
320,192,52412,1,8,0:0:0:0:
192,192,52626,1,0,0:0:0:0:
448,192,52840,1,2,0:0:0:0:
64,192,53269,1,8,0:0:0:0:
320,192,53697,1,2,0:0:0:0:
64,192,54126,1,8,0:0:0:0:
192,192,54555,1,2,0:0:0:0:
320,192,54983,1,8,0:0:0:0:
448,192,55412,1,2,0:0:0:0:
448,192,55626,1,2,0:0:0:0:
192,192,55840,1,2,0:0:0:0:
192,192,56055,1,2,0:0:0:0:
320,192,56269,1,2,0:0:0:0:
320,192,56483,1,2,0:0:0:0:
64,192,56697,1,2,0:0:0:0:
192,192,56912,1,2,0:0:0:0:
320,192,57126,1,2,0:0:0:0:
448,192,57126,1,4,0:0:0:0:
64,192,57555,1,8,0:0:0:0:
192,192,57983,1,2,0:0:0:0:
448,192,58412,1,8,0:0:0:0:
320,192,58412,1,0,0:0:0:0:
192,192,58840,1,2,0:0:0:0:
64,192,58840,1,0,0:0:0:0:
448,192,59269,1,8,0:0:0:0:
64,192,59697,1,2,0:0:0:0:
192,192,59697,1,0,0:0:0:0:
448,192,60126,1,8,0:0:0:0:
320,192,60340,1,0,0:0:0:0:
64,192,60555,128,2,60983:0:0:0:0:
192,192,60555,1,4,0:0:0:0:
320,192,60983,128,4,61412:0:0:0:0:
448,192,60983,1,2,0:0:0:0:
192,192,61412,128,4,61840:0:0:0:0:
64,192,61412,1,2,0:0:0:0:
320,192,61840,1,4,0:0:0:0:
448,192,61840,128,2,62269:0:0:0:0:
64,192,62269,1,2,0:0:0:0:
192,192,62483,1,2,0:0:0:0:
320,192,62697,1,2,0:0:0:0:
64,192,62912,1,2,0:0:0:0:
448,192,63126,1,2,0:0:0:0:
192,192,63340,1,2,0:0:0:0:
320,192,63555,1,2,0:0:0:0:
64,192,63769,1,2,0:0:0:0:
448,192,63983,1,2,0:0:0:0:
320,192,63983,1,4,0:0:0:0:
192,192,64305,1,4,0:0:0:0:
64,192,64305,1,2,0:0:0:0:
320,192,64626,1,2,0:0:0:0:
448,192,64626,1,4,0:0:0:0:
448,192,64840,1,2,0:0:0:0:
64,192,64840,1,4,0:0:0:0:
320,192,65269,128,0,65697:0:0:0:0:
64,192,65697,1,4,0:0:0:0:
192,192,65697,1,2,0:0:0:0:
192,192,66126,1,8,0:0:0:0:
320,192,66126,1,0,0:0:0:0:
320,192,66555,1,2,0:0:0:0:
448,192,66555,1,0,0:0:0:0:
192,192,66983,1,8,0:0:0:0:
64,192,66983,1,0,0:0:0:0:
64,192,67412,1,2,0:0:0:0:
448,192,67412,1,0,0:0:0:0:
320,192,67840,1,8,0:0:0:0:
448,192,67840,1,0,0:0:0:0:
64,192,68269,1,2,0:0:0:0:
320,192,68269,1,0,0:0:0:0:
192,192,68697,1,8,0:0:0:0:
448,192,68697,1,0,0:0:0:0:
192,192,69126,1,2,0:0:0:0:
64,192,69126,1,0,0:0:0:0:
320,192,69555,1,8,0:0:0:0:
448,192,69555,1,0,0:0:0:0:
64,192,69983,1,2,0:0:0:0:
448,192,69983,1,0,0:0:0:0:
320,192,70412,1,8,0:0:0:0:
192,192,70412,1,0,0:0:0:0:
192,192,70840,128,2,71162:0:0:0:0:
64,192,70840,1,0,0:0:0:0:
320,192,71162,128,0,71483:0:0:0:0:
64,192,71483,1,0,0:0:0:0:
448,192,71697,1,2,0:0:0:0:
64,192,71912,1,2,0:0:0:0:
192,192,72126,1,8,0:0:0:0:
320,192,72126,1,2,0:0:0:0:
448,192,72340,1,2,0:0:0:0:
64,192,72555,1,2,0:0:0:0:
192,192,72555,1,4,0:0:0:0:
448,192,72983,1,8,0:0:0:0:
320,192,72983,1,0,0:0:0:0:
64,192,73412,1,2,0:0:0:0:
448,192,73412,1,0,0:0:0:0:
192,192,73840,1,8,0:0:0:0:
320,192,73840,1,0,0:0:0:0:
448,192,74269,1,2,0:0:0:0:
64,192,74269,1,0,0:0:0:0:
64,192,74697,1,8,0:0:0:0:
192,192,74697,1,0,0:0:0:0:
320,192,75126,1,2,0:0:0:0:
448,192,75126,1,0,0:0:0:0:
192,192,75555,1,8,0:0:0:0:
320,192,75555,1,0,0:0:0:0:
192,192,75983,1,2,0:0:0:0:
64,192,75983,1,0,0:0:0:0:
320,192,76412,1,8,0:0:0:0:
448,192,76412,1,0,0:0:0:0:
64,192,76840,1,2,0:0:0:0:
448,192,76840,1,0,0:0:0:0:
192,192,77269,1,8,0:0:0:0:
320,192,77269,1,0,0:0:0:0:
192,192,77697,128,2,78019:0:0:0:0:
64,192,77697,1,4,0:0:0:0:
320,192,78019,128,4,78340:0:0:0:0:
448,192,78019,1,8,0:0:0:0:
64,192,78340,1,12,0:0:0:0:
448,192,78555,1,2,0:0:0:0:
64,192,78769,1,2,0:0:0:0:
448,192,78983,1,2,0:0:0:0:
320,192,79197,1,2,0:0:0:0:
64,192,79412,1,2,0:0:0:0:
192,192,79412,1,4,0:0:0:0:
448,192,79840,1,8,0:0:0:0:
192,192,80055,1,8,0:0:0:0:
320,192,80269,1,2,0:0:0:0:
64,192,80697,1,8,0:0:0:0:
448,192,81126,1,2,0:0:0:0:
64,192,81555,1,8,0:0:0:0:
320,192,81769,1,8,0:0:0:0:
192,192,81983,1,2,0:0:0:0:
448,192,82412,1,8,0:0:0:0:
320,192,82626,1,8,0:0:0:0:
192,192,82840,1,4,0:0:0:0:
64,192,82840,1,2,0:0:0:0:
448,192,83269,1,8,0:0:0:0:
192,192,83483,1,8,0:0:0:0:
320,192,83697,1,2,0:0:0:0:
64,192,84126,1,8,0:0:0:0:
448,192,84555,1,2,0:0:0:0:
64,192,84983,1,8,0:0:0:0:
192,192,85197,1,8,0:0:0:0:
320,192,85412,1,2,0:0:0:0:
64,192,85626,1,2,0:0:0:0:
320,192,85840,1,8,0:0:0:0:
64,192,86055,1,8,0:0:0:0:
320,192,86269,1,2,0:0:0:0:
448,192,86269,1,4,0:0:0:0:
192,192,86697,1,8,0:0:0:0:
64,192,86697,1,0,0:0:0:0:
320,192,87126,1,2,0:0:0:0:
448,192,87555,1,8,0:0:0:0:
64,192,87555,1,0,0:0:0:0:
192,192,87983,1,2,0:0:0:0:
448,192,88412,1,8,0:0:0:0:
64,192,88412,1,0,0:0:0:0:
320,192,88626,1,0,0:0:0:0:
192,192,88840,1,2,0:0:0:0:
320,192,89269,1,8,0:0:0:0:
448,192,89269,1,0,0:0:0:0:
64,192,89697,1,2,0:0:0:0:
192,192,90126,1,8,0:0:0:0:
320,192,90126,1,0,0:0:0:0:
448,192,90555,1,2,0:0:0:0:
64,192,90983,1,8,0:0:0:0:
192,192,90983,1,0,0:0:0:0:
448,192,91412,1,2,0:0:0:0:
64,192,91626,1,2,0:0:0:0:
448,192,91840,1,2,0:0:0:0:
64,192,92055,1,2,0:0:0:0:
448,192,92269,1,2,0:0:0:0:
320,192,92483,1,2,0:0:0:0:
192,192,92697,1,2,0:0:0:0:
64,192,92912,1,2,0:0:0:0:
448,192,93126,1,4,0:0:0:0:
320,192,93126,1,2,0:0:0:0:
448,192,93447,1,2,0:0:0:0:
192,192,93769,1,2,0:0:0:0:
64,192,93769,1,4,0:0:0:0:
64,192,94090,1,2,0:0:0:0:
448,192,94412,1,4,0:0:0:0:
320,192,94626,1,2,0:0:0:0:
64,192,94840,128,2,95697:0:0:0:0:
192,192,94840,1,4,0:0:0:0:
320,192,95697,128,0,96555:0:0:0:0:
64,192,97412,1,2,0:0:0:0:
448,192,97412,1,4,0:0:0:0:
192,192,97840,1,8,0:0:0:0:
320,192,97840,1,0,0:0:0:0:
448,192,98269,1,2,0:0:0:0:
320,192,98269,1,0,0:0:0:0:
64,192,98697,1,8,0:0:0:0:
448,192,98697,1,0,0:0:0:0:
320,192,99126,1,2,0:0:0:0:
192,192,99126,1,0,0:0:0:0:
192,192,99554,1,8,0:0:0:0:
448,192,99554,1,0,0:0:0:0:
320,192,99983,1,2,0:0:0:0:
64,192,99983,1,0,0:0:0:0:
320,192,100412,1,8,0:0:0:0:
448,192,100412,1,0,0:0:0:0:
64,192,100840,1,2,0:0:0:0:
192,192,100840,1,0,0:0:0:0:
448,192,101269,1,8,0:0:0:0:
320,192,101269,1,0,0:0:0:0:
64,192,101697,1,2,0:0:0:0:
448,192,101697,1,0,0:0:0:0:
320,192,102126,1,8,0:0:0:0:
192,192,102126,1,0,0:0:0:0:
192,192,102554,128,2,102876:0:0:0:0:
64,192,102554,1,0,0:0:0:0:
320,192,102876,128,0,103197:0:0:0:0:
448,192,102876,1,0,0:0:0:0:
64,192,103197,1,0,0:0:0:0:
448,192,103412,1,2,0:0:0:0:
64,192,103626,1,2,0:0:0:0:
448,192,103840,1,2,0:0:0:0:
320,192,103840,1,8,0:0:0:0:
64,192,104054,1,2,0:0:0:0:
320,192,104269,1,4,0:0:0:0:
448,192,104269,1,2,0:0:0:0:
192,192,104697,1,8,0:0:0:0:
64,192,104697,1,0,0:0:0:0:
448,192,105126,1,2,0:0:0:0:
64,192,105126,1,0,0:0:0:0:
192,192,105554,1,8,0:0:0:0:
320,192,105554,1,0,0:0:0:0:
320,192,105983,1,2,0:0:0:0:
448,192,105983,1,0,0:0:0:0:
192,192,106412,1,8,0:0:0:0:
64,192,106412,1,0,0:0:0:0:
192,192,106840,1,2,0:0:0:0:
448,192,106840,1,0,0:0:0:0:
64,192,107269,1,8,0:0:0:0:
320,192,107269,1,0,0:0:0:0:
320,192,107697,1,2,0:0:0:0:
448,192,107697,1,0,0:0:0:0:
64,192,108126,1,8,0:0:0:0:
192,192,108126,1,0,0:0:0:0:
448,192,108554,1,2,0:0:0:0:
320,192,108554,1,0,0:0:0:0:
320,192,108983,1,8,0:0:0:0:
192,192,108983,1,0,0:0:0:0:
64,192,109412,1,4,0:0:0:0:
320,192,109412,128,2,109733:0:0:0:0:
192,192,109733,128,4,110054:0:0:0:0:
64,192,109733,1,2,0:0:0:0:
448,192,110054,1,4,0:0:0:0:
64,192,110269,1,4,0:0:0:0:
448,192,110483,1,2,0:0:0:0:
64,192,110697,1,2,0:0:0:0:
192,192,110912,1,2,0:0:0:0:
448,192,111126,1,4,0:0:0:0:
320,192,111126,1,2,0:0:0:0:
448,192,111447,1,0,0:0:0:0:
192,192,111769,1,0,0:0:0:0:
320,192,111983,1,0,0:0:0:0:
64,192,112840,1,0,0:0:0:0:
64,192,113162,1,0,0:0:0:0:
320,192,113483,1,0,0:0:0:0:
192,192,113697,1,0,0:0:0:0:
192,192,114019,1,0,0:0:0:0:
448,192,114340,1,0,0:0:0:0:
320,192,114554,1,0,0:0:0:0:
320,192,114876,1,0,0:0:0:0:
64,192,115197,1,0,0:0:0:0:
192,192,115412,1,0,0:0:0:0:
448,192,116269,1,0,0:0:0:0:
448,192,116590,1,0,0:0:0:0:
192,192,116912,1,0,0:0:0:0:
448,192,117126,1,0,0:0:0:0:
320,192,117447,1,0,0:0:0:0:
64,192,117769,1,0,0:0:0:0:
192,192,117769,1,0,0:0:0:0:
