osu file format v14

[General]
AudioFilename: audio.mp3
AudioLeadIn: 0
PreviewTime: 15983
Countdown: 0
SampleSet: Soft
StackLeniency: 0.7
Mode: 3
LetterboxInBreaks: 0
SpecialStyle: 0
WidescreenStoryboard: 0

[Editor]
Bookmarks: 15233,21876,45662,62483,65697
DistanceSpacing: 1.2
BeatDivisor: 4
GridSize: 4
TimelineZoom: 1.7

[Metadata]
Title:Follow Tomorrow
TitleUnicode:Follow Tomorrow
Artist:HHHxMMxST
ArtistUnicode:HHH×MM×ST
Creator:YaHao
Version:Another
Source:beatmania IIDX 19 Lincle
Tags:DanceDanceRevolution DanceEvolution jubeat 森永真由美 Mayumi Morinaga Kuo Kyoka SoYeon Raymond
BeatmapID:1172718
BeatmapSetID:553860

[Difficulty]
HPDrainRate:8.5
CircleSize:4
OverallDifficulty:8.5
ApproachRate:5
SliderMultiplier:1.4
SliderTickRate:1

[Events]
//Background and Video events
0,0,"52200483.jpg",0,0
//Break Periods
//Storyboard Layer 0 (Background)
//Storyboard Layer 1 (Fail)
//Storyboard Layer 2 (Pass)
//Storyboard Layer 3 (Foreground)
//Storyboard Sound Samples

[TimingPoints]
555,428.571428571429,4,2,1,50,1,0
15983,-100,4,2,1,50,0,1
27983,-66.6666666666667,4,2,1,50,0,1
28144,-200,4,2,1,50,0,1
28305,-66.6666666666667,4,2,1,50,0,1
28465,-200,4,2,1,50,0,1
28626,-100,4,2,1,50,0,1
29697,-100,4,2,1,50,0,0
63983,-66.6666666666667,4,2,1,50,0,0
64144,-200,4,2,1,50,0,0
64305,-66.6666666666667,4,2,1,50,0,0
64465,-200,4,2,1,50,0,0
64626,-100,4,2,1,50,0,0
64840,-66.6666666666667,4,2,1,50,0,0
65055,-200,4,2,1,50,0,0
65269,-100,4,2,1,50,0,0
65697,-100,4,2,1,50,0,1
77697,-66.6666666666667,4,2,1,50,0,1
77858,-200,4,2,1,50,0,1
78019,-66.6666666666667,4,2,1,50,0,1
78180,-200,4,2,1,50,0,1
78340,-100,4,2,1,50,0,1
79412,-100,4,2,1,50,0,0
93126,-66.6666666666667,4,2,1,50,0,0
93287,-200,4,2,1,50,0,0
93447,-66.6666666666667,4,2,1,50,0,0
93608,-200,4,2,1,50,0,0
93769,-66.6666666666667,4,2,1,50,0,0
93930,-200,4,2,1,50,0,0
94090,-66.6666666666667,4,2,1,50,0,0
94251,-200,4,2,1,50,0,0
94412,-66.6666666666667,4,2,1,50,0,0
94519,-200,4,2,1,50,0,0
94626,-66.6666666666667,4,2,1,50,0,0
94733,-200,4,2,1,50,0,0
94840,-100,4,2,1,50,0,0
97412,428.571428571429,4,2,1,50,1,1
111126,-100,4,2,1,50,0,0

[HitObjects]
448,192,555,5,0,0:0:0:0:
64,192,555,1,0,0:0:0:0:
320,192,876,1,0,0:0:0:0:
192,192,876,1,0,0:0:0:0:
192,192,1197,1,0,0:0:0:0:
64,192,1197,1,0,0:0:0:0:
320,192,1412,1,0,0:0:0:0:
448,192,1412,1,0,0:0:0:0:
64,192,2269,1,0,0:0:0:0:
448,192,2269,1,0,0:0:0:0:
320,192,2590,1,0,0:0:0:0:
192,192,2590,1,0,0:0:0:0:
320,192,2912,1,0,0:0:0:0:
448,192,2912,1,0,0:0:0:0:
192,192,3126,1,0,0:0:0:0:
64,192,3126,1,0,0:0:0:0:
192,192,3447,1,0,0:0:0:0:
320,192,3447,1,0,0:0:0:0:
320,192,3769,1,0,0:0:0:0:
448,192,3769,1,0,0:0:0:0:
192,192,3983,1,0,0:0:0:0:
64,192,3983,1,0,0:0:0:0:
448,192,4305,1,0,0:0:0:0:
320,192,4305,1,0,0:0:0:0:
64,192,4626,1,0,0:0:0:0:
192,192,4626,1,0,0:0:0:0:
64,192,4840,1,0,0:0:0:0:
448,192,4840,1,0,0:0:0:0:
192,192,5697,1,0,0:0:0:0:
448,192,5697,1,0,0:0:0:0:
192,192,6019,1,0,0:0:0:0:
448,192,6019,1,0,0:0:0:0:
192,192,6340,1,0,0:0:0:0:
64,192,6340,1,0,0:0:0:0:
320,192,6555,1,0,0:0:0:0:
448,192,6555,1,0,0:0:0:0:
192,192,6876,1,0,0:0:0:0:
320,192,6876,1,0,0:0:0:0:
192,192,7197,1,0,0:0:0:0:
64,192,7197,1,0,0:0:0:0:
64,192,7412,1,2,0:0:0:0:
320,192,7412,1,4,0:0:0:0:
448,192,7412,1,0,0:0:0:0:
192,192,7626,1,0,0:0:0:0:
320,192,7733,1,2,0:0:0:0:
448,192,7733,1,0,0:0:0:0:
192,192,7840,1,8,0:0:0:0:
64,192,7840,1,0,0:0:0:0:
64,192,8055,1,2,0:0:0:0:
320,192,8055,1,0,0:0:0:0:
448,192,8055,1,0,0:0:0:0:
192,192,8162,1,0,0:0:0:0:
320,192,8269,1,2,0:0:0:0:
448,192,8269,1,0,0:0:0:0:
64,192,8269,1,0,0:0:0:0:
192,192,8483,1,0,0:0:0:0:
448,192,8483,1,0,0:0:0:0:
320,192,8590,1,0,0:0:0:0:
64,192,8697,1,8,0:0:0:0:
448,192,8697,1,0,0:0:0:0:
192,192,8697,1,0,0:0:0:0:
64,192,8912,1,0,0:0:0:0:
192,192,9019,1,0,0:0:0:0:
64,192,9126,1,2,0:0:0:0:
320,192,9126,1,0,0:0:0:0:
448,192,9126,1,0,0:0:0:0:
320,192,9340,1,0,0:0:0:0:
192,192,9447,1,2,0:0:0:0:
64,192,9447,1,0,0:0:0:0:
320,192,9555,1,8,0:0:0:0:
448,192,9555,1,0,0:0:0:0:
192,192,9769,1,2,0:0:0:0:
64,192,9769,1,0,0:0:0:0:
448,192,9769,1,0,0:0:0:0:
320,192,9876,1,0,0:0:0:0:
192,192,9983,1,2,0:0:0:0:
64,192,9983,1,0,0:0:0:0:
448,192,9983,1,0,0:0:0:0:
320,192,10197,1,0,0:0:0:0:
192,192,10305,1,2,0:0:0:0:
64,192,10305,1,0,0:0:0:0:
320,192,10412,1,8,0:0:0:0:
448,192,10412,1,0,0:0:0:0:
64,192,10626,1,2,0:0:0:0:
192,192,10626,1,0,0:0:0:0:
448,192,10626,1,0,0:0:0:0:
320,192,10840,1,4,0:0:0:0:
448,192,10840,1,2,0:0:0:0:
64,192,10840,1,0,0:0:0:0:
192,192,11055,1,0,0:0:0:0:
320,192,11162,1,2,0:0:0:0:
448,192,11162,1,0,0:0:0:0:
192,192,11269,1,8,0:0:0:0:
64,192,11269,1,0,0:0:0:0:
64,192,11483,1,2,0:0:0:0:
320,192,11483,1,0,0:0:0:0:
448,192,11483,1,0,0:0:0:0:
192,192,11590,1,0,0:0:0:0:
64,192,11697,1,2,0:0:0:0:
320,192,11697,1,0,0:0:0:0:
448,192,11697,1,0,0:0:0:0:
192,192,11912,1,2,0:0:0:0:
448,192,11912,1,0,0:0:0:0:
320,192,12019,1,0,0:0:0:0:
192,192,12126,1,8,0:0:0:0:
64,192,12126,1,0,0:0:0:0:
448,192,12126,1,0,0:0:0:0:
64,192,12340,1,0,0:0:0:0:
192,192,12447,1,0,0:0:0:0:
64,192,12555,1,2,0:0:0:0:
448,192,12555,1,4,0:0:0:0:
320,192,12555,1,0,0:0:0:0:
320,192,12769,1,0,0:0:0:0:
192,192,12876,1,2,0:0:0:0:
64,192,12876,1,0,0:0:0:0:
320,192,12983,1,8,0:0:0:0:
448,192,12983,1,0,0:0:0:0:
448,192,13197,1,2,0:0:0:0:
64,192,13197,1,0,0:0:0:0:
192,192,13197,1,0,0:0:0:0:
320,192,13305,1,0,0:0:0:0:
448,192,13412,1,2,0:0:0:0:
64,192,13412,1,0,0:0:0:0:
192,192,13412,1,0,0:0:0:0:
64,192,13626,1,2,0:0:0:0:
448,192,13626,1,0,0:0:0:0:
320,192,13626,1,0,0:0:0:0:
192,192,13733,1,0,0:0:0:0:
448,192,13840,1,8,0:0:0:0:
64,192,13840,1,0,0:0:0:0:
320,192,13840,1,0,0:0:0:0:
448,192,14055,1,8,0:0:0:0:
64,192,14055,1,0,0:0:0:0:
192,192,14055,1,0,0:0:0:0:
64,192,14269,1,4,0:0:0:0:
320,192,14269,1,2,0:0:0:0:
448,192,14269,1,0,0:0:0:0:
192,192,14269,1,0,0:0:0:0:
448,192,15126,1,8,0:0:0:0:
64,192,15126,1,0,0:0:0:0:
192,192,15233,1,0,0:0:0:0:
320,192,15340,1,0,0:0:0:0:
64,192,15555,1,0,0:0:0:0:
320,192,15662,1,0,0:0:0:0:
192,192,15769,1,0,0:0:0:0:
320,192,15983,1,2,0:0:0:0:
448,192,15983,1,4,0:0:0:0:
64,192,15983,1,0,0:0:0:0:
192,192,15983,1,0,0:0:0:0:
448,192,16197,1,0,0:0:0:0:
320,192,16305,1,0,0:0:0:0:
192,192,16412,1,8,0:0:0:0:
64,192,16412,1,0,0:0:0:0:
448,192,16519,1,0,0:0:0:0:
64,192,16626,1,0,0:0:0:0:
320,192,16626,1,0,0:0:0:0:
192,192,16733,1,0,0:0:0:0:
64,192,16840,1,2,0:0:0:0:
320,192,16840,1,0,0:0:0:0:
448,192,16840,1,0,0:0:0:0:
192,192,17055,1,0,0:0:0:0:
320,192,17162,1,0,0:0:0:0:
64,192,17269,1,8,0:0:0:0:
448,192,17269,1,0,0:0:0:0:
192,192,17376,1,0,0:0:0:0:
64,192,17483,1,0,0:0:0:0:
320,192,17483,1,0,0:0:0:0:
448,192,17697,1,2,0:0:0:0:
64,192,17697,1,0,0:0:0:0:
192,192,17697,1,0,0:0:0:0:
320,192,17912,1,0,0:0:0:0:
192,192,18019,1,0,0:0:0:0:
448,192,18126,1,8,0:0:0:0:
64,192,18126,1,0,0:0:0:0:
320,192,18233,1,0,0:0:0:0:
192,192,18340,1,0,0:0:0:0:
448,192,18340,1,0,0:0:0:0:
448,192,18555,1,2,0:0:0:0:
64,192,18555,1,0,0:0:0:0:
320,192,18555,1,0,0:0:0:0:
448,192,18769,1,0,0:0:0:0:
192,192,18769,1,0,0:0:0:0:
320,192,18876,1,0,0:0:0:0:
64,192,18983,1,8,0:0:0:0:
192,192,18983,1,0,0:0:0:0:
448,192,18983,1,0,0:0:0:0:
320,192,19197,1,0,0:0:0:0:
64,192,19197,1,0,0:0:0:0:
192,192,19305,1,0,0:0:0:0:
448,192,19412,1,2,0:0:0:0:
64,192,19412,1,0,0:0:0:0:
320,192,19412,1,0,0:0:0:0:
192,192,19626,1,0,0:0:0:0:
320,192,19733,1,0,0:0:0:0:
192,192,19840,1,8,0:0:0:0:
64,192,19840,1,0,0:0:0:0:
448,192,19947,1,0,0:0:0:0:
320,192,20055,1,0,0:0:0:0:
64,192,20055,1,0,0:0:0:0:
192,192,20162,1,0,0:0:0:0:
448,192,20269,1,2,0:0:0:0:
64,192,20269,1,0,0:0:0:0:
320,192,20269,1,0,0:0:0:0:
192,192,20483,1,0,0:0:0:0:
320,192,20590,1,0,0:0:0:0:
64,192,20697,1,8,0:0:0:0:
448,192,20697,1,0,0:0:0:0:
192,192,20805,1,0,0:0:0:0:
320,192,20912,1,0,0:0:0:0:
64,192,20912,1,0,0:0:0:0:
448,192,21126,1,2,0:0:0:0:
64,192,21126,1,0,0:0:0:0:
320,192,21126,1,0,0:0:0:0:
192,192,21126,128,0,21447:0:0:0:0:
64,192,21447,1,0,0:0:0:0:
448,192,21447,1,0,0:0:0:0:
320,192,21447,128,0,21769:0:0:0:0:
64,192,21769,1,0,0:0:0:0:
448,192,21769,1,0,0:0:0:0:
192,192,21769,1,0,0:0:0:0:
448,192,21983,1,2,0:0:0:0:
64,192,21983,1,0,0:0:0:0:
320,192,21983,1,0,0:0:0:0:
448,192,22197,1,2,0:0:0:0:
64,192,22197,1,0,0:0:0:0:
320,192,22197,1,0,0:0:0:0:
192,192,22305,1,0,0:0:0:0:
64,192,22412,1,8,0:0:0:0:
320,192,22412,1,2,0:0:0:0:
448,192,22412,1,0,0:0:0:0:
448,192,22626,1,2,0:0:0:0:
64,192,22626,1,0,0:0:0:0:
320,192,22626,1,0,0:0:0:0:
64,192,22840,1,2,0:0:0:0:
320,192,22840,1,4,0:0:0:0:
448,192,22840,1,0,0:0:0:0:
192,192,22840,1,0,0:0:0:0:
192,192,23055,1,0,0:0:0:0:
320,192,23162,1,0,0:0:0:0:
192,192,23269,1,8,0:0:0:0:
64,192,23269,1,0,0:0:0:0:
448,192,23376,1,0,0:0:0:0:
320,192,23483,1,0,0:0:0:0:
64,192,23483,1,0,0:0:0:0:
192,192,23590,1,0,0:0:0:0:
64,192,23697,1,2,0:0:0:0:
448,192,23697,1,0,0:0:0:0:
320,192,23697,1,0,0:0:0:0:
192,192,23912,1,0,0:0:0:0:
320,192,24019,1,0,0:0:0:0:
64,192,24126,1,8,0:0:0:0:
448,192,24126,1,0,0:0:0:0:
192,192,24233,1,0,0:0:0:0:
320,192,24340,1,0,0:0:0:0:
64,192,24340,1,0,0:0:0:0:
448,192,24555,1,2,0:0:0:0:
64,192,24555,1,0,0:0:0:0:
192,192,24555,1,0,0:0:0:0:
320,192,24769,1,0,0:0:0:0:
192,192,24876,1,0,0:0:0:0:
448,192,24983,1,8,0:0:0:0:
64,192,24983,1,0,0:0:0:0:
320,192,25090,1,0,0:0:0:0:
192,192,25197,1,0,0:0:0:0:
448,192,25197,1,0,0:0:0:0:
64,192,25412,1,2,0:0:0:0:
448,192,25412,1,0,0:0:0:0:
320,192,25412,1,0,0:0:0:0:
448,192,25626,1,0,0:0:0:0:
192,192,25626,1,0,0:0:0:0:
320,192,25733,1,0,0:0:0:0:
448,192,25840,1,8,0:0:0:0:
64,192,25840,1,0,0:0:0:0:
192,192,25840,1,0,0:0:0:0:
64,192,26055,1,0,0:0:0:0:
320,192,26055,1,0,0:0:0:0:
192,192,26162,1,0,0:0:0:0:
64,192,26269,1,2,0:0:0:0:
320,192,26269,1,0,0:0:0:0:
448,192,26269,1,0,0:0:0:0:
192,192,26483,1,0,0:0:0:0:
320,192,26590,1,0,0:0:0:0:
64,192,26697,1,8,0:0:0:0:
192,192,26697,1,0,0:0:0:0:
448,192,26805,1,0,0:0:0:0:
64,192,26912,1,0,0:0:0:0:
320,192,26912,1,0,0:0:0:0:
192,192,27019,1,0,0:0:0:0:
64,192,27126,1,2,0:0:0:0:
448,192,27126,1,0,0:0:0:0:
320,192,27126,1,0,0:0:0:0:
192,192,27340,1,0,0:0:0:0:
320,192,27447,1,0,0:0:0:0:
64,192,27555,1,8,0:0:0:0:
448,192,27555,1,0,0:0:0:0:
192,192,27662,1,0,0:0:0:0:
320,192,27769,1,0,0:0:0:0:
64,192,27769,1,0,0:0:0:0:
64,192,27983,5,2,0:0:0:0:
448,192,27983,1,4,0:0:0:0:
192,192,27983,1,0,0:0:0:0:
64,192,28305,1,2,0:0:0:0:
192,192,28305,1,4,0:0:0:0:
448,192,28305,1,0,0:0:0:0:
64,192,28626,1,2,0:0:0:0:
320,192,28626,1,4,0:0:0:0:
448,192,28626,1,0,0:0:0:0:
320,192,28840,1,2,0:0:0:0:
448,192,28840,1,4,0:0:0:0:
64,192,28840,1,0,0:0:0:0:
192,192,28947,1,2,0:0:0:0:
64,192,29055,1,2,0:0:0:0:
448,192,29055,1,0,0:0:0:0:
320,192,29162,1,2,0:0:0:0:
192,192,29269,1,2,0:0:0:0:
64,192,29269,1,0,0:0:0:0:
448,192,29269,1,0,0:0:0:0:
320,192,29376,1,2,0:0:0:0:
448,192,29483,1,2,0:0:0:0:
64,192,29483,1,0,0:0:0:0:
192,192,29590,1,2,0:0:0:0:
320,192,29697,1,4,0:0:0:0:
448,192,29697,1,2,0:0:0:0:
64,192,29697,1,0,0:0:0:0:
448,192,29805,1,0,0:0:0:0:
64,192,29912,1,0,0:0:0:0:
192,192,30019,1,0,0:0:0:0:
448,192,30126,1,8,0:0:0:0:
320,192,30126,1,0,0:0:0:0:
64,192,30233,1,0,0:0:0:0:
448,192,30340,1,0,0:0:0:0:
192,192,30340,1,0,0:0:0:0:
320,192,30447,1,0,0:0:0:0:
448,192,30555,1,2,0:0:0:0:
64,192,30555,1,0,0:0:0:0:
192,192,30555,1,0,0:0:0:0:
64,192,30662,1,0,0:0:0:0:
448,192,30769,1,0,0:0:0:0:
320,192,30876,1,0,0:0:0:0:
64,192,30983,1,8,0:0:0:0:
192,192,30983,1,0,0:0:0:0:
448,192,31090,1,0,0:0:0:0:
64,192,31197,1,0,0:0:0:0:
320,192,31197,1,0,0:0:0:0:
192,192,31305,1,0,0:0:0:0:
64,192,31412,1,2,0:0:0:0:
448,192,31412,1,0,0:0:0:0:
320,192,31412,1,0,0:0:0:0:
448,192,31519,1,0,0:0:0:0:
192,192,31626,1,0,0:0:0:0:
320,192,31733,1,0,0:0:0:0:
448,192,31840,1,8,0:0:0:0:
64,192,31840,1,0,0:0:0:0:
192,192,31947,1,0,0:0:0:0:
448,192,32055,1,0,0:0:0:0:
320,192,32055,1,0,0:0:0:0:
192,192,32162,1,0,0:0:0:0:
64,192,32162,1,0,0:0:0:0:
448,192,32269,1,2,0:0:0:0:
64,192,32269,1,0,0:0:0:0:
320,192,32269,1,0,0:0:0:0:
192,192,32483,1,0,0:0:0:0:
448,192,32483,1,0,0:0:0:0:
320,192,32590,1,0,0:0:0:0:
448,192,32697,1,8,0:0:0:0:
64,192,32697,1,0,0:0:0:0:
192,192,32697,1,0,0:0:0:0:
320,192,32912,1,0,0:0:0:0:
64,192,32912,1,0,0:0:0:0:
192,192,33019,1,0,0:0:0:0:
448,192,33126,1,2,0:0:0:0:
64,192,33126,1,0,0:0:0:0:
320,192,33126,1,0,0:0:0:0:
448,192,33233,1,0,0:0:0:0:
192,192,33340,1,0,0:0:0:0:
320,192,33447,1,0,0:0:0:0:
192,192,33555,1,8,0:0:0:0:
64,192,33555,1,0,0:0:0:0:
448,192,33662,1,0,0:0:0:0:
320,192,33769,1,0,0:0:0:0:
64,192,33769,1,0,0:0:0:0:
192,192,33876,1,0,0:0:0:0:
320,192,33983,1,2,0:0:0:0:
448,192,33983,1,0,0:0:0:0:
64,192,33983,1,0,0:0:0:0:
448,192,34090,1,0,0:0:0:0:
192,192,34197,1,0,0:0:0:0:
320,192,34305,1,0,0:0:0:0:
64,192,34412,1,8,0:0:0:0:
192,192,34412,1,0,0:0:0:0:
448,192,34519,1,0,0:0:0:0:
320,192,34626,1,0,0:0:0:0:
64,192,34626,1,0,0:0:0:0:
192,192,34733,1,0,0:0:0:0:
448,192,34840,1,2,0:0:0:0:
320,192,34840,1,0,0:0:0:0:
64,192,34840,1,0,0:0:0:0:
320,192,35055,1,0,0:0:0:0:
192,192,35162,1,0,0:0:0:0:
320,192,35269,1,0,0:0:0:0:
448,192,35269,1,8,0:0:0:0:
64,192,35376,1,0,0:0:0:0:
192,192,35483,1,0,0:0:0:0:
448,192,35483,1,0,0:0:0:0:
320,192,35590,1,0,0:0:0:0:
64,192,35697,5,2,0:0:0:0:
448,192,35697,1,0,0:0:0:0:
192,192,35697,1,0,0:0:0:0:
320,192,35805,1,0,0:0:0:0:
64,192,35912,1,2,0:0:0:0:
448,192,35912,1,0,0:0:0:0:
192,192,36019,1,0,0:0:0:0:
64,192,36126,1,8,0:0:0:0:
448,192,36126,1,2,0:0:0:0:
320,192,36126,1,0,0:0:0:0:
192,192,36233,1,0,0:0:0:0:
448,192,36340,1,2,0:0:0:0:
64,192,36340,1,0,0:0:0:0:
320,192,36447,1,0,0:0:0:0:
64,192,36555,1,4,0:0:0:0:
448,192,36555,1,2,0:0:0:0:
192,192,36555,1,0,0:0:0:0:
64,192,36662,1,0,0:0:0:0:
448,192,36769,1,0,0:0:0:0:
320,192,36876,1,0,0:0:0:0:
64,192,36983,1,8,0:0:0:0:
192,192,36983,1,0,0:0:0:0:
448,192,37090,1,0,0:0:0:0:
64,192,37197,1,0,0:0:0:0:
320,192,37197,1,0,0:0:0:0:
192,192,37305,1,0,0:0:0:0:
64,192,37412,1,2,0:0:0:0:
448,192,37412,1,0,0:0:0:0:
320,192,37412,1,0,0:0:0:0:
448,192,37519,1,0,0:0:0:0:
64,192,37626,1,0,0:0:0:0:
192,192,37733,1,0,0:0:0:0:
320,192,37840,1,8,0:0:0:0:
448,192,37840,1,0,0:0:0:0:
64,192,37947,1,0,0:0:0:0:
192,192,38055,1,0,0:0:0:0:
448,192,38055,1,0,0:0:0:0:
320,192,38162,5,0,0:0:0:0:
192,192,38269,1,2,0:0:0:0:
64,192,38269,1,0,0:0:0:0:
448,192,38269,1,0,0:0:0:0:
64,192,38376,1,0,0:0:0:0:
320,192,38483,1,0,0:0:0:0:
192,192,38590,1,0,0:0:0:0:
320,192,38697,1,8,0:0:0:0:
448,192,38697,1,0,0:0:0:0:
64,192,38805,1,0,0:0:0:0:
192,192,38912,1,0,0:0:0:0:
448,192,38912,1,0,0:0:0:0:
320,192,39019,1,0,0:0:0:0:
192,192,39126,1,2,0:0:0:0:
64,192,39126,1,0,0:0:0:0:
448,192,39126,1,0,0:0:0:0:
320,192,39340,1,0,0:0:0:0:
64,192,39340,1,0,0:0:0:0:
192,192,39447,1,0,0:0:0:0:
64,192,39555,1,8,0:0:0:0:
320,192,39555,1,0,0:0:0:0:
448,192,39555,1,0,0:0:0:0:
192,192,39769,1,0,0:0:0:0:
448,192,39769,1,0,0:0:0:0:
320,192,39876,1,0,0:0:0:0:
64,192,39983,1,2,0:0:0:0:
192,192,39983,1,0,0:0:0:0:
448,192,39983,1,0,0:0:0:0:
64,192,40090,1,0,0:0:0:0:
320,192,40197,1,0,0:0:0:0:
192,192,40305,1,0,0:0:0:0:
448,192,40412,1,8,0:0:0:0:
320,192,40412,1,0,0:0:0:0:
64,192,40519,1,0,0:0:0:0:
448,192,40626,1,0,0:0:0:0:
192,192,40626,1,0,0:0:0:0:
320,192,40733,1,0,0:0:0:0:
64,192,40840,1,2,0:0:0:0:
448,192,40840,1,0,0:0:0:0:
192,192,40840,1,0,0:0:0:0:
64,192,40947,1,0,0:0:0:0:
320,192,41055,1,0,0:0:0:0:
192,192,41162,1,0,0:0:0:0:
320,192,41269,1,8,0:0:0:0:
448,192,41269,1,0,0:0:0:0:
64,192,41376,1,0,0:0:0:0:
192,192,41483,1,0,0:0:0:0:
448,192,41483,1,0,0:0:0:0:
320,192,41590,1,0,0:0:0:0:
448,192,41697,5,4,0:0:0:0:
192,192,41697,1,2,0:0:0:0:
64,192,41697,1,0,0:0:0:0:
320,192,41912,1,0,0:0:0:0:
64,192,42019,1,2,0:0:0:0:
448,192,42019,1,4,0:0:0:0:
320,192,42019,1,0,0:0:0:0:
192,192,42126,1,0,0:0:0:0:
320,192,42233,1,0,0:0:0:0:
64,192,42340,1,4,0:0:0:0:
192,192,42340,1,2,0:0:0:0:
448,192,42340,1,0,0:0:0:0:
320,192,42447,1,0,0:0:0:0:
192,192,42555,1,0,0:0:0:0:
64,192,42555,1,2,0:0:0:0:
448,192,42555,1,0,0:0:0:0:
320,192,42662,1,2,0:0:0:0:
448,192,42769,1,2,0:0:0:0:
64,192,42769,1,0,0:0:0:0:
192,192,42876,1,2,0:0:0:0:
64,192,42983,1,2,0:0:0:0:
448,192,42983,1,0,0:0:0:0:
320,192,42983,1,0,0:0:0:0:
192,192,43090,1,2,0:0:0:0:
64,192,43197,1,2,0:0:0:0:
448,192,43197,1,0,0:0:0:0:
320,192,43197,1,0,0:0:0:0:
192,192,43305,1,2,0:0:0:0:
64,192,43412,1,4,0:0:0:0:
448,192,43412,1,2,0:0:0:0:
320,192,43412,1,0,0:0:0:0:
320,192,43626,1,0,0:0:0:0:
64,192,43840,1,8,0:0:0:0:
448,192,43840,1,0,0:0:0:0:
192,192,44055,1,0,0:0:0:0:
64,192,44269,1,2,0:0:0:0:
320,192,44269,1,0,0:0:0:0:
192,192,44483,1,0,0:0:0:0:
448,192,44697,1,8,0:0:0:0:
320,192,44697,1,0,0:0:0:0:
64,192,44912,1,0,0:0:0:0:
192,192,44912,1,0,0:0:0:0:
64,192,45126,1,2,0:0:0:0:
448,192,45126,1,0,0:0:0:0:
320,192,45340,1,0,0:0:0:0:
192,192,45555,1,8,0:0:0:0:
64,192,45555,1,0,0:0:0:0:
448,192,45769,1,0,0:0:0:0:
320,192,45983,1,2,0:0:0:0:
64,192,45983,1,0,0:0:0:0:
192,192,46197,1,0,0:0:0:0:
64,192,46412,1,8,0:0:0:0:
320,192,46412,1,0,0:0:0:0:
448,192,46626,1,0,0:0:0:0:
192,192,46840,1,2,0:0:0:0:
64,192,46840,1,0,0:0:0:0:
448,192,47055,1,0,0:0:0:0:
320,192,47269,1,8,0:0:0:0:
192,192,47269,1,0,0:0:0:0:
64,192,47483,1,0,0:0:0:0:
320,192,47697,1,2,0:0:0:0:
448,192,47697,1,0,0:0:0:0:
64,192,47912,1,0,0:0:0:0:
320,192,48126,1,8,0:0:0:0:
448,192,48126,1,0,0:0:0:0:
192,192,48340,1,0,0:0:0:0:
64,192,48340,1,0,0:0:0:0:
64,192,48555,1,2,0:0:0:0:
448,192,48555,1,0,0:0:0:0:
320,192,48769,1,0,0:0:0:0:
64,192,48983,1,8,0:0:0:0:
448,192,48983,1,0,0:0:0:0:
192,192,49197,1,0,0:0:0:0:
320,192,49412,1,2,0:0:0:0:
448,192,49412,1,0,0:0:0:0:
192,192,49519,1,0,0:0:0:0:
64,192,49519,1,0,0:0:0:0:
448,192,49626,1,0,0:0:0:0:
192,192,49733,1,0,0:0:0:0:
64,192,49733,1,0,0:0:0:0:
320,192,49840,1,8,0:0:0:0:
448,192,49840,1,0,0:0:0:0:
320,192,50055,1,2,0:0:0:0:
192,192,50055,1,0,0:0:0:0:
192,192,50269,1,2,0:0:0:0:
64,192,50269,1,4,0:0:0:0:
448,192,50269,1,0,0:0:0:0:
320,192,50483,1,0,0:0:0:0:
64,192,50697,1,8,0:0:0:0:
448,192,50697,1,0,0:0:0:0:
192,192,50805,1,0,0:0:0:0:
320,192,50912,1,0,0:0:0:0:
192,192,51019,1,0,0:0:0:0:
64,192,51126,1,2,0:0:0:0:
448,192,51126,1,0,0:0:0:0:
320,192,51340,1,0,0:0:0:0:
192,192,51447,1,0,0:0:0:0:
320,192,51555,1,8,0:0:0:0:
448,192,51555,1,0,0:0:0:0:
64,192,51769,1,0,0:0:0:0:
64,192,51983,1,2,0:0:0:0:
448,192,51983,1,0,0:0:0:0:
320,192,52090,1,0,0:0:0:0:
192,192,52197,1,0,0:0:0:0:
64,192,52412,1,8,0:0:0:0:
448,192,52412,1,0,0:0:0:0:
192,192,52519,1,0,0:0:0:0:
320,192,52626,1,0,0:0:0:0:
448,192,52626,1,0,0:0:0:0:
192,192,52733,1,0,0:0:0:0:
64,192,52733,1,0,0:0:0:0:
320,192,52840,1,2,0:0:0:0:
448,192,52840,1,0,0:0:0:0:
64,192,52840,1,0,0:0:0:0:
192,192,53055,1,0,0:0:0:0:
320,192,53162,1,0,0:0:0:0:
448,192,53162,1,0,0:0:0:0:
192,192,53269,1,8,0:0:0:0:
64,192,53269,1,0,0:0:0:0:
320,192,53483,1,0,0:0:0:0:
192,192,53483,1,0,0:0:0:0:
320,192,53697,1,2,0:0:0:0:
64,192,53697,1,0,0:0:0:0:
448,192,53697,1,0,0:0:0:0:
192,192,53912,1,0,0:0:0:0:
320,192,54019,1,0,0:0:0:0:
448,192,54126,1,8,0:0:0:0:
192,192,54126,1,0,0:0:0:0:
64,192,54126,1,0,0:0:0:0:
320,192,54340,1,0,0:0:0:0:
192,192,54447,1,0,0:0:0:0:
448,192,54555,1,2,0:0:0:0:
320,192,54555,1,0,0:0:0:0:
64,192,54662,1,0,0:0:0:0:
192,192,54769,1,0,0:0:0:0:
448,192,54769,1,0,0:0:0:0:
320,192,54876,1,0,0:0:0:0:
448,192,54983,1,8,0:0:0:0:
192,192,54983,1,0,0:0:0:0:
64,192,54983,1,0,0:0:0:0:
320,192,55090,1,0,0:0:0:0:
64,192,55197,1,0,0:0:0:0:
448,192,55197,1,0,0:0:0:0:
192,192,55305,1,0,0:0:0:0:
448,192,55412,5,2,0:0:0:0:
64,192,55412,1,0,0:0:0:0:
320,192,55412,1,0,0:0:0:0:
64,192,55626,1,2,0:0:0:0:
320,192,55626,1,0,0:0:0:0:
448,192,55626,1,0,0:0:0:0:
192,192,55733,1,0,0:0:0:0:
448,192,55840,1,2,0:0:0:0:
64,192,55840,1,0,0:0:0:0:
320,192,55840,1,0,0:0:0:0:
448,192,56055,1,2,0:0:0:0:
192,192,56055,1,0,0:0:0:0:
64,192,56055,1,0,0:0:0:0:
192,192,56269,1,2,0:0:0:0:
64,192,56269,1,0,0:0:0:0:
448,192,56269,1,0,0:0:0:0:
320,192,56376,1,2,0:0:0:0:
448,192,56483,1,2,0:0:0:0:
64,192,56483,1,0,0:0:0:0:
192,192,56483,1,0,0:0:0:0:
320,192,56590,1,2,0:0:0:0:
448,192,56697,1,2,0:0:0:0:
64,192,56697,1,0,0:0:0:0:
192,192,56697,1,0,0:0:0:0:
320,192,56805,1,2,0:0:0:0:
64,192,56912,1,2,0:0:0:0:
192,192,56912,1,0,0:0:0:0:
448,192,56912,1,0,0:0:0:0:
192,192,57019,1,2,0:0:0:0:
64,192,57019,1,0,0:0:0:0:
64,192,57126,1,2,0:0:0:0:
448,192,57126,1,4,0:0:0:0:
320,192,57126,1,0,0:0:0:0:
192,192,57340,1,0,0:0:0:0:
64,192,57555,1,8,0:0:0:0:
320,192,57555,1,0,0:0:0:0:
448,192,57769,1,0,0:0:0:0:
192,192,57983,1,2,0:0:0:0:
64,192,57983,1,0,0:0:0:0:
448,192,58090,1,0,0:0:0:0:
320,192,58090,1,0,0:0:0:0:
64,192,58197,1,0,0:0:0:0:
192,192,58305,1,0,0:0:0:0:
320,192,58412,1,8,0:0:0:0:
64,192,58412,1,0,0:0:0:0:
448,192,58412,1,0,0:0:0:0:
448,192,58626,1,0,0:0:0:0:
192,192,58840,1,2,0:0:0:0:
320,192,58840,1,0,0:0:0:0:
64,192,59055,1,0,0:0:0:0:
192,192,59162,1,0,0:0:0:0:
320,192,59269,1,8,0:0:0:0:
448,192,59269,1,0,0:0:0:0:
448,192,59483,1,0,0:0:0:0:
64,192,59697,1,2,0:0:0:0:
320,192,59697,1,0,0:0:0:0:
192,192,59912,1,0,0:0:0:0:
448,192,60019,1,0,0:0:0:0:
320,192,60019,1,0,0:0:0:0:
192,192,60126,1,8,0:0:0:0:
64,192,60126,1,0,0:0:0:0:
64,192,60340,1,0,0:0:0:0:
320,192,60340,1,0,0:0:0:0:
192,192,60447,1,0,0:0:0:0:
64,192,60555,1,2,0:0:0:0:
320,192,60555,1,4,0:0:0:0:
448,192,60555,1,0,0:0:0:0:
192,192,60769,1,0,0:0:0:0:
320,192,60876,1,0,0:0:0:0:
64,192,60983,1,4,0:0:0:0:
192,192,60983,1,2,0:0:0:0:
448,192,60983,1,0,0:0:0:0:
320,192,61197,5,0,0:0:0:0:
192,192,61305,1,0,0:0:0:0:
320,192,61412,1,4,0:0:0:0:
448,192,61412,1,2,0:0:0:0:
64,192,61412,1,0,0:0:0:0:
192,192,61626,1,0,0:0:0:0:
320,192,61733,1,0,0:0:0:0:
192,192,61840,1,4,0:0:0:0:
64,192,61840,1,2,0:0:0:0:
448,192,61840,1,0,0:0:0:0:
320,192,62055,1,0,0:0:0:0:
192,192,62162,1,0,0:0:0:0:
320,192,62269,5,2,0:0:0:0:
448,192,62269,1,0,0:0:0:0:
64,192,62269,1,0,0:0:0:0:
192,192,62483,1,2,0:0:0:0:
448,192,62483,1,8,0:0:0:0:
320,192,62590,1,0,0:0:0:0:
64,192,62697,1,2,0:0:0:0:
448,192,62697,1,0,0:0:0:0:
192,192,62697,1,0,0:0:0:0:
448,192,62912,1,2,0:0:0:0:
320,192,62912,1,8,0:0:0:0:
192,192,63019,1,2,0:0:0:0:
64,192,63019,1,8,0:0:0:0:
448,192,63126,1,2,0:0:0:0:
64,192,63126,1,0,0:0:0:0:
320,192,63126,1,0,0:0:0:0:
192,192,63340,1,2,0:0:0:0:
448,192,63340,1,8,0:0:0:0:
320,192,63447,1,8,0:0:0:0:
448,192,63555,1,2,0:0:0:0:
64,192,63555,1,8,0:0:0:0:
192,192,63555,1,0,0:0:0:0:
64,192,63769,1,2,0:0:0:0:
320,192,63769,1,8,0:0:0:0:
448,192,63769,1,0,0:0:0:0:
192,192,63876,1,10,0:0:0:0:
64,192,63983,1,2,0:0:0:0:
448,192,63983,1,4,0:0:0:0:
320,192,63983,1,0,0:0:0:0:
64,192,64305,1,4,0:0:0:0:
448,192,64305,1,2,0:0:0:0:
320,192,64305,1,0,0:0:0:0:
64,192,64626,1,2,0:0:0:0:
448,192,64626,1,4,0:0:0:0:
320,192,64626,1,0,0:0:0:0:
192,192,64840,1,2,0:0:0:0:
64,192,64840,1,4,0:0:0:0:
448,192,64840,1,0,0:0:0:0:
64,192,65269,128,0,65590:0:0:0:0:
192,192,65269,128,0,65590:0:0:0:0:
64,192,65697,1,4,0:0:0:0:
448,192,65697,1,2,0:0:0:0:
320,192,65697,1,0,0:0:0:0:
192,192,65697,1,0,0:0:0:0:
64,192,65912,1,0,0:0:0:0:
192,192,66019,1,0,0:0:0:0:
320,192,66126,1,8,0:0:0:0:
448,192,66126,1,0,0:0:0:0:
64,192,66233,1,0,0:0:0:0:
448,192,66340,1,0,0:0:0:0:
192,192,66340,1,0,0:0:0:0:
320,192,66447,1,0,0:0:0:0:
448,192,66555,1,2,0:0:0:0:
192,192,66555,1,0,0:0:0:0:
64,192,66555,1,0,0:0:0:0:
320,192,66769,1,0,0:0:0:0:
192,192,66876,1,0,0:0:0:0:
448,192,66983,1,8,0:0:0:0:
64,192,66983,1,0,0:0:0:0:
320,192,67090,1,0,0:0:0:0:
192,192,67197,1,0,0:0:0:0:
448,192,67197,1,0,0:0:0:0:
64,192,67412,1,2,0:0:0:0:
320,192,67412,1,0,0:0:0:0:
448,192,67412,1,0,0:0:0:0:
192,192,67626,1,0,0:0:0:0:
320,192,67733,1,0,0:0:0:0:
448,192,67840,1,8,0:0:0:0:
64,192,67840,1,0,0:0:0:0:
192,192,67947,1,0,0:0:0:0:
320,192,68055,1,0,0:0:0:0:
64,192,68055,1,0,0:0:0:0:
64,192,68269,1,2,0:0:0:0:
448,192,68269,1,0,0:0:0:0:
320,192,68269,1,0,0:0:0:0:
448,192,68483,1,0,0:0:0:0:
192,192,68483,1,0,0:0:0:0:
320,192,68590,1,0,0:0:0:0:
192,192,68697,1,8,0:0:0:0:
448,192,68697,1,0,0:0:0:0:
64,192,68697,1,0,0:0:0:0:
64,192,68912,1,0,0:0:0:0:
320,192,68912,1,0,0:0:0:0:
192,192,69019,1,0,0:0:0:0:
448,192,69126,1,2,0:0:0:0:
64,192,69126,1,0,0:0:0:0:
320,192,69126,1,0,0:0:0:0:
192,192,69340,1,0,0:0:0:0:
320,192,69447,1,0,0:0:0:0:
192,192,69555,1,8,0:0:0:0:
64,192,69555,1,0,0:0:0:0:
448,192,69662,1,0,0:0:0:0:
320,192,69769,1,0,0:0:0:0:
64,192,69769,1,0,0:0:0:0:
192,192,69876,1,0,0:0:0:0:
448,192,69983,1,2,0:0:0:0:
64,192,69983,1,0,0:0:0:0:
320,192,69983,1,0,0:0:0:0:
192,192,70197,1,0,0:0:0:0:
320,192,70305,1,0,0:0:0:0:
448,192,70412,1,8,0:0:0:0:
64,192,70412,1,0,0:0:0:0:
192,192,70519,1,0,0:0:0:0:
64,192,70626,1,0,0:0:0:0:
320,192,70626,1,0,0:0:0:0:
64,192,70840,1,2,0:0:0:0:
448,192,70840,1,0,0:0:0:0:
192,192,70840,1,0,0:0:0:0:
320,192,70840,128,0,71162:0:0:0:0:
448,192,71162,1,0,0:0:0:0:
64,192,71162,1,0,0:0:0:0:
192,192,71162,128,0,71483:0:0:0:0:
448,192,71483,1,0,0:0:0:0:
64,192,71483,1,0,0:0:0:0:
320,192,71483,1,0,0:0:0:0:
64,192,71697,1,2,0:0:0:0:
448,192,71697,1,0,0:0:0:0:
192,192,71697,1,0,0:0:0:0:
64,192,71912,1,2,0:0:0:0:
448,192,71912,1,0,0:0:0:0:
192,192,71912,1,0,0:0:0:0:
320,192,72019,1,0,0:0:0:0:
448,192,72126,1,8,0:0:0:0:
192,192,72126,1,2,0:0:0:0:
64,192,72126,1,0,0:0:0:0:
64,192,72340,1,2,0:0:0:0:
448,192,72340,1,0,0:0:0:0:
192,192,72340,1,0,0:0:0:0:
64,192,72555,1,2,0:0:0:0:
320,192,72555,1,4,0:0:0:0:
448,192,72555,1,0,0:0:0:0:
192,192,72555,1,0,0:0:0:0:
320,192,72769,1,0,0:0:0:0:
192,192,72876,1,0,0:0:0:0:
320,192,72983,1,8,0:0:0:0:
448,192,72983,1,0,0:0:0:0:
64,192,73090,1,0,0:0:0:0:
192,192,73197,1,0,0:0:0:0:
448,192,73197,1,0,0:0:0:0:
320,192,73305,1,0,0:0:0:0:
448,192,73412,1,2,0:0:0:0:
64,192,73412,1,0,0:0:0:0:
192,192,73412,1,0,0:0:0:0:
320,192,73626,1,0,0:0:0:0:
192,192,73733,1,0,0:0:0:0:
64,192,73840,1,8,0:0:0:0:
448,192,73840,1,0,0:0:0:0:
320,192,73947,1,0,0:0:0:0:
192,192,74055,1,0,0:0:0:0:
448,192,74055,1,0,0:0:0:0:
448,192,74269,1,2,0:0:0:0:
64,192,74269,1,0,0:0:0:0:
320,192,74269,1,0,0:0:0:0:
192,192,74483,1,0,0:0:0:0:
320,192,74590,1,0,0:0:0:0:
64,192,74697,1,8,0:0:0:0:
448,192,74697,1,0,0:0:0:0:
192,192,74805,1,0,0:0:0:0:
320,192,74912,1,0,0:0:0:0:
64,192,74912,1,0,0:0:0:0:
64,192,75126,1,2,0:0:0:0:
448,192,75126,1,0,0:0:0:0:
320,192,75126,1,0,0:0:0:0:
448,192,75340,1,0,0:0:0:0:
192,192,75340,1,0,0:0:0:0:
320,192,75447,1,0,0:0:0:0:
64,192,75555,1,8,0:0:0:0:
448,192,75555,1,0,0:0:0:0:
192,192,75555,1,0,0:0:0:0:
320,192,75769,1,0,0:0:0:0:
64,192,75769,1,0,0:0:0:0:
192,192,75876,1,0,0:0:0:0:
448,192,75983,1,2,0:0:0:0:
320,192,75983,1,0,0:0:0:0:
64,192,75983,1,0,0:0:0:0:
192,192,76197,1,0,0:0:0:0:
320,192,76305,1,0,0:0:0:0:
64,192,76412,1,8,0:0:0:0:
192,192,76412,1,0,0:0:0:0:
448,192,76519,1,0,0:0:0:0:
64,192,76626,1,0,0:0:0:0:
320,192,76626,1,0,0:0:0:0:
192,192,76733,1,0,0:0:0:0:
64,192,76840,1,2,0:0:0:0:
448,192,76840,1,0,0:0:0:0:
320,192,76840,1,0,0:0:0:0:
192,192,77055,1,0,0:0:0:0:
320,192,77162,1,0,0:0:0:0:
64,192,77269,1,8,0:0:0:0:
448,192,77269,1,0,0:0:0:0:
192,192,77376,1,0,0:0:0:0:
320,192,77483,1,0,0:0:0:0:
64,192,77483,1,0,0:0:0:0:
64,192,77697,5,2,0:0:0:0:
448,192,77697,1,4,0:0:0:0:
192,192,77697,1,0,0:0:0:0:
64,192,78019,1,4,0:0:0:0:
192,192,78019,1,8,0:0:0:0:
448,192,78019,1,0,0:0:0:0:
64,192,78340,1,4,0:0:0:0:
320,192,78340,1,8,0:0:0:0:
448,192,78340,1,0,0:0:0:0:
320,192,78555,1,2,0:0:0:0:
448,192,78555,1,4,0:0:0:0:
64,192,78555,1,0,0:0:0:0:
192,192,78662,1,2,0:0:0:0:
320,192,78769,1,2,0:0:0:0:
448,192,78769,1,0,0:0:0:0:
64,192,78876,1,2,0:0:0:0:
320,192,78983,1,2,0:0:0:0:
192,192,78983,1,0,0:0:0:0:
448,192,79090,1,2,0:0:0:0:
192,192,79197,1,2,0:0:0:0:
64,192,79197,1,0,0:0:0:0:
320,192,79305,1,0,0:0:0:0:
192,192,79412,1,2,0:0:0:0:
448,192,79412,1,4,0:0:0:0:
64,192,79412,1,0,0:0:0:0:
192,192,79626,1,0,0:0:0:0:
320,192,79733,1,2,0:0:0:0:
448,192,79733,1,0,0:0:0:0:
192,192,79840,1,8,0:0:0:0:
64,192,79840,1,0,0:0:0:0:
64,192,80055,1,8,0:0:0:0:
448,192,80055,1,0,0:0:0:0:
192,192,80162,1,0,0:0:0:0:
320,192,80269,1,2,0:0:0:0:
448,192,80269,1,0,0:0:0:0:
64,192,80483,1,2,0:0:0:0:
192,192,80483,1,0,0:0:0:0:
64,192,80697,1,8,0:0:0:0:
448,192,80697,1,0,0:0:0:0:
320,192,80912,1,0,0:0:0:0:
192,192,81019,1,0,0:0:0:0:
64,192,81126,1,2,0:0:0:0:
448,192,81126,1,0,0:0:0:0:
320,192,81340,1,0,0:0:0:0:
64,192,81447,1,2,0:0:0:0:
192,192,81447,1,0,0:0:0:0:
320,192,81555,1,8,0:0:0:0:
448,192,81555,1,0,0:0:0:0:
64,192,81769,1,8,0:0:0:0:
448,192,81769,1,0,0:0:0:0:
320,192,81876,1,0,0:0:0:0:
192,192,81983,1,2,0:0:0:0:
64,192,81983,1,0,0:0:0:0:
320,192,82197,1,0,0:0:0:0:
192,192,82305,1,2,0:0:0:0:
64,192,82305,1,0,0:0:0:0:
320,192,82412,1,8,0:0:0:0:
448,192,82412,1,0,0:0:0:0:
448,192,82626,1,8,0:0:0:0:
64,192,82626,1,0,0:0:0:0:
192,192,82626,1,0,0:0:0:0:
64,192,82840,1,4,0:0:0:0:
192,192,82840,1,2,0:0:0:0:
448,192,82840,1,0,0:0:0:0:
320,192,82840,1,0,0:0:0:0:
320,192,83055,1,0,0:0:0:0:
192,192,83162,1,2,0:0:0:0:
64,192,83162,1,0,0:0:0:0:
320,192,83269,1,8,0:0:0:0:
448,192,83269,1,0,0:0:0:0:
64,192,83483,1,8,0:0:0:0:
448,192,83483,1,0,0:0:0:0:
320,192,83590,1,0,0:0:0:0:
192,192,83697,1,2,0:0:0:0:
64,192,83697,1,0,0:0:0:0:
320,192,83912,1,2,0:0:0:0:
448,192,83912,1,0,0:0:0:0:
64,192,84126,1,8,0:0:0:0:
448,192,84126,1,0,0:0:0:0:
192,192,84340,1,0,0:0:0:0:
320,192,84447,1,0,0:0:0:0:
448,192,84555,1,2,0:0:0:0:
192,192,84555,1,4,0:0:0:0:
64,192,84555,1,0,0:0:0:0:
320,192,84769,1,0,0:0:0:0:
192,192,84876,1,2,0:0:0:0:
64,192,84876,1,0,0:0:0:0:
320,192,84983,1,8,0:0:0:0:
448,192,84983,1,0,0:0:0:0:
192,192,85197,1,8,0:0:0:0:
448,192,85197,1,0,0:0:0:0:
320,192,85305,1,0,0:0:0:0:
192,192,85412,1,2,0:0:0:0:
64,192,85412,1,0,0:0:0:0:
448,192,85412,1,0,0:0:0:0:
64,192,85626,1,0,0:0:0:0:
192,192,85626,1,0,0:0:0:0:
448,192,85626,1,2,0:0:0:0:
64,192,85840,1,8,0:0:0:0:
320,192,85840,1,0,0:0:0:0:
448,192,85840,1,0,0:0:0:0:
64,192,86055,1,8,0:0:0:0:
320,192,86055,1,0,0:0:0:0:
448,192,86055,1,0,0:0:0:0:
64,192,86269,1,2,0:0:0:0:
320,192,86269,1,4,0:0:0:0:
448,192,86269,1,0,0:0:0:0:
192,192,86376,1,0,0:0:0:0:
320,192,86483,1,0,0:0:0:0:
448,192,86483,1,0,0:0:0:0:
64,192,86590,1,0,0:0:0:0:
192,192,86697,1,8,0:0:0:0:
448,192,86697,1,0,0:0:0:0:
320,192,86805,1,0,0:0:0:0:
192,192,86912,1,0,0:0:0:0:
64,192,86912,1,0,0:0:0:0:
448,192,87019,1,0,0:0:0:0:
320,192,87126,1,2,0:0:0:0:
192,192,87126,1,0,0:0:0:0:
64,192,87233,1,0,0:0:0:0:
448,192,87340,1,0,0:0:0:0:
320,192,87340,1,0,0:0:0:0:
64,192,87447,5,0,0:0:0:0:
448,192,87555,1,8,0:0:0:0:
192,192,87555,1,0,0:0:0:0:
320,192,87662,1,0,0:0:0:0:
192,192,87769,1,0,0:0:0:0:
64,192,87769,1,0,0:0:0:0:
448,192,87876,1,0,0:0:0:0:
320,192,87983,1,2,0:0:0:0:
64,192,87983,1,0,0:0:0:0:
192,192,88090,1,0,0:0:0:0:
448,192,88197,1,0,0:0:0:0:
320,192,88197,1,0,0:0:0:0:
64,192,88305,1,0,0:0:0:0:
192,192,88412,1,8,0:0:0:0:
448,192,88412,1,0,0:0:0:0:
320,192,88519,1,0,0:0:0:0:
64,192,88626,5,0,0:0:0:0:
192,192,88626,1,0,0:0:0:0:
320,192,88733,1,0,0:0:0:0:
448,192,88733,1,0,0:0:0:0:
64,192,88840,1,2,0:0:0:0:
192,192,88840,1,0,0:0:0:0:
448,192,88840,1,0,0:0:0:0:
320,192,89055,1,0,0:0:0:0:
192,192,89162,1,0,0:0:0:0:
64,192,89162,1,0,0:0:0:0:
320,192,89269,1,8,0:0:0:0:
448,192,89269,1,0,0:0:0:0:
192,192,89483,1,8,0:0:0:0:
320,192,89483,1,0,0:0:0:0:
192,192,89697,1,2,0:0:0:0:
64,192,89697,1,0,0:0:0:0:
448,192,89697,1,0,0:0:0:0:
320,192,89912,1,0,0:0:0:0:
192,192,90019,1,0,0:0:0:0:
64,192,90126,1,8,0:0:0:0:
320,192,90126,1,0,0:0:0:0:
448,192,90126,1,0,0:0:0:0:
192,192,90340,1,0,0:0:0:0:
320,192,90447,1,0,0:0:0:0:
64,192,90555,1,2,0:0:0:0:
192,192,90555,1,0,0:0:0:0:
448,192,90662,1,0,0:0:0:0:
320,192,90769,1,0,0:0:0:0:
64,192,90769,1,0,0:0:0:0:
192,192,90876,1,0,0:0:0:0:
64,192,90983,1,8,0:0:0:0:
320,192,90983,1,0,0:0:0:0:
448,192,90983,1,0,0:0:0:0:
192,192,91090,1,0,0:0:0:0:
64,192,91197,1,0,0:0:0:0:
448,192,91197,1,0,0:0:0:0:
320,192,91305,1,0,0:0:0:0:
64,192,91412,1,2,0:0:0:0:
192,192,91412,1,0,0:0:0:0:
448,192,91412,1,0,0:0:0:0:
192,192,91626,1,2,0:0:0:0:
64,192,91626,1,0,0:0:0:0:
448,192,91626,1,0,0:0:0:0:
320,192,91733,1,0,0:0:0:0:
192,192,91840,1,2,0:0:0:0:
64,192,91840,1,0,0:0:0:0:
448,192,91840,1,0,0:0:0:0:
64,192,92055,5,2,0:0:0:0:
320,192,92055,1,0,0:0:0:0:
448,192,92055,1,0,0:0:0:0:
64,192,92269,1,2,0:0:0:0:
448,192,92269,1,0,0:0:0:0:
192,192,92269,1,0,0:0:0:0:
320,192,92376,1,2,0:0:0:0:
64,192,92483,1,2,0:0:0:0:
448,192,92483,1,0,0:0:0:0:
192,192,92590,1,2,0:0:0:0:
64,192,92697,1,2,0:0:0:0:
448,192,92697,1,0,0:0:0:0:
320,192,92697,1,0,0:0:0:0:
192,192,92805,1,2,0:0:0:0:
448,192,92912,1,2,0:0:0:0:
320,192,92912,1,0,0:0:0:0:
64,192,92912,1,0,0:0:0:0:
320,192,93019,1,2,0:0:0:0:
448,192,93019,1,0,0:0:0:0:
64,192,93126,5,4,0:0:0:0:
448,192,93126,1,2,0:0:0:0:
192,192,93126,1,0,0:0:0:0:
64,192,93447,1,2,0:0:0:0:
448,192,93447,1,4,0:0:0:0:
192,192,93447,1,0,0:0:0:0:
64,192,93769,1,2,0:0:0:0:
448,192,93769,1,4,0:0:0:0:
320,192,93769,1,0,0:0:0:0:
64,192,94090,1,2,0:0:0:0:
448,192,94090,1,4,0:0:0:0:
320,192,94090,1,0,0:0:0:0:
64,192,94412,1,4,0:0:0:0:
448,192,94412,1,2,0:0:0:0:
192,192,94412,1,0,0:0:0:0:
192,192,94626,1,2,0:0:0:0:
320,192,94626,1,4,0:0:0:0:
64,192,94840,1,2,0:0:0:0:
448,192,94840,128,4,96555:0:0:0:0:
320,192,94840,1,0,0:0:0:0:
320,192,95697,128,0,96555:0:0:0:0:
64,192,97412,1,2,0:0:0:0:
192,192,97412,1,4,0:0:0:0:
320,192,97412,1,0,0:0:0:0:
448,192,97412,1,0,0:0:0:0:
448,192,97626,1,0,0:0:0:0:
64,192,97626,1,0,0:0:0:0:
192,192,97733,1,0,0:0:0:0:
448,192,97840,1,8,0:0:0:0:
320,192,97840,1,0,0:0:0:0:
64,192,97947,1,0,0:0:0:0:
192,192,98054,1,0,0:0:0:0:
448,192,98054,1,0,0:0:0:0:
320,192,98162,1,0,0:0:0:0:
64,192,98269,1,2,0:0:0:0:
192,192,98269,1,0,0:0:0:0:
448,192,98269,1,0,0:0:0:0:
320,192,98483,1,0,0:0:0:0:
64,192,98483,1,0,0:0:0:0:
192,192,98590,1,0,0:0:0:0:
64,192,98697,1,8,0:0:0:0:
448,192,98697,1,0,0:0:0:0:
320,192,98804,1,0,0:0:0:0:
448,192,98912,1,0,0:0:0:0:
192,192,98912,1,0,0:0:0:0:
448,192,99126,1,2,0:0:0:0:
192,192,99126,1,0,0:0:0:0:
64,192,99126,1,0,0:0:0:0:
320,192,99340,1,0,0:0:0:0:
64,192,99340,1,0,0:0:0:0:
192,192,99447,1,0,0:0:0:0:
448,192,99554,1,8,0:0:0:0:
320,192,99554,1,0,0:0:0:0:
64,192,99662,1,0,0:0:0:0:
192,192,99769,1,0,0:0:0:0:
448,192,99769,1,0,0:0:0:0:
320,192,99876,1,0,0:0:0:0:
64,192,99983,1,2,0:0:0:0:
448,192,99983,1,0,0:0:0:0:
192,192,99983,1,0,0:0:0:0:
320,192,100090,1,0,0:0:0:0:
448,192,100197,1,0,0:0:0:0:
64,192,100197,1,0,0:0:0:0:
192,192,100304,1,0,0:0:0:0:
448,192,100412,1,8,0:0:0:0:
64,192,100412,1,0,0:0:0:0:
320,192,100412,1,0,0:0:0:0:
192,192,100519,1,0,0:0:0:0:
64,192,100626,1,0,0:0:0:0:
320,192,100626,1,0,0:0:0:0:
448,192,100840,1,2,0:0:0:0:
64,192,100840,1,0,0:0:0:0:
192,192,100840,1,0,0:0:0:0:
448,192,101054,1,0,0:0:0:0:
192,192,101054,1,0,0:0:0:0:
320,192,101162,1,0,0:0:0:0:
64,192,101269,1,8,0:0:0:0:
448,192,101269,1,0,0:0:0:0:
192,192,101376,1,0,0:0:0:0:
64,192,101483,1,0,0:0:0:0:
320,192,101483,1,0,0:0:0:0:
64,192,101697,1,2,0:0:0:0:
448,192,101697,1,0,0:0:0:0:
320,192,101697,1,0,0:0:0:0:
192,192,101912,1,0,0:0:0:0:
448,192,101912,1,0,0:0:0:0:
320,192,102019,1,0,0:0:0:0:
64,192,102126,1,8,0:0:0:0:
448,192,102126,1,0,0:0:0:0:
192,192,102126,1,0,0:0:0:0:
320,192,102340,1,0,0:0:0:0:
192,192,102340,1,0,0:0:0:0:
448,192,102554,1,2,0:0:0:0:
64,192,102554,1,0,0:0:0:0:
320,192,102554,1,0,0:0:0:0:
192,192,102662,1,0,0:0:0:0:
320,192,102769,1,0,0:0:0:0:
64,192,102876,1,0,0:0:0:0:
448,192,102876,1,0,0:0:0:0:
192,192,102876,1,0,0:0:0:0:
320,192,102983,1,8,0:0:0:0:
192,192,103090,1,0,0:0:0:0:
64,192,103197,1,0,0:0:0:0:
448,192,103197,1,0,0:0:0:0:
320,192,103197,1,0,0:0:0:0:
320,192,103412,1,2,0:0:0:0:
448,192,103412,1,0,0:0:0:0:
64,192,103412,1,0,0:0:0:0:
320,192,103626,1,2,0:0:0:0:
64,192,103626,1,0,0:0:0:0:
448,192,103626,1,0,0:0:0:0:
192,192,103733,1,0,0:0:0:0:
64,192,103840,1,2,0:0:0:0:
320,192,103840,1,8,0:0:0:0:
448,192,103840,1,0,0:0:0:0:
320,192,104054,1,2,0:0:0:0:
448,192,104054,1,0,0:0:0:0:
64,192,104054,1,0,0:0:0:0:
64,192,104269,1,4,0:0:0:0:
320,192,104269,1,2,0:0:0:0:
448,192,104269,1,0,0:0:0:0:
192,192,104269,1,0,0:0:0:0:
192,192,104483,1,0,0:0:0:0:
448,192,104483,1,0,0:0:0:0:
320,192,104590,1,0,0:0:0:0:
192,192,104697,1,8,0:0:0:0:
64,192,104697,1,0,0:0:0:0:
448,192,104804,1,0,0:0:0:0:
320,192,104912,1,0,0:0:0:0:
64,192,104912,1,0,0:0:0:0:
192,192,105019,1,0,0:0:0:0:
320,192,105126,1,2,0:0:0:0:
64,192,105126,1,0,0:0:0:0:
448,192,105126,1,0,0:0:0:0:
192,192,105340,1,0,0:0:0:0:
448,192,105340,1,0,0:0:0:0:
320,192,105447,1,0,0:0:0:0:
448,192,105554,1,8,0:0:0:0:
64,192,105554,1,0,0:0:0:0:
192,192,105662,1,0,0:0:0:0:
320,192,105769,1,0,0:0:0:0:
64,192,105769,1,0,0:0:0:0:
192,192,105983,1,2,0:0:0:0:
64,192,105983,1,0,0:0:0:0:
448,192,105983,1,0,0:0:0:0:
320,192,106197,1,0,0:0:0:0:
64,192,106197,1,0,0:0:0:0:
192,192,106304,1,0,0:0:0:0:
448,192,106412,1,8,0:0:0:0:
320,192,106412,1,0,0:0:0:0:
64,192,106519,1,0,0:0:0:0:
192,192,106626,1,0,0:0:0:0:
448,192,106626,1,0,0:0:0:0:
320,192,106733,1,0,0:0:0:0:
192,192,106840,1,2,0:0:0:0:
448,192,106840,1,0,0:0:0:0:
64,192,106840,1,0,0:0:0:0:
320,192,106947,1,0,0:0:0:0:
64,192,107054,1,0,0:0:0:0:
448,192,107054,1,0,0:0:0:0:
192,192,107162,1,0,0:0:0:0:
64,192,107269,1,8,0:0:0:0:
448,192,107269,1,0,0:0:0:0:
320,192,107269,1,0,0:0:0:0:
192,192,107376,1,0,0:0:0:0:
64,192,107483,1,0,0:0:0:0:
320,192,107483,1,0,0:0:0:0:
448,192,107697,1,2,0:0:0:0:
64,192,107697,1,0,0:0:0:0:
192,192,107697,1,0,0:0:0:0:
64,192,107912,1,0,0:0:0:0:
320,192,107912,1,0,0:0:0:0:
192,192,108019,1,0,0:0:0:0:
320,192,108126,1,8,0:0:0:0:
448,192,108126,1,0,0:0:0:0:
64,192,108233,1,0,0:0:0:0:
192,192,108340,1,0,0:0:0:0:
448,192,108340,1,0,0:0:0:0:
320,192,108447,1,0,0:0:0:0:
192,192,108554,1,2,0:0:0:0:
64,192,108554,1,0,0:0:0:0:
448,192,108554,1,0,0:0:0:0:
320,192,108769,1,0,0:0:0:0:
64,192,108769,1,0,0:0:0:0:
192,192,108876,1,0,0:0:0:0:
448,192,108983,1,8,0:0:0:0:
64,192,108983,1,0,0:0:0:0:
320,192,109090,1,0,0:0:0:0:
448,192,109197,1,0,0:0:0:0:
192,192,109197,1,0,0:0:0:0:
64,192,109412,5,4,0:0:0:0:
448,192,109412,1,2,0:0:0:0:
320,192,109412,1,0,0:0:0:0:
192,192,109519,1,0,0:0:0:0:
320,192,109626,1,0,0:0:0:0:
448,192,109733,1,4,0:0:0:0:
64,192,109733,1,2,0:0:0:0:
192,192,109733,1,0,0:0:0:0:
320,192,109840,1,0,0:0:0:0:
192,192,109947,1,0,0:0:0:0:
64,192,110054,1,4,0:0:0:0:
320,192,110054,1,2,0:0:0:0:
448,192,110054,1,0,0:0:0:0:
192,192,110162,1,0,0:0:0:0:
448,192,110269,1,4,0:0:0:0:
64,192,110269,1,2,0:0:0:0:
320,192,110269,1,0,0:0:0:0:
192,192,110376,1,2,0:0:0:0:
64,192,110376,1,0,0:0:0:0:
320,192,110483,1,2,0:0:0:0:
448,192,110483,1,0,0:0:0:0:
192,192,110590,1,2,0:0:0:0:
64,192,110590,1,0,0:0:0:0:
320,192,110697,1,2,0:0:0:0:
448,192,110697,1,0,0:0:0:0:
192,192,110804,1,2,0:0:0:0:
64,192,110804,1,0,0:0:0:0:
448,192,110912,1,2,0:0:0:0:
320,192,110912,1,0,0:0:0:0:
192,192,111019,1,2,0:0:0:0:
320,192,111019,1,0,0:0:0:0:
64,192,111126,1,4,0:0:0:0:
192,192,111126,1,2,0:0:0:0:
448,192,111126,1,0,0:0:0:0:
64,192,111447,1,0,0:0:0:0:
192,192,111447,1,0,0:0:0:0:
192,192,111769,1,0,0:0:0:0:
64,192,111769,1,0,0:0:0:0:
448,192,111983,1,0,0:0:0:0:
64,192,111983,1,0,0:0:0:0:
320,192,112840,1,0,0:0:0:0:
448,192,112840,1,0,0:0:0:0:
64,192,113162,1,0,0:0:0:0:
192,192,113162,1,0,0:0:0:0:
320,192,113483,1,0,0:0:0:0:
448,192,113483,1,0,0:0:0:0:
64,192,113697,1,0,0:0:0:0:
448,192,113697,1,0,0:0:0:0:
192,192,114019,1,0,0:0:0:0:
320,192,114019,1,0,0:0:0:0:
448,192,114340,1,0,0:0:0:0:
64,192,114340,1,0,0:0:0:0:
64,192,114554,1,0,0:0:0:0:
192,192,114554,1,0,0:0:0:0:
320,192,114876,1,0,0:0:0:0:
448,192,114876,1,0,0:0:0:0:
64,192,115197,1,0,0:0:0:0:
192,192,115197,1,0,0:0:0:0:
64,192,115412,1,0,0:0:0:0:
448,192,115412,1,0,0:0:0:0:
320,192,116269,1,0,0:0:0:0:
448,192,116269,1,0,0:0:0:0:
64,192,116590,1,0,0:0:0:0:
192,192,116590,1,0,0:0:0:0:
448,192,116912,1,0,0:0:0:0:
320,192,116912,1,0,0:0:0:0:
64,192,117126,1,0,0:0:0:0:
448,192,117126,1,0,0:0:0:0:
320,192,117447,1,0,0:0:0:0:
192,192,117447,1,0,0:0:0:0:
448,192,117769,1,0,0:0:0:0:
64,192,117769,1,0,0:0:0:0:
