osu file format v14

[General]
AudioFilename: audio.mp3
AudioLeadIn: 0
PreviewTime: -1
Countdown: 1
SampleSet: Soft
StackLeniency: 0.7
Mode: 0
LetterboxInBreaks: 0
WidescreenStoryboard: 1

[Editor]
DistanceSpacing: 0.7
BeatDivisor: 6
GridSize: 4
TimelineZoom: 1

[Metadata]
Title:Hoshimiru Goro Wo Sugitemo
TitleUnicode:Hoshimiru Goro Wo Sugitemo
Artist:HG
ArtistUnicode:H△G
Creator:70BU_
Version:Normal
Source:Youtube
Tags:
BeatmapID:1542867
BeatmapSetID:731048

[Difficulty]
HPDrainRate:6.5
CircleSize:4.6
OverallDifficulty:6
ApproachRate:8.5
SliderMultiplier:1.10000000596046
SliderTickRate:1

[Events]
//Background and Video events
//Break Periods
//Storyboard Layer 0 (Background)
//Storyboard Layer 1 (Fail)
//Storyboard Layer 2 (Pass)
//Storyboard Layer 3 (Foreground)
//Storyboard Sound Samples

[TimingPoints]
0,260.869565217391,4,2,0,100,1,0
54267,400,4,2,0,100,1,0
55800,260.869565217391,4,2,0,100,1,0

[Colours]
Combo1 : 192,192,192
Combo2 : 6,196,153
Combo3 : 18,124,255
Combo4 : 242,24,57
Combo5 : 255,192,0

[HitObjects]
152,120,16185,6,0,B|100:168|52:204|52:204|116:200,1,192.50000104308
212,176,17057,1,0,0:0:0:0:
332,196,17478,2,0,L|440:184,1,82.5000004470345
356,112,17874,1,0,0:0:0:0:
236,112,18310,1,0,0:0:0:0:
240,256,18739,2,0,P|192:212|184:168,1,110.000000596046
328,160,19182,1,0,0:0:0:0:
288,236,19563,6,0,L|208:272,1,82.5000004470345
140,196,19999,1,0,0:0:0:0:
108,292,20434,1,0,0:0:0:0:
216,228,20817,2,0,P|236:156|220:120,1,110.000000596046
356,136,21253,1,0,0:0:0:0:
292,48,21689,1,0,0:0:0:0:
344,244,22125,2,0,L|292:172,1,82.5000004470345
200,124,22506,2,0,P|172:156|216:216,1,110.000000596046
112,96,22942,5,0,0:0:0:0:
264,116,23391,1,0,0:0:0:0:
128,128,23814,2,0,P|136:172|104:240,1,110.000000596046
296,128,24195,2,0,B|232:176|232:176|232:140,1,110.000000596046
328,240,24631,1,0,0:0:0:0:
212,264,25067,2,0,L|112:228,1,91.6666671633717
296,200,25503,1,0,0:0:0:0:
56,228,25885,2,0,L|144:156,1,110.000000596046
80,104,26321,6,0,P|140:64|184:52,1,110.000000596046
224,140,26757,2,0,P|264:176|300:156,1,91.6666671633717
420,104,27193,2,0,L|332:168,1,91.6666671633717
216,216,27574,1,0,0:0:0:0:
292,108,27792,1,0,0:0:0:0:
136,200,28010,2,0,B|156:264|144:272|144:272|120:256,1,91.6666671633717
128,124,28446,2,0,P|200:160|200:172,1,91.6666671633717
248,220,28882,2,0,L|312:144,1,82.5000004470345
240,100,29264,1,0,0:0:0:0:
136,288,29434,6,0,B|124:228|156:252|164:288|220:272,1,110.000000596046
376,120,30304,2,0,B|324:80|288:44|284:104|192:84,1,192.50000104308
296,196,30953,1,0,0:0:0:0:
152,144,31607,2,0,P|152:208|184:224,2,91.6666671633717
200,96,32206,2,0,P|276:48|280:48,1,82.5000004470345
272,184,32695,1,0,0:0:0:0:
152,128,33086,2,0,B|208:56|252:48|308:36,1,183.333334326743
256,152,33739,1,0,0:0:0:0:
160,292,34391,2,0,B|188:220|152:124|152:124|124:168|124:168,1,220.000001192092
232,160,36043,5,0,0:0:0:0:
136,76,36478,2,0,B|84:216|80:256|84:244,1,165.000000894069
304,304,37304,2,0,L|184:184,1,165.000000894069
328,116,38130,1,0,0:0:0:0:
400,204,38565,1,0,0:0:0:0:
220,212,39043,2,0,L|384:168,1,165.000000894069
268,72,39869,1,0,0:0:0:0:
176,176,40913,1,0,0:0:0:0:
124,248,41130,1,0,0:0:0:0:
232,252,41347,2,0,B|260:252|264:224|264:224|272:280|312:208|312:196|336:244|336:244|364:208|416:232,1,238.333334624766
108,124,42956,6,0,B|168:36|200:72|184:120|204:96,1,128.33333402872
324,120,43826,1,0,0:0:0:0:
164,244,44260,2,0,P|184:184|216:200,1,110.000000596046
296,80,45130,1,0,0:0:0:0:
376,200,45521,2,0,L|268:160,1,110.000000596046
152,304,46173,1,0,0:0:0:0:
308,332,46608,2,0,B|240:224|240:228|240:228|300:224,1,183.333334326743
364,72,47260,2,0,B|312:80|244:116|236:128,1,128.33333402872
256,192,47869,12,0,48956,0:0:0:0:
276,152,49565,5,0,0:0:0:0:
232,172,49999,2,0,B|192:152|192:152|232:288,1,183.333334326743
360,272,50869,1,0,0:0:0:0:
432,172,51217,1,0,0:0:0:0:
284,112,51695,2,0,L|352:192,1,91.6666671633717
192,144,52086,1,0,0:0:0:0:
76,128,52521,2,0,P|172:60|248:56,1,183.333334326743
160,124,53391,1,0,0:0:0:0:
120,232,54652,2,0,L|240:232,1,110.000000596046
240,144,56321,5,0,0:0:0:0:
112,48,56756,2,0,L|68:184,1,128.33333402872
344,184,57191,2,0,P|264:232|216:224,1,146.666667461395
300,80,58191,1,0,0:0:0:0:
112,276,58408,2,0,P|144:228|136:192,1,91.6666671633717
240,224,59060,1,0,0:0:0:0:
272,132,59495,2,0,P|192:112|172:120,1,91.6666671633717
320,224,59930,5,0,0:0:0:0:
348,80,60147,1,0,0:0:0:0:
180,40,60321,2,0,P|264:52|276:60,1,91.6666671633717
224,148,61017,2,0,L|144:192,1,91.6666671633717,0|0,3:0|2:0,3:0:0:0:
360,180,61626,5,0,0:0:0:0:
164,276,61886,2,0,P|216:296|244:296,1,73.3333337306973
200,164,62452,1,0,0:0:0:0:
220,104,62669,1,0,0:0:0:0:
280,76,62886,1,0,0:0:0:0:
368,48,63321,2,0,P|328:88|340:112,1,91.6666671633717,0|2,0:0|0:0,0:0:0:0:
