osu file format v14

[General]
AudioFilename: tenohira.mp3
AudioLeadIn: 0
PreviewTime: 2193
Countdown: 0
SampleSet: Soft
StackLeniency: 0.7
Mode: 0
LetterboxInBreaks: 0
WidescreenStoryboard: 1

[Editor]
Bookmarks: 1034,2193,11468,15019,20744,30019,47410,50889,60164,69439
DistanceSpacing: 1.5
BeatDivisor: 4
GridSize: 8
TimelineZoom: 1.4

[Metadata]
Title:"Tenohira"
TitleUnicode:「テノヒラ」
Artist:HERO
ArtistUnicode:HERO
Creator:donjuan
Version:"Victor's Hard"
Source:FAIRY TAIL
Tags:フェアリーテイル garden victorfernando -_frontier_- sonnyc habiholic zhu
BeatmapID:1713397
BeatmapSetID:806592

[Difficulty]
HPDrainRate:5
CircleSize:3.8
OverallDifficulty:6
ApproachRate:7.5
SliderMultiplier:1.3
SliderTickRate:1

[Events]
//Background and Video events
0,0,"bg.jpg",0,0
//Break Periods
//Storyboard Layer 0 (Background)
//Storyboard Layer 1 (Fail)
//Storyboard Layer 2 (Pass)
//Storyboard Layer 3 (Foreground)
//Storyboard Sound Samples

[TimingPoints]
1034,289.855072463768,4,2,1,60,1,0
1034,-111.111111111111,4,2,1,60,0,0
11468,-111.111111111111,4,2,1,55,0,0
14874,-111.111111111111,4,2,1,5,0,0
14947,-111.111111111111,4,2,1,55,0,0
20744,-125,4,2,1,50,0,0
29729,-125,4,2,1,5,0,0
30019,-111.111111111111,4,2,1,80,0,1
43570,-111.111111111111,4,2,1,5,0,1
43642,-111.111111111111,4,2,1,80,0,1
47410,-111.111111111111,4,2,1,60,0,0
50889,-111.111111111111,4,2,1,60,0,0
74077,-111.111111111111,4,2,1,5,0,0

[Colours]
Combo1 : 0,255,128
Combo2 : 255,255,75
Combo3 : 200,0,0
Combo4 : 255,128,255

[HitObjects]
144,104,2193,6,0,B|184:128|184:128|264:112,1,116.999996429443,6|10,0:0|0:0,0:0:0:0:
328,64,2628,1,0,0:0:0:0:
328,64,2773,2,0,P|360:56|400:56,2,58.4999982147217,2|2|10,0:0|0:0|0:0,0:0:0:0:
252,114,3207,6,0,L|272:248,1,116.999996429443,2|0,0:0|0:0,0:0:0:0:
224,304,3642,1,10,0:0:0:0:
152,256,3787,1,0,0:0:0:0:
152,256,3932,2,0,P|112:256|72:264,2,58.4999982147217,2|2|10,0:0|0:0|0:0,0:0:0:0:
224,304,4367,6,0,B|280:320|280:280|352:304,1,116.999996429443,2|0,0:0|0:0,0:0:0:0:
408,248,4802,2,0,P|448:256|488:256,1,58.4999982147217,10|0,0:0|0:0,0:0:0:0:
448,168,5091,2,0,P|408:160|376:160,1,58.4999982147217,2|2,0:0|0:0,0:0:0:0:
312,192,5381,1,10,0:0:0:0:
312,192,5526,6,0,L|296:64,1,116.999996429443,2|0,0:0|0:0,0:0:0:0:
208,96,5961,2,0,P|216:136|216:176,2,58.4999982147217,10|0|2,0:0|0:0|0:0,0:0:0:0:
120,104,6396,2,0,P|128:64|128:24,1,58.4999982147217,2|10,0:0|0:0,0:0:0:0:
40,64,6686,6,0,P|32:104|64:200,1,116.999996429443,2|0,0:0|0:0,0:0:0:0:
112,240,7120,2,0,P|128:224|144:176,1,58.4999982147217,10|0,0:0|0:0,0:0:0:0:
216,153,7410,2,0,L|288:153,2,58.4999982147217,2|2|10,0:0|0:0|0:0,0:0:0:0:
256,72,7845,6,0,B|312:48|312:96|392:64,1,116.999996429443,2|0,0:0|0:0,0:0:0:0:
432,136,8280,1,10,0:0:0:0:
400,216,8425,1,0,0:0:0:0:
400,216,8570,2,0,P|400:248|402:278,2,58.4999982147217,2|2|10,0:0|0:0|0:0,0:0:0:0:
320,184,9005,6,0,L|184:168,1,116.999996429443,2|0,0:0|0:0,0:0:0:0:
120,160,9439,2,0,P|120:192|136:232,1,58.4999982147217,10|0,0:0|0:0,0:0:0:0:
160,296,9729,2,0,P|168:320|168:352,2,58.4999982147217,2|2|10,0:0|0:0|0:0,0:0:0:0:
127,217,10164,6,0,L|264:224,1,116.999996429443,6|0,0:0|0:0,0:0:0:0:
304,288,10599,1,10,0:0:0:0:
304,288,10744,1,2,0:0:0:0:
360,216,10889,2,8,L|360:168,3,29.2499991073609,2|0|4|4,0:0|0:0|0:3|0:3,0:0:0:0:
368,144,11178,2,8,L|368:96,3,29.2499991073609,4|4|4|4,0:3|0:3|0:3|0:3,0:0:0:0:
336,80,11468,6,0,B|280:96|280:56|200:72,1,116.999996429443,6|10,0:0|0:0,0:0:0:0:
136,40,11903,1,0,0:0:0:0:
136,40,12048,2,0,P|88:40|64:48,1,58.4999982147217,8|8,0:3|0:3,0:0:0:0:
32,120,12338,1,10,0:0:0:0:
32,120,12483,6,0,P|40:176|48:248,1,116.999996429443,0|0,0:0|0:0,0:0:0:0:
112,296,12918,2,0,P|144:280|192:280,1,58.4999982147217,10|0,0:0|0:0,0:0:0:0:
248,312,13207,1,8,0:3:0:0:
248,312,13352,2,0,P|288:320|312:328,1,58.4999982147217,8|10,0:3|0:0,0:0:0:0:
368,264,13642,6,0,B|344:232|344:232|360:136,1,116.999996429443,0|0,0:0|0:0,0:0:0:0:
424,104,14077,2,0,P|464:112|504:112,1,58.4999982147217,10|0,0:0|0:0,0:0:0:0:
488,24,14367,2,0,P|448:16|416:16,1,58.4999982147217,8|8,0:3|0:3,0:0:0:0:
344,48,14657,2,0,P|288:64|248:56,1,87.7499973220826,10|0,0:0|0:0,0:0:0:0:
224,32,14947,6,0,P|184:24|144:32,1,58.4999982147217,2|0,0:0|0:0,0:0:0:0:
104,80,15236,1,10,0:0:0:0:
104,80,15381,1,0,0:0:0:0:
104,80,15526,2,0,P|104:120|96:144,1,58.4999982147217,8|8,0:3|0:3,0:0:0:0:
48,208,15816,1,10,0:0:0:0:
112,272,15961,6,0,B|168:248|168:296|232:272,1,116.999996429443,0|0,0:0|0:0,0:0:0:0:
296,224,16396,1,10,0:0:0:0:
296,224,16541,1,0,0:0:0:0:
296,224,16686,2,0,P|304:184|296:152,1,58.4999982147217,8|8,0:3|0:3,0:0:0:0:
368,104,16976,2,0,P|320:80|296:80,1,58.4999982147217,10|0,0:0|0:0,0:0:0:0:
240,32,17265,6,0,P|224:80|224:96,2,58.4999982147217,2|2|10,0:0|0:0|0:0,0:0:0:0:
316,79,17700,1,0,0:0:0:0:
301,166,17845,2,0,P|253:174|221:174,1,58.4999982147217,8|8,0:3|0:3,0:0:0:0:
176,232,18135,1,10,0:0:0:0:
176,232,18280,6,0,P|192:264|200:296,1,58.4999982147217,0|2,0:0|0:0,0:0:0:0:
256,352,18570,1,0,0:0:0:0:
256,352,18715,2,0,B|312:328|312:368|384:344,1,116.999996429443,10|8,0:0|0:3,0:0:0:0:
424,280,19149,1,8,0:3:0:0:
424,280,19294,6,0,P|408:224|448:160,1,116.999996429443,10|10,0:0|0:0,0:0:0:0:
488,104,19729,1,10,0:0:0:0:
488,104,19802,1,10,0:0:0:0:
488,104,19874,1,10,0:0:0:0:
424,40,20019,1,10,0:0:0:0:
344,80,20164,2,0,P|304:88|272:80,1,58.4999982147217,10|10,0:0|0:0,0:0:0:0:
224,32,20454,2,0,P|192:24|160:32,1,58.4999982147217,10|10,0:0|0:0,0:0:0:0:
104,80,20744,6,0,L|112:192,1,104,6|2,0:0|0:0,0:0:0:0:
184,320,21323,2,0,B|232:304|232:344|304:320,1,104,8|0,0:0|0:0,0:0:0:0:
353,285,21758,6,0,P|369:237|345:181,1,104,10|10,0:0|0:0,0:0:0:0:
288,136,22193,2,0,P|240:136|224:136,1,52,0|0,0:0|0:0,0:0:0:0:
232,56,22483,2,0,L|344:56,1,104,10|0,0:0|0:0,0:0:0:0:
392,112,22918,6,0,L|456:112,1,52,10|2,0:0|0:0,0:0:0:0:
488,176,23207,2,0,B|503:226|503:226|488:280,1,104,0|0,0:0|0:0,0:0:0:0:
448,344,23642,1,8,0:0:0:0:
296,328,23932,2,0,L|224:320,1,52,0|10,0:0|0:0,0:0:0:0:
190,264,24222,5,2,0:0:0:0:
190,264,24367,2,0,P|207:220|192:153,1,104,10|0,0:0|0:0,0:0:0:0:
163,94,24802,2,0,B|123:106|123:106|59:86,1,104,10|0,0:0|0:0,0:0:0:0:
43,162,25236,6,0,L|51:234,1,52,10|2,0:0|0:0,0:0:0:0:
107,265,25526,1,0,0:0:0:0:
107,265,25671,2,0,L|99:329,1,52,2|0,0:0|0:0,0:0:0:0:
168,356,25961,2,0,P|213:343|280:348,1,104,8|0,0:0|0:0,0:0:0:0:
338,307,26396,1,10,0:0:0:0:
338,307,26541,6,0,P|330:275|338:243,1,52,2|10,0:0|0:0,0:0:0:0:
385,198,26831,2,0,P|393:158|385:126,1,52,0|0,0:0|0:0,0:0:0:0:
352,80,27120,2,0,P|296:72|232:64,1,104,10|2,0:0|0:0,0:0:0:0:
176,32,27555,1,0,0:0:0:0:
176,32,27700,6,0,P|128:32|104:32,1,52,10|0,0:0|0:0,0:0:0:0:
64,80,27990,2,0,P|80:136|48:192,1,104,2|10,0:0|0:0,0:0:0:0:
112,240,28425,1,0,0:0:0:0:
112,240,28570,2,0,P|152:224|184:224,1,52,2|0,0:0|0:0,0:0:0:0:
228,261,28860,6,8,P|272:267|298:262,1,52,8|8,0:0|0:0,0:0:0:0:
279,266,29077,1,8,0:0:0:0:
279,266,29149,1,8,0:0:0:0:
335,211,29294,1,8,0:0:0:0:
292,145,29439,6,0,P|354:131|414:194,1,156,8|0,0:0|0:3,0:0:0:0:
461,266,30019,6,0,L|452:393,1,116.999996429443,6|10,0:0|0:0,0:0:0:0:
370,349,30454,1,0,0:0:0:0:
370,349,30599,2,0,P|323:340|300:334,1,58.4999982147217,8|8,0:3|0:3,0:0:0:0:
265,262,30889,2,0,P|223:269|194:274,1,58.4999982147217,10|0,0:0|0:0,0:0:0:0:
132,224,31178,6,0,B|161:197|161:197|149:105,1,116.999996429443,2|8,0:0|0:0,0:0:0:0:
65,99,31613,1,8,0:3:0:0:
65,99,31758,2,0,L|73:171,1,58.4999982147217,0|8,0:0|0:3,0:0:0:0:
132,224,32048,2,0,L|120:299,1,58.4999982147217,10|0,0:0|0:0,0:0:0:0:
188,341,32338,6,0,P|228:325|300:357,1,116.999996429443,2|10,0:0|0:0,0:0:0:0:
368,304,32773,1,0,0:0:0:0:
368,304,32918,2,0,P|360:272|376:232,1,58.4999982147217,8|8,0:3|0:3,0:0:0:0:
440,208,33207,2,0,P|448:168|440:136,1,58.4999982147217,10|0,0:0|0:0,0:0:0:0:
400,80,33497,6,0,L|272:64,1,116.999996429443,2|10,0:0|0:0,0:0:0:0:
200,32,33932,1,0,0:0:0:0:
200,32,34077,2,0,P|144:40|120:40,1,58.4999982147217,8|8,0:3|0:3,0:0:0:0:
136,128,34367,2,0,P|88:120|64:112,1,58.4999982147217,10|2,0:0|0:0,0:0:0:0:
38,195,34657,6,0,B|61:226|61:226|30:315,1,116.999996429443,2|8,0:0|0:0,0:0:0:0:
120,344,35091,1,2,0:0:0:0:
120,344,35236,2,0,B|176:320|176:368|240:344,1,116.999996429443,2|8,0:0|0:0,0:0:0:0:
304,296,35671,1,2,0:0:0:0:
304,296,35816,6,0,L|296:168,1,116.999996429443,2|8,0:0|0:0,0:0:0:0:
232,120,36251,2,0,L|160:112,1,58.4999982147217,2|2,0:0|0:0,0:0:0:0:
216,32,36541,1,0,0:0:0:0:
216,32,36686,1,10,0:0:0:0:
216,32,36831,6,0,B|336:48,1,116.999996429443,0|0,0:0|0:0,0:0:0:0:
392,112,37265,2,0,P|376:152|368:168,1,58.4999982147217,10|0,0:0|0:0,0:0:0:0:
288,208,37555,1,8,0:3:0:0:
288,208,37700,1,8,0:3:0:0:
288,208,37845,2,0,L|304:288,1,58.4999982147217,10|0,0:0|0:0,0:0:0:0:
240,328,38135,6,0,P|192:296|128:312,1,116.999996429443,2|10,0:0|0:0,0:0:0:0:
72,248,38570,1,0,0:0:0:0:
72,248,38715,2,0,L|80:120,1,116.999996429443,10|10,0:0|0:0,0:0:0:0:
136,64,39149,1,10,0:0:0:0:
136,64,39294,6,0,P|168:72|264:88,1,116.999996429443,6|10,0:0|0:0,0:0:0:0:
328,48,39729,1,0,0:0:0:0:
328,48,39874,2,0,P|368:40|400:32,1,58.4999982147217,8|8,0:3|0:3,0:0:0:0:
400,120,40164,2,0,P|456:96|480:88,1,58.4999982147217,10|0,0:0|0:0,0:0:0:0:
472,184,40454,6,0,P|408:208|352:216,1,116.999996429443,2|10,0:0|0:0,0:0:0:0:
304,280,40889,1,8,0:3:0:0:
304,280,41033,2,0,P|256:272|224:264,1,58.4999982147217,0|8,0:0|0:3,0:0:0:0:
176,216,41323,1,10,0:0:0:0:
176,216,41468,1,0,0:0:0:0:
176,216,41613,6,0,L|168:152,1,58.4999982147217,2|0,0:0|0:0,0:0:0:0:
216,80,41903,2,0,P|256:88|296:80,1,58.4999982147217,10|0,0:0|0:0,0:0:0:0:
344,40,42193,2,0,P|384:32|416:32,1,58.4999982147217,8|8,0:3|0:3,0:0:0:0:
456,96,42483,2,0,L|448:168,1,58.4999982147217,10|0,0:0|0:0,0:0:0:0:
368,184,42773,6,0,L|392:304,1,116.999996429443,2|10,0:0|0:0,0:0:0:0:
320,344,43207,1,0,0:0:0:0:
320,344,43352,2,0,P|272:328|224:336,1,87.7499973220826,8|0,0:3|0:0,0:0:0:0:
216,336,43642,2,0,P|224:288|216:256,1,58.4999982147217,10|0,0:0|0:0,0:0:0:0:
176,208,43932,6,0,P|160:152|200:80,1,116.999996429443,2|8,0:0|0:0,0:0:0:0:
248,48,44367,1,0,0:0:0:0:
312,104,44512,2,0,P|328:168|304:224,1,116.999996429443,2|8,0:0|0:0,0:0:0:0:
384,264,44947,1,2,0:0:0:0:
456,216,45091,6,0,P|440:160|472:96,1,116.999996429443,2|8,0:0|0:0,0:0:0:0:
400,40,45526,1,2,0:0:0:0:
400,40,45671,2,0,P|352:48|336:48,1,58.4999982147217,2|0,0:0|0:0,0:0:0:0:
288,120,45961,6,0,P|224:112|160:80,1,116.999996429443,8|2,0:0|0:0,0:0:0:0:
104,40,46396,1,0,0:0:0:0:
104,40,46541,2,0,P|80:32|24:32,1,58.4999982147217,10|0,0:0|0:0,0:0:0:0:
56,120,46831,2,0,P|80:168|64:248,1,116.999996429443,8|10,0:3|0:0,0:0:0:0:
56,312,47265,1,0,0:0:0:0:
136,352,47410,6,0,P|160:360|200:352,2,38.9999988098145,10|10|10,0:0|0:0|0:0,0:0:0:0:
168,304,47700,2,0,P|192:312|216:312,2,38.9999988098145,10|10|10,0:0|0:0|0:0,0:0:0:0:
176,248,47990,2,0,P|203:262|224:264,2,38.9999988098145,10|10|10,0:0|0:0|0:0,0:0:0:0:
152,192,48280,2,0,L|154:118,1,58.4999982147217,10|0,0:0|0:0,0:0:0:0:
174,47,48570,6,0,B|214:71|214:71|302:63,1,116.999996429443,6|2,0:0|0:0,0:0:0:0:
367,35,49005,1,2,0:0:0:0:
367,35,49149,2,0,L|359:163,1,116.999996429443,2|2,0:0|0:0,0:0:0:0:
406,226,49584,1,2,0:0:0:0:
406,226,49729,6,0,L|398:298,1,58.4999982147217,4|4,0:3|0:3,0:0:0:0:
335,344,50019,2,0,P|287:344|255:328,1,58.4999982147217,4|4,0:3|0:3,0:0:0:0:
216,280,50309,2,0,P|168:272|136:288,1,58.4999982147217,2|0,0:0|0:0,0:0:0:0:
84,320,50599,1,0,0:0:0:0:
51,127,50889,6,0,B|112:96|112:144|176:120,1,116.999996429443,6|10,0:0|0:0,0:0:0:0:
248,96,51323,1,0,0:0:0:0:
248,96,51468,2,0,L|240:24,2,58.4999982147217,2|2|10,0:0|0:0|0:0,0:0:0:0:
312,152,51903,6,0,P|328:208|296:272,1,116.999996429443,2|0,0:0|0:0,0:0:0:0:
248,328,52338,1,10,0:0:0:0:
176,272,52483,1,0,0:0:0:0:
176,272,52628,2,0,L|112:272,2,58.4999982147217,2|2|10,0:0|0:0|0:0,0:0:0:0:
192,184,53062,6,0,B|56:184,1,116.999996429443,2|0,0:0|0:0,0:0:0:0:
40,96,53497,2,0,L|120:96,1,58.4999982147217,10|0,0:0|0:0,0:0:0:0:
168,40,53787,2,0,L|240:40,2,58.4999982147217,2|2|10,0:0|0:0|0:0,0:0:0:0:
192,128,54222,6,0,B|248:112|248:152|320:128,1,116.999996429443,2|0,0:0|0:0,0:0:0:0:
384,96,54657,2,0,P|384:168|336:216,1,116.999996429443,10|2,0:0|0:0,0:0:0:0:
296,264,55091,2,0,P|293:296|296:328,1,58.4999982147217,2|10,0:0|0:0,0:0:0:0:
216,360,55381,6,0,P|168:376|96:352,1,116.999996429443,2|0,0:0|0:0,0:0:0:0:
96,272,55816,2,0,L|96:208,1,58.4999982147217,10|0,0:0|0:0,0:0:0:0:
128,136,56106,2,0,P|96:128|48:144,2,58.4999982147217,2|2|10,0:0|0:0|0:0,0:0:0:0:
208,104,56541,6,0,B|256:104|256:104|272:112|272:112|344:112,1,116.999996429443,2|0,0:0|0:0,0:0:0:0:
400,152,56976,1,10,0:0:0:0:
352,224,57120,1,0,0:0:0:0:
352,224,57265,2,0,P|346:255|352:288,2,58.4999982147217,2|2|10,0:0|0:0|0:0,0:0:0:0:
400,152,57700,6,0,P|344:136|272:176,1,116.999996429443,2|0,0:0|0:0,0:0:0:0:
200,144,58135,2,0,P|200:176|208:208,1,58.4999982147217,10|0,0:0|0:0,0:0:0:0:
168,280,58425,2,0,P|208:288|240:280,2,58.4999982147217,2|2|10,0:0|0:0|0:0,0:0:0:0:
205,201,58860,6,0,B|264:216|264:176|339:203,1,116.999996429443,2|0,0:0|0:0,0:0:0:0:
384,256,59294,1,10,0:0:0:0:
456,200,59439,1,0,0:0:0:0:
456,200,59584,2,0,L|464:136,1,58.4999982147217,2|2,0:0|0:0,0:0:0:0:
408,72,59874,2,0,L|336:72,1,58.4999982147217,8|0,0:0|0:0,0:0:0:0:
280,16,60164,6,0,L|144:16,1,116.999996429443,6|10,0:0|0:0,0:0:0:0:
112,88,60599,1,0,0:0:0:0:
112,88,60744,2,0,L|32:80,2,58.4999982147217,2|2|10,0:0|0:0|0:0,0:0:0:0:
160,160,61178,6,0,B|144:216|144:216|168:272,1,116.999996429443,2|0,0:0|0:0,0:0:0:0:
240,328,61613,1,10,0:0:0:0:
312,280,61758,1,0,0:0:0:0:
312,280,61903,2,0,L|384:280,2,58.4999982147217,2|2|10,0:0|0:0|0:0,0:0:0:0:
288,192,62338,6,0,B|432:192,1,116.999996429443,2|0,0:0|0:0,0:0:0:0:
472,128,62773,2,0,L|472:64,1,58.4999982147217,10|0,0:0|0:0,0:0:0:0:
392,40,63062,2,0,L|392:112,2,58.4999982147217,2|2|10,0:0|0:0|0:0,0:0:0:0:
304,40,63497,6,0,P|248:56|184:32,1,116.999996429443,2|0,0:0|0:0,0:0:0:0:
136,104,63932,2,0,P|144:128|136:176,2,58.4999982147217,10|0|2,0:0|0:0|0:0,0:0:0:0:
56,144,64367,2,0,P|56:192|72:216,1,58.4999982147217,2|10,0:0|0:0,0:0:0:0:
96,280,64657,6,0,B|184:280|184:280|152:308,1,116.999996429443,2|0,0:0|0:0,0:0:0:0:
240,344,65091,2,0,L|304:336,1,58.4999982147217,10|0,0:0|0:0,0:0:0:0:
376,296,65381,2,0,P|384:344|400:368,2,58.4999982147217,2|2|10,0:0|0:0|0:0,0:0:0:0:
352,208,65816,6,0,B|408:184|408:232|478:206,1,116.999996429443,2|0,0:0|0:0,0:0:0:0:
480,120,66251,1,10,0:0:0:0:
416,56,66396,1,0,0:0:0:0:
416,56,66541,2,0,L|352:48,2,58.4999982147217,2|2|10,0:0|0:0|0:0,0:0:0:0:
368,128,66976,6,0,L|248:112,1,116.999996429443,2|0,0:0|0:0,0:0:0:0:
192,176,67410,2,0,L|200:256,1,58.4999982147217,10|0,0:0|0:0,0:0:0:0:
280,256,67700,2,0,L|273:197,2,58.4999982147217,2|2|10,0:0|0:0|0:0,0:0:0:0:
320,336,68135,1,0,0:0:0:0:
392,288,68280,5,8,0:0:0:0:
392,288,68352,1,8,0:0:0:0:
392,288,68425,1,8,0:0:0:0:
424,208,68570,2,0,L|482:208,1,58.4999982147217,8|8,0:0|0:0,0:0:0:0:
472,128,68860,2,8,P|466:108|464:88,3,29.2499991073609,4|4|4|4,0:3|0:3|0:3|0:3,0:0:0:0:
440,64,69149,2,0,L|368:64,1,58.4999982147217,2|4,0:0|0:1,0:0:0:0:
256,192,69367,12,0,74077,0:0:0:0:
