osu file format v14

[General]
AudioFilename: tenohira.mp3
AudioLeadIn: 0
PreviewTime: 2193
Countdown: 0
SampleSet: Soft
StackLeniency: 0.7
Mode: 0
LetterboxInBreaks: 0
WidescreenStoryboard: 1

[Editor]
Bookmarks: 1034,2193,11468,20744,30019,47410,50889,60164,69439
DistanceSpacing: 1
BeatDivisor: 4
GridSize: 4
TimelineZoom: 1

[Metadata]
Title:"Tenohira"
TitleUnicode:「テノヒラ」
Artist:HERO
ArtistUnicode:HERO
Creator:donjuan
Version:"Sonnyc's Normal"
Source:FAIRY TAIL
Tags:フェアリーテイル garden victorfernando -_frontier_- sonnyc habiholic zhu
BeatmapID:1713105
BeatmapSetID:806592

[Difficulty]
HPDrainRate:3
CircleSize:3
OverallDifficulty:4
ApproachRate:5
SliderMultiplier:1.02
SliderTickRate:1

[Events]
//Background and Video events
0,0,"bg.jpg",0,0
//Break Periods
//Storyboard Layer 0 (Background)
//Storyboard Layer 1 (Fail)
//Storyboard Layer 2 (Pass)
//Storyboard Layer 3 (Foreground)
//Storyboard Sound Samples

[TimingPoints]
1034,289.855072463768,4,2,1,60,1,0
11468,-100,4,2,1,55,0,0
20744,-100,4,2,1,50,0,0
30019,-100,4,2,1,80,0,1
47410,-100,4,2,1,60,0,0
68280,-100,4,2,1,50,0,0
74077,-100,4,2,1,5,0,0

[Colours]
Combo1 : 0,255,128
Combo2 : 255,255,75
Combo3 : 200,0,0
Combo4 : 255,128,255

[HitObjects]
9,221,2193,6,0,P|13:160|129:168,1,204.000003890991,6|2,0:0|0:0,0:0:0:0:
99,264,3062,1,10,0:0:0:0:
143,289,3207,2,0,L|308:280,1,153.000002918243,2|10,0:0|0:0,0:0:0:0:
397,273,3932,1,2,0:0:0:0:
493,154,4367,6,0,B|454:188|454:188|353:172,1,153.000002918243,2|10,0:0|0:0,0:0:0:0:
253,152,5091,1,2,0:0:0:0:
318,74,5381,1,10,0:0:0:0:
274,49,5526,2,0,L|109:58,1,153.000002918243,2|10,0:0|0:0,0:0:0:0:
20,65,6251,1,2,0:0:0:0:
30,217,6686,6,0,B|-4:256|-4:256|12:357,1,153.000002918243,2|10,0:0|0:0,0:0:0:0:
89,289,7410,1,2,0:0:0:0:
238,322,7845,2,0,B|204:283|204:283|220:182,1,153.000002918243,2|10,0:0|0:0,0:0:0:0:
297,250,8569,1,2,0:0:0:0:
445,211,9005,2,0,B|411:250|411:250|427:351,1,153.000002918243,2|10,0:0|0:0,0:0:0:0:
504,283,9729,1,2,0:0:0:0:
316,301,10164,6,0,B|215:285|215:285|176:319,1,153.000002918243,6|10,0:0|0:0,0:0:0:0:
138,222,10889,2,0,B|99:256|99:256|49:248,1,102.000001945496,2|4,0:0|0:3,0:0:0:0:
74,149,11468,1,6,0:0:0:0:
273,193,12048,6,0,P|321:143|395:163,2,153,10|2|10,0:3|0:0|0:0,0:0:0:0:
353,256,13207,1,8,0:3:0:0:
238,351,13642,2,0,P|168:372|116:320,1,153,2|10,0:0|0:0,0:0:0:0:
63,123,14657,5,10,0:0:0:0:
130,199,14947,2,0,P|213:234|285:161,1,204,2|8,0:0|0:3,0:0:0:0:
386,46,15961,2,0,P|455:24|507:76,1,153,2|10,0:0|0:0,0:0:0:0:
471,305,17265,6,0,L|368:298,1,102,2|10,0:0|0:0,0:0:0:0:
284,355,17845,2,0,L|181:348,1,102,8|10,0:3|0:0,0:0:0:0:
149,306,18280,2,0,P|79:327|27:275,1,153,0|10,0:0|0:0,0:0:0:0:
128,72,19584,5,10,0:0:0:0:
209,133,19874,1,10,0:0:0:0:
303,94,20164,2,0,L|404:100,1,102,10|10,0:0|0:0,0:0:0:0:
505,111,20744,5,6,0:0:0:0:
444,192,21033,1,2,0:0:0:0:
505,273,21323,1,8,0:0:0:0:
332,364,21903,2,0,P|292:316|180:364,1,204,2|10,0:0|0:0,0:0:0:0:
7,273,23062,5,2,0:0:0:0:
68,192,23351,1,2,0:0:0:0:
7,111,23641,1,8,0:0:0:0:
180,20,24222,2,0,P|220:68|332:20,1,204,2|10,0:0|0:0,0:0:0:0:
505,111,25381,5,2,0:0:0:0:
444,192,25670,1,2,0:0:0:0:
383,273,25961,1,8,0:0:0:0:
332,76,26541,2,0,P|292:124|180:76,1,204,2|10,0:0|0:0,0:0:0:0:
129,273,27700,5,2,0:0:0:0:
68,192,27991,1,2,0:0:0:0:
7,111,28280,1,10,0:0:0:0:
192,192,28860,2,0,B|231:158|231:158|281:166,1,102.000001945496,8|8,0:0|0:0,0:0:0:0:
256,265,29439,1,8,0:0:0:0:
408,128,30019,6,0,P|414:82|372:36,1,102,6|10,0:0|0:0,0:0:0:0:
279,44,30599,2,0,P|242:15|181:29,1,102,8|10,0:3|0:0,0:0:0:0:
141,113,31178,1,2,0:0:0:0:
408,128,32048,6,0,P|414:82|372:36,2,102,10|2|10,0:0|0:0|0:0,0:0:0:0:
463,216,32918,2,0,P|445:262|400:282,1,102,8|10,0:3|0:0,0:0:0:0:
352,373,33497,2,0,P|303:381|263:352,1,102,2|10,0:0|0:0,0:0:0:0:
463,216,34367,5,10,0:0:0:0:
408,128,34657,2,0,P|409:80|321:30,1,153,2|2,0:0|0:0,0:0:0:0:
279,44,35236,2,0,P|237:19|150:70,1,153,2|2,0:0|0:0,0:0:0:0:
141,113,35816,1,2,0:0:0:0:
258,210,36251,5,2,0:0:0:0:
298,178,36396,2,0,L|402:187,1,102,2|10,0:0|0:0,0:0:0:0:
450,192,36831,1,2,0:0:0:0:
112,108,38715,6,0,P|67:128|50:175,1,102,2|10,0:0|0:0,0:0:0:0:
105,263,39294,2,0,P|99:309|141:355,1,102,6|10,0:0|0:0,0:0:0:0:
234,347,39874,2,0,P|270:375|331:361,1,102,8|10,0:3|0:0,0:0:0:0:
372,278,40453,1,2,0:0:0:0:
105,263,41323,6,0,P|99:309|141:355,2,102,10|2|10,0:0|0:0|0:0,0:0:0:0:
50,175,42193,2,0,P|67:128|112:108,1,102,8|10,0:3|0:0,0:0:0:0:
160,17,42772,2,0,P|209:10|250:39,1,102,2|10,0:0|0:0,0:0:0:0:
50,175,43642,5,10,0:0:0:0:
105,263,43932,2,0,P|104:311|192:361,1,153,2|0,0:0|0:0,0:0:0:0:
234,347,44512,2,0,P|275:371|362:320,1,153,2|2,0:0|0:0,0:0:0:0:
372,278,45091,1,2,0:0:0:0:
255,181,45526,5,2,0:0:0:0:
215,213,45671,2,0,L|111:204,1,102,2|8,0:0|0:0,0:0:0:0:
63,199,46106,1,2,0:0:0:0:
234,347,46831,6,0,P|275:371|362:320,1,153,8|2,0:3|0:0,0:0:0:0:
404,184,47700,2,0,P|453:189|492:158,2,102,10|10|10,0:0|0:0|0:0,0:0:0:0:
306,144,48570,22,0,P|259:160|238:297,1,204,6|10,0:0|0:0,0:0:0:0:
383,218,49729,1,4,0:3:0:0:
512,330,50309,1,10,0:0:0:0:
503,163,50889,22,0,P|470:249|383:218,1,204.000003890991,6|2,0:0|0:0,0:0:0:0:
413,120,51758,1,10,0:0:0:0:
369,95,51903,2,0,L|204:104,1,153.000002918243,2|10,0:0|0:0,0:0:0:0:
115,111,52628,1,2,0:0:0:0:
19,230,53063,6,0,B|58:196|58:196|159:212,1,153,2|10,0:0|0:0,0:0:0:0:
259,232,53787,1,2,0:0:0:0:
194,310,54077,1,10,0:0:0:0:
238,335,54222,2,0,L|403:326,1,153.000002918243,2|10,0:0|0:0,0:0:0:0:
492,319,54947,1,2,0:0:0:0:
482,167,55381,6,0,B|516:128|516:128|500:27,1,153.000002918243,2|10,0:0|0:0,0:0:0:0:
423,95,56105,1,2,0:0:0:0:
274,62,56541,2,0,B|308:101|308:101|290:205,1,153,2|10,0:0|0:0,0:0:0:0:
215,134,57264,1,2,0:0:0:0:
67,173,57700,2,0,B|101:134|101:134|85:33,1,153.000002918243,2|10,0:0|0:0,0:0:0:0:
8,101,58424,1,2,0:0:0:0:
196,83,58860,6,0,B|297:99|297:99|336:65,1,153.000002918243,2|10,0:0|0:0,0:0:0:0:
421,120,59584,2,0,B|471:112|471:112|510:146,1,102.000001945496,2|8,0:0|0:0,0:0:0:0:
435,216,60164,6,0,P|402:302|315:271,1,204.000003890991,6|2,0:0|0:0,0:0:0:0:
235,333,61033,1,10,0:0:0:0:
210,289,61178,2,0,L|219:124,1,153.000002918243,2|10,0:0|0:0,0:0:0:0:
223,33,61903,1,2,0:0:0:0:
88,106,62338,6,0,B|122:145|122:145|106:246,1,153.000002918243,2|10,0:0|0:0,0:0:0:0:
90,345,63062,1,2,0:0:0:0:
184,384,63352,1,10,0:0:0:0:
228,359,63497,2,0,L|393:368,1,153.000002918243,2|10,0:0|0:0,0:0:0:0:
482,375,64222,1,2,0:0:0:0:
505,223,64657,6,0,B|521:122|521:122|487:83,1,153.000002918243,2|10,0:0|0:0,0:0:0:0:
428,155,65381,1,2,0:0:0:0:
291,86,65816,2,0,B|307:187|307:187|273:226,1,153.000002918243,2|10,0:0|0:0,0:0:0:0:
214,154,66540,1,2,0:0:0:0:
91,224,66976,2,0,B|107:123|107:123|73:84,1,153.000002918243,2|10,0:0|0:0,0:0:0:0:
14,156,67700,2,0,B|-2:257,1,102,2|10,0:0|0:0,0:0:0:0:
77,321,68280,6,0,B|127:329|127:329|166:295,1,102.000001945496,8|8,0:0|0:0,0:0:0:0:
266,276,68860,2,0,B|316:268|316:268|355:302,1,102.000001945496,4|2,0:3|0:0,0:0:0:0:
388,339,69294,1,4,0:1:0:0:
256,192,69439,12,0,74077,0:0:0:0:
