osu file format v14

[General]
AudioFilename: tenohira.mp3
AudioLeadIn: 0
PreviewTime: 2193
Countdown: 0
SampleSet: Soft
StackLeniency: 0.7
Mode: 0
LetterboxInBreaks: 0
WidescreenStoryboard: 1

[Editor]
DistanceSpacing: 0.3
BeatDivisor: 4
GridSize: 32
TimelineZoom: 1.7

[Metadata]
Title:"Tenohira"
TitleUnicode:「テノヒラ」
Artist:HERO
ArtistUnicode:HERO
Creator:donjuan
Version:"Frontier's Insane"
Source:FAIRY TAIL
Tags:フェアリーテイル garden victorfernando -_frontier_- sonnyc habiholic zhu
BeatmapID:1713953
BeatmapSetID:806592

[Difficulty]
HPDrainRate:5
CircleSize:4
OverallDifficulty:7
ApproachRate:9
SliderMultiplier:1.6
SliderTickRate:1

[Events]
//Background and Video events
0,0,"bg.jpg",0,0
//Break Periods
//Storyboard Layer 0 (Background)
//Storyboard Layer 1 (Fail)
//Storyboard Layer 2 (Pass)
//Storyboard Layer 3 (Foreground)
//Storyboard Sound Samples

[TimingPoints]
1034,289.855072463768,4,2,1,60,1,0
11468,-100,4,2,1,55,0,0
20744,-133.333333333333,4,2,1,50,0,0
29439,-400,4,2,1,50,0,0
30019,-50,4,2,1,80,0,0
30309,-66.6666666666667,4,2,1,80,0,0
31178,-100,4,2,1,80,0,0
32048,-66.6666666666667,4,2,1,80,0,0
32338,-100,4,2,1,80,0,0
39005,-150.001500015,4,2,1,80,0,0
39294,-50,4,2,1,80,0,0
39584,-66.6666666666667,4,2,1,80,0,0
40454,-100,4,2,1,80,0,0
41323,-66.6666666666667,4,2,1,80,0,0
41613,-100,4,2,1,80,0,0
47410,-100,4,2,1,60,0,0
48570,-133.333333333333,4,2,1,60,0,0
50889,-100,4,2,1,60,0,0
74077,-100,4,2,1,5,0,0

[Colours]
Combo1 : 0,255,128
Combo2 : 255,255,75
Combo3 : 200,0,0
Combo4 : 255,128,255

[HitObjects]
96,64,1034,5,4,0:1:0:0:
98,73,1324,1,4,0:1:0:0:
100,83,1613,1,4,0:1:0:0:
102,93,1903,1,4,0:1:0:0:
173,141,2193,6,0,B|258:119|246:173|353:142,2,160,6|10|2,0:0|0:0|0:0,0:0:0:0:
260,0,2918,2,0,P|285:31|298:86,1,80,2|10,0:0|0:0,0:0:0:0:
330,187,3207,2,0,P|393:141|503:159,1,160,2|0,0:0|0:0,0:0:0:0:
448,288,3642,5,10,0:0:0:0:
363,257,3787,1,0,0:0:0:0:
293,315,3932,1,2,0:0:0:0:
377,347,4077,1,2,0:0:0:0:
377,347,4149,1,0,0:0:0:0:
377,347,4222,1,10,0:0:0:0:
363,257,4367,6,0,P|351:175|338:76,1,160,2|0,0:0|0:0,0:0:0:0:
267,56,4802,2,0,P|228:53|194:33,1,80,10|0,0:0|0:0,0:0:0:0:
428,137,5091,2,0,P|462:116|501:114,1,80,2|2,0:0|0:0,0:0:0:0:
487,198,5381,1,10,0:0:0:0:
363,257,5526,6,0,B|269:226|296:292|203:262,1,160,2|0,0:0|0:0,0:0:0:0:
153,191,5961,2,0,P|137:157|145:108,1,80,10|0,0:0|0:0,0:0:0:0:
232,104,6251,2,0,P|248:138|240:187,2,80,2|2|10,0:0|0:0|0:0,0:0:0:0:
208,263,6686,2,0,B|296:292|269:226|363:257,1,160,2|0,0:0|0:0,0:0:0:0:
469,121,7120,6,0,P|482:75|496:19,1,80,10|0,0:0|0:0,0:0:0:0:
352,0,7410,2,0,P|362:38|373:77,1,80,2|2,0:0|0:0,0:0:0:0:
480,134,7700,1,10,0:0:0:0:
419,189,7845,2,0,P|368:166|277:230,1,160,2|0,0:0|0:0,0:0:0:0:
232,104,8280,5,10,0:0:0:0:
147,135,8425,1,0,0:0:0:0:
77,77,8570,1,2,0:0:0:0:
161,45,8715,1,2,0:0:0:0:
161,45,8787,1,0,0:0:0:0:
161,45,8860,1,10,0:0:0:0:
147,135,9005,6,0,P|135:217|122:316,1,160,2|0,0:0|0:0,0:0:0:0:
224,352,9439,2,0,P|267:333|318:333,1,80,10|0,0:0|0:0,0:0:0:0:
389,257,9729,2,0,P|349:252|313:235,2,80,2|2|10,0:0|0:0|0:0,0:0:0:0:
473,365,10164,2,0,B|451:274|505:297|464:195,1,160,6|0,0:0|0:0,0:0:0:0:
357,90,10599,6,0,P|355:134|398:177,1,80,10|2,0:0|0:0,0:0:0:0:
435,110,10889,1,2,0:0:0:0:
397,3,11033,1,4,0:3:0:0:
363,0,11105,1,4,0:3:0:0:
331,4,11177,1,4,0:3:0:0:
301,19,11250,1,4,0:3:0:0:
271,33,11322,1,4,0:3:0:0:
238,36,11395,1,4,0:3:0:0:
205,31,11468,2,0,P|126:17|30:2,1,160,6|10,0:0|0:0,0:0:0:0:
155,130,11903,5,0,0:0:0:0:
74,102,12048,2,0,P|72:148|106:197,1,80,8|8,0:3|0:3,0:0:0:0:
185,337,12338,1,10,0:0:0:0:
210,246,12483,2,0,B|129:227|141:290|39:265,1,160,0|0,0:0|0:0,0:0:0:0:
185,337,12918,2,0,P|222:343|281:387,1,80,10|0,0:0|0:0,0:0:0:0:
448,192,13207,2,0,P|413:211|374:218,1,80,8|8,0:3|0:3,0:0:0:0:
201,148,13497,5,10,0:0:0:0:
289,107,13642,2,0,B|309:199|264:173|298:279,1,160,0|0,0:0|0:0,0:0:0:0:
416,384,14077,2,0,P|429:330|446:280,1,80,10|0,0:0|0:0,0:0:0:0:
448,192,14367,1,8,0:3:0:0:
448,192,14512,1,8,0:3:0:0:
216,245,14657,6,0,P|253:251|303:269,1,80,10|0,0:0|0:0,0:0:0:0:
201,148,14947,2,0,P|146:181|41:192,1,160,2|10,0:0|0:0,0:0:0:0:
96,64,15381,1,0,0:0:0:0:
6,40,15526,2,0,P|3:77|35:133,1,80,8|8,0:3|0:3,0:0:0:0:
96,64,15816,1,10,0:0:0:0:
173,11,15961,2,0,P|188:48|186:88,1,80,0|2,0:0|0:0,0:0:0:0:
134,208,16251,5,0,0:0:0:0:
210,246,16396,2,0,B|269:237|269:237|311:257|311:257|373:249,1,160,10|8,0:0|0:3,0:0:0:0:
343,81,16831,2,0,P|333:120|327:160,1,80,8|10,0:3|0:0,0:0:0:0:
128,126,17120,5,0,0:0:0:0:
64,177,17265,2,0,P|108:206|161:198,1,80,2|2,0:0|0:0,0:0:0:0:
192,75,17555,2,0,P|147:45|94:53,1,80,10|0,0:0|0:0,0:0:0:0:
250,181,17845,6,0,P|302:167|346:153,1,80,8|8,0:3|0:3,0:0:0:0:
211,62,18135,1,10,0:0:0:0:
238,269,18280,2,0,P|323:246|395:223,1,160,0|0,0:0|0:0,0:0:0:0:
218,384,18715,2,0,P|183:334|78:339,1,160,10|8,0:0|0:3,0:0:0:0:
8,287,19149,1,8,0:3:0:0:
103,159,19294,2,0,P|93:209|81:259,1,80,10|0,0:0|0:0,0:0:0:0:
191,126,19584,5,10,0:0:0:0:
118,67,19729,1,10,0:0:0:0:
118,67,19802,1,10,0:0:0:0:
118,67,19874,1,10,0:0:0:0:
30,100,20019,1,10,0:0:0:0:
103,159,20164,5,10,0:0:0:0:
128,32,20309,1,10,0:0:0:0:
155,165,20454,5,10,0:0:0:0:
82,18,20599,1,10,0:0:0:0:
8,287,20744,6,0,P|56:256|121:268,1,120.000004577637,6|2,0:0|0:0,0:0:0:0:
125,256,21323,2,0,P|180:268|218:322,1,120.000004577637,8|0,0:0|0:0,0:0:0:0:
171,383,21758,1,10,0:0:0:0:
308,371,21903,6,0,P|321:288|329:237,1,120.000004577637,2|0,0:0|0:0,0:0:0:0:
319,241,22483,2,0,P|332:158|340:107,1,120.000004577637,10|0,0:0|0:0,0:0:0:0:
410,72,22918,1,10,0:0:0:0:
288,32,23062,6,0,B|224:15|245:61|165:40,1,120.000004577637,2|2,0:0|0:0,0:0:0:0:
178,54,23642,2,0,B|114:71|135:25|55:46,1,120.000004577637,8|0,0:0|0:0,0:0:0:0:
9,125,24077,1,10,0:0:0:0:
119,137,24222,6,0,P|110:192|99:265,1,120.000004577637,2|0,0:0|0:0,0:0:0:0:
106,265,24802,2,0,P|97:320|86:393,1,120.000004577637,10|0,0:0|0:0,0:0:0:0:
210,250,25236,1,10,0:0:0:0:
200,370,25381,6,0,P|231:347|320:346,1,120.000004577637,2|2,0:0|0:0,0:0:0:0:
315,326,25961,2,0,P|353:331|416:393,1,120.000004577637,8|0,0:0|0:0,0:0:0:0:
486,332,26396,1,10,0:0:0:0:
425,257,26541,6,0,P|415:213|410:188,1,60.0000022888184,2|10,0:0|0:0,0:0:0:0:
512,119,26831,2,0,P|505:148|499:177,1,60.0000022888184,0|0,0:0|0:0,0:0:0:0:
329,160,27120,2,0,P|385:164|420:102,1,120.000004577637,10|2,0:0|0:0,0:0:0:0:
368,45,27555,1,0,0:0:0:0:
368,45,27700,6,0,P|301:35|242:27,1,120.000004577637,10|2,0:0|0:0,0:0:0:0:
246,22,28280,2,0,P|192:39|191:95,1,120.000004577637,10|2,0:0|0:0,0:0:0:0:
192,96,28860,5,8,0:0:0:0:
288,64,29005,1,8,0:0:0:0:
288,64,29077,1,8,0:0:0:0:
288,64,29149,1,8,0:0:0:0:
363,133,29294,1,8,0:0:0:0:
363,133,29367,1,8,0:0:0:0:
363,133,29439,6,0,P|345:158|350:201,1,70,8|0,0:0|0:0,0:0:0:0:
350,205,30019,6,0,P|435:130|348:59,1,240,6|0,0:0|0:0,0:0:0:0:
191,217,30309,2,0,B|293:224|232:293|352:296,1,180.000006866455,10|0,0:0|0:0,0:0:0:0:
383,275,30599,5,8,0:3:0:0:
383,275,30744,1,8,0:3:0:0:
181,323,30889,1,10,0:0:0:0:
181,323,31178,6,0,P|139:302|92:296,1,80,2|0,0:0|0:0,0:0:0:0:
191,217,31468,1,8,0:0:0:0:
29,186,31613,2,0,B|53:270|-1:251|29:343,1,160,8|8,0:3|0:3,0:0:0:0:
239,135,32048,6,0,P|160:129|172:207,1,180.000006866455,10|0,0:0|0:0,0:0:0:0:
191,217,32338,2,0,P|268:203|368:185,2,160,2|10|8,0:0|0:0|0:3,0:0:0:0:
100,163,33062,1,8,0:3:0:0:
7,214,33208,1,10,0:0:0:0:
18,227,33497,6,0,P|31:271|44:320,1,80,2|0,0:0|0:0,0:0:0:0:
100,163,33787,1,10,0:0:0:0:
4,375,33932,2,0,B|98:398|77:323|191:354,1,160,0|8,0:0|0:3,0:0:0:0:
273,379,34367,1,10,0:0:0:0:
273,379,34512,1,2,0:0:0:0:
372,218,34657,6,0,P|296:208|241:263,1,160,2|8,0:0|0:0,0:0:0:0:
358,376,35091,1,2,0:0:0:0:
405,315,35236,2,0,P|420:243|439:151,1,160,2|8,0:0|0:0,0:0:0:0:
247,24,35671,1,2,0:0:0:0:
311,85,35816,2,0,B|397:110|385:46|479:72,1,160,2|8,0:0|0:0,0:0:0:0:
260,162,36251,2,0,P|236:138|170:124,1,80,2|2,0:0|0:0,0:0:0:0:
132,290,36541,5,0,0:0:0:0:
147,196,36686,2,0,P|113:196|56:232,1,80,10|0,0:0|0:0,0:0:0:0:
117,384,36976,2,0,P|150:384|207:347,1,80,2|0,0:0|0:0,0:0:0:0:
155,283,37265,2,0,P|76:301|-6:327,1,160,10|8,0:0|0:3,0:0:0:0:
260,162,37700,1,8,0:3:0:0:
336,235,37845,1,10,0:0:0:0:
339,247,38135,6,0,P|326:294|315:342,1,80,2|0,0:0|0:0,0:0:0:0:
480,192,38425,2,0,P|467:145|456:97,1,80,10|0,0:0|0:0,0:0:0:0:
433,292,38715,2,0,P|478:300|513:336,1,80,10|10,0:0|0:0,0:0:0:0:
291,146,39005,6,0,P|330:141|361:117,1,80,10|0,0:0|0:0,0:0:0:0:
361,117,39294,6,0,P|252:71|250:213,1,240,6|0,0:0|0:0,0:0:0:0:
285,377,39584,2,0,B|310:259|310:259|289:293|251:302,1,180.000006866455,10|0,0:0|0:0,0:0:0:0:
242,227,39874,5,8,0:3:0:0:
242,227,40019,1,8,0:3:0:0:
393,320,40164,1,10,0:0:0:0:
404,331,40454,6,0,P|451:316|496:311,1,80,2|0,0:0|0:0,0:0:0:0:
336,235,40744,1,10,0:0:0:0:
431,86,40889,2,0,B|399:165|462:151|419:260,1,160,8|8,0:3|0:3,0:0:0:0:
268,57,41323,6,0,P|255:131|321:76,1,180.000006866455,10|0,0:0|0:0,0:0:0:0:
321,87,41613,2,0,P|221:71|128:52,2,160,2|10|8,0:0|0:0|0:3,0:0:0:0:
404,27,42338,1,8,0:3:0:0:
480,192,42483,6,0,P|446:169|381:167,1,80,10|0,0:0|0:0,0:0:0:0:
346,322,42773,2,0,P|380:345|445:347,1,80,2|0,0:0|0:0,0:0:0:0:
413,257,43062,1,10,0:0:0:0:
334,221,43207,2,0,B|254:201|280:283|169:258,1,160,0|8,0:0|0:3,0:0:0:0:
186,87,43642,6,0,B|214:79|231:63|231:63|218:114|206:169,2,160,10|2|8,0:0|0:0|0:0,0:0:0:0:
174,3,44367,1,0,0:0:0:0:
311,105,44512,2,0,B|364:96|364:96|404:116|404:116|473:104,1,160,2|8,0:0|0:0,0:0:0:0:
419,18,44947,1,2,0:0:0:0:
349,192,45091,6,0,P|363:245|390:354,1,160,2|8,0:0|0:0,0:0:0:0:
184,212,45526,2,0,P|229:212|274:256,1,80,2|2,0:0|0:0,0:0:0:0:
206,293,45816,1,0,0:0:0:0:
228,374,45961,2,0,P|183:374|138:330,1,80,8|0,0:0|0:0,0:0:0:0:
160,135,46251,6,0,P|174:182|189:230,1,80,2|0,0:0|0:0,0:0:0:0:
75,191,46541,2,0,P|63:153|52:114,1,80,10|0,0:0|0:0,0:0:0:0:
254,49,46831,5,8,0:3:0:0:
177,0,46976,1,8,0:3:0:0:
109,45,47120,2,0,P|80:30|30:30,1,80,10|0,0:0|0:0,0:0:0:0:
90,171,47410,6,0,P|124:184|176:211,2,53.3333333333333,10|10|10,0:0|0:0|0:0,0:0:0:0:
224,136,47700,2,0,P|237:102|264:50,2,53.3333333333333,10|10|10,0:0|0:0|0:0,0:0:0:0:
109,45,47990,2,0,P|119:69|129:94,2,53.3333333333333,10|10|10,0:0|0:0|0:0,0:0:0:0:
241,0,48280,2,0,P|197:19|156:21,2,53.3333333333333,10|10|10,0:0|0:0|0:0,0:0:0:0:
328,70,48570,6,0,P|387:25|496:39,1,180.000006866455,6|2,0:0|0:0,0:0:0:0:
470,213,49149,2,0,P|444:150|420:102,1,120.000004577637,2|2,0:0|0:0,0:0:0:0:
488,34,49584,1,2,0:0:0:0:
353,170,49729,2,0,P|314:150|276:140,1,60.0000022888184,4|4,0:3|0:3,0:0:0:0:
172,106,50019,6,0,B|245:117|222:61|299:71,1,120.000004577637,4|2,0:3|0:0,0:0:0:0:
245,2,50454,1,0,0:0:0:0:
245,2,50744,1,0,0:0:0:0:
353,170,50889,6,0,B|268:148|281:214|174:183,2,160,6|10|2,0:0|0:0|0:0,0:0:0:0:
357,317,51614,2,0,P|344:280|320:249,1,80,2|10,0:0|0:0,0:0:0:0:
467,81,51903,2,0,P|417:142|392:218,1,160,2|0,0:0|0:0,0:0:0:0:
318,324,52338,5,10,0:0:0:0:
233,293,52483,1,0,0:0:0:0:
163,351,52628,1,2,0:0:0:0:
247,383,52773,1,2,0:0:0:0:
247,383,52845,1,0,0:0:0:0:
247,383,52918,1,10,0:0:0:0:
233,293,53063,6,0,P|221:211|208:112,1,160,2|0,0:0|0:0,0:0:0:0:
227,24,53498,2,0,P|266:21|300:1,1,80,10|0,0:0|0:0,0:0:0:0:
153,69,53787,2,0,P|119:48|80:46,1,80,2|2,0:0|0:0,0:0:0:0:
146,195,54077,5,10,0:0:0:0:
210,134,54222,2,0,B|304:103|277:169|370:139,1,160,2|0,0:0|0:0,0:0:0:0:
475,322,54657,2,0,P|491:288|483:239,1,80,10|0,0:0|0:0,0:0:0:0:
396,235,54947,2,0,P|380:269|388:318,2,80,2|2|10,0:0|0:0|0:0,0:0:0:0:
364,140,55382,2,0,B|276:169|303:103|209:134,1,160,2|0,0:0|0:0,0:0:0:0:
148,214,55816,6,0,P|137:252|126:291,1,80,10|0,0:0|0:0,0:0:0:0:
84,126,56106,2,0,P|73:87|62:48,1,80,2|2,0:0|0:0,0:0:0:0:
61,365,56396,1,10,0:0:0:0:
126,291,56541,2,0,B|200:270|205:338|292:314,1,160,2|0,0:0|0:0,0:0:0:0:
424,195,56976,5,10,0:0:0:0:
339,226,57121,1,0,0:0:0:0:
269,168,57266,1,2,0:0:0:0:
353,136,57411,1,2,0:0:0:0:
353,136,57483,1,0,0:0:0:0:
353,136,57556,1,10,0:0:0:0:
339,226,57701,6,0,P|327:308|314:407,1,160,2|0,0:0|0:0,0:0:0:0:
253,268,58135,2,0,P|210:249|159:249,1,80,10|0,0:0|0:0,0:0:0:0:
416,296,58425,2,0,P|456:301|492:318,2,80,2|2|10,0:0|0:0|0:0,0:0:0:0:
361,220,58860,2,0,B|383:129|329:152|370:50,1,160,2|0,0:0|0:0,0:0:0:0:
438,107,59294,2,0,P|474:89|511:75,1,80,10|0,0:0|0:0,0:0:0:0:
263,180,59584,1,2,0:0:0:0:
263,180,59729,1,2,0:0:0:0:
231,86,59874,6,0,P|238:47|253:-10,1,80,8|0,0:0|0:0,0:0:0:0:
108,161,60164,2,0,B|192:136|175:211|291:171,2,160,6|10|2,0:0|0:0|0:0,0:0:0:0:
176,318,60889,2,0,P|163:280|139:250,1,80,2|10,0:0|0:0,0:0:0:0:
331,144,61178,2,0,P|281:205|256:281,1,160,2|0,0:0|0:0,0:0:0:0:
448,320,61613,5,10,0:0:0:0:
363,289,61758,1,0,0:0:0:0:
293,347,61903,1,2,0:0:0:0:
377,379,62048,1,2,0:0:0:0:
377,379,62120,1,0,0:0:0:0:
377,379,62193,1,10,0:0:0:0:
363,289,62338,6,0,P|351:207|338:108,1,160,2|0,0:0|0:0,0:0:0:0:
197,192,62773,2,0,P|236:189|270:169,1,80,10|0,0:0|0:0,0:0:0:0:
222,3,63062,2,0,P|182:5|148:25,1,80,2|2,0:0|0:0,0:0:0:0:
210,96,63352,1,10,0:0:0:0:
299,60,63497,6,0,B|393:29|366:95|459:65,1,160,2|0,0:0|0:0,0:0:0:0:
496,165,63932,2,0,P|501:205|485:241,1,80,10|0,0:0|0:0,0:0:0:0:
394,229,64222,2,0,P|389:189|406:154,2,80,2|2|10,0:0|0:0|0:0,0:0:0:0:
453,66,64657,2,0,B|365:95|392:29|298:60,1,160,2|0,0:0|0:0,0:0:0:0:
230,121,65091,6,0,P|219:159|208:198,1,80,10|0,0:0|0:0,0:0:0:0:
44,143,65381,2,0,P|54:104|65:65,1,80,2|2,0:0|0:0,0:0:0:0:
175,34,65671,1,10,0:0:0:0:
137,104,65816,2,0,B|158:178|90:183|114:270,1,160,2|0,0:0|0:0,0:0:0:0:
251,228,66251,5,10,0:0:0:0:
282,313,66396,1,0,0:0:0:0:
224,383,66541,1,2,0:0:0:0:
192,299,66686,1,2,0:0:0:0:
192,299,66758,1,0,0:0:0:0:
192,299,66831,1,10,0:0:0:0:
282,313,66976,6,0,P|364:325|463:338,1,160,2|0,0:0|0:0,0:0:0:0:
502,260,67410,2,0,P|459:241|408:241,1,80,10|0,0:0|0:0,0:0:0:0:
340,165,67700,2,0,P|379:160|415:143,2,80,2|2|10,0:0|0:0|0:0,0:0:0:0:
174,94,68135,1,0,0:0:0:0:
253,13,68280,5,8,0:0:0:0:
253,13,68352,1,8,0:0:0:0:
253,13,68425,2,0,L|266:57,1,40,8|8,0:0|0:0,0:0:0:0:
143,216,68570,5,8,0:0:0:0:
143,216,68642,1,8,0:0:0:0:
143,216,68715,2,0,L|130:172,1,40,8|8,0:0|0:0,0:0:0:0:
252,146,68860,5,4,0:3:0:0:
79,77,69005,1,4,0:3:0:0:
79,77,69077,1,4,0:3:0:0:
79,77,69149,1,2,0:0:0:0:
384,0,69294,5,4,0:1:0:0:
256,192,69367,12,0,74077,0:0:0:0:
