osu file format v14

[General]
AudioFilename: audio.mp3
AudioLeadIn: 0
PreviewTime: 64362
Countdown: 0
SampleSet: Soft
StackLeniency: 0.7
Mode: 0
LetterboxInBreaks: 0
WidescreenStoryboard: 1

[Editor]
DistanceSpacing: 1.5
BeatDivisor: 4
GridSize: 8
TimelineZoom: 0.8999996

[Metadata]
Title:"Tenohira" (TV Size)
TitleUnicode:「テノヒラ」(TV Size)
Artist:HERO
ArtistUnicode:HERO
Creator:Log Off Now
Version:Hard
Source:FAIRY TAIL
Tags:フェアリーテイル japanese anime opening 12 jin browiec mnyui
BeatmapID:2282065
BeatmapSetID:1091595

[Difficulty]
HPDrainRate:4.5
CircleSize:3.2
OverallDifficulty:7
ApproachRate:8
SliderMultiplier:1.2
SliderTickRate:1

[Events]
//Background and Video events
0,0,"anime.jpg",0,0
Video,-796,"fairytailop12.avi"
//Break Periods
//Storyboard Layer 0 (Background)
//Storyboard Layer 1 (Fail)
//Storyboard Layer 2 (Pass)
//Storyboard Layer 3 (Foreground)
//Storyboard Layer 4 (Overlay)
//Storyboard Sound Samples

[TimingPoints]
15,289.855072463768,4,2,1,75,1,0
9290,-100,4,2,1,65,0,0
17406,-100,4,2,1,70,0,0
18565,-100,4,2,1,65,0,0
25522,-100,4,2,1,65,0,0
26101,-100,4,2,1,70,0,0
27261,-100,4,2,1,70,0,0
27841,-90.9090909090909,4,2,1,80,0,1
32478,-90.9090909090909,4,2,1,80,0,1
36826,-90.9090909090909,4,2,1,80,0,1
44072,-100,4,2,1,70,0,0
46391,-100,4,2,1,65,0,0
54507,-100,4,2,1,70,0,0
55667,-100,4,2,1,65,0,0
62623,-100,4,2,1,65,0,0
63203,-100,4,2,1,70,0,0
64362,-100,4,2,1,70,0,0
64942,-90.9090909090909,4,2,1,80,0,1
69580,-90.9090909090909,4,2,1,80,0,1
73928,-90.9090909090909,4,2,1,80,0,1
83493,-100,4,2,1,80,0,0
87551,-100,4,2,1,60,0,0
88130,-100,4,2,1,30,0,0
88710,-100,4,2,1,5,0,0

[Colours]
Combo1 : 255,0,140
Combo2 : 255,53,53
Combo3 : 255,115,47
Combo4 : 245,240,31

[HitObjects]
161,343,15,6,0,P|201:330|288:319,1,120,4|10,1:0|0:0,0:0:0:0:
351,371,449,1,0,0:0:0:0:
409,302,594,2,0,L|489:314,2,60,0|0|8,1:0|1:0|0:0,0:0:0:0:
368,220,1029,6,0,L|232:239,1,120,2|0,1:2|1:0,0:0:0:0:
188,169,1464,2,0,P|200:119|196:93,1,60,10|0,0:0|0:0,0:0:0:0:
124,59,1754,2,0,P|68:83|57:85,1,60,0|0,1:0|1:0,0:0:0:0:
15,155,2043,1,8,0:0:0:0:
66,229,2188,6,0,P|115:199|183:195,1,120,2|0,1:2|1:0,0:0:0:0:
263,219,2623,2,0,L|255:134,1,60,10|0,0:0|0:0,0:0:0:0:
325,99,2913,2,0,L|333:14,2,60,0|0|8,1:0|1:0|0:0,0:0:0:0:
402,145,3348,6,0,L|390:280,1,120,2|0,1:2|1:0,0:0:0:0:
316,317,3783,1,10,0:0:0:0:
188,190,4072,2,0,L|179:273,1,60,0|0,1:0|1:0,0:0:0:0:
116,312,4362,1,8,0:0:0:0:
181,373,4507,6,0,P|233:343|310:341,1,120,2|0,1:2|1:0,0:0:0:0:
360,278,4942,2,0,L|351:195,1,60,10|0,0:0|0:0,0:0:0:0:
280,164,5232,2,0,L|286:104,2,60,0|0|8,1:0|1:0|0:0,0:0:0:0:
210,222,5667,6,0,B|133:216|164:250|78:237,1,120,2|0,1:2|1:0,0:0:0:0:
27,177,6101,2,0,P|64:134|66:111,1,60,10|0,0:0|0:0,0:0:0:0:
71,42,6391,2,0,P|110:61|137:64,1,60,0|0,1:0|1:0,0:0:0:0:
201,13,6681,1,8,0:0:0:0:
265,75,6826,6,0,B|304:56|304:56|397:77,1,120,2|0,1:2|1:0,0:0:0:0:
438,140,7261,2,0,L|427:216,1,60,10|0,0:0|0:0,0:0:0:0:
353,246,7551,1,2,1:3:0:0:
353,246,7696,2,0,L|341:164,1,60,2|8,1:3|0:0,0:0:0:0:
269,135,7986,6,0,P|235:163|147:170,1,120,4|0,1:2|1:0,0:0:0:0:
83,129,8420,2,0,B|113:169|113:169|99:260,1,120,12|0,0:0|1:0,0:0:0:0:
162,305,8855,1,8,0:0:0:0:
162,305,8928,1,8,0:0:0:0:
162,305,9000,2,0,L|167:359,3,30,8|8|8|8,0:0|0:0|0:0|0:0,0:0:0:0:
195,367,9290,6,0,P|246:342|328:345,1,120,4|8,1:0|0:0,0:0:0:0:
390,378,9725,1,0,0:0:0:0:
459,320,9870,2,0,P|434:268|435:244,1,60,2|0,1:2|1:0,0:0:0:0:
475,186,10159,2,0,P|492:129|485:103,1,60,10|2,0:0|0:0,0:0:0:0:
433,60,10449,6,0,B|375:85|375:85|304:69,1,120,0|8,1:2|0:0,0:0:0:0:
237,110,10884,1,2,0:0:0:0:
292,181,11029,2,0,P|320:214|327:249,1,60,0|0,1:2|1:0,0:0:0:0:
278,308,11319,1,8,0:0:0:0:
278,308,11464,6,0,P|219:284|150:286,1,120,2|0,0:0|0:0,0:0:0:0:
94,342,11899,1,10,0:0:0:0:
24,176,12188,2,0,L|107:191,1,60,0|0,1:0|1:0,0:0:0:0:
152,127,12478,2,0,L|235:112,1,60,10|0,0:0|0:0,0:0:0:0:
276,179,12768,6,0,P|326:170|402:177,2,120,2|8|2,1:2|0:0|1:2,0:0:0:0:
232,258,13493,1,0,1:0:0:0:
293,323,13638,1,10,0:0:0:0:
293,323,13783,2,0,P|339:302|410:312,1,120,2|2,0:0|0:0,0:0:0:0:
474,368,14217,2,0,L|458:234,1,120,10|0,0:0|1:0,0:0:0:0:
502,168,14652,1,0,1:0:0:0:
502,168,14797,1,8,0:0:0:0:
394,23,15087,6,0,L|386:98,1,60,0|2,1:0|0:0,0:0:0:0:
319,142,15377,2,0,P|263:117|247:116,1,60,8|2,0:0|0:0,0:0:0:0:
202,51,15667,2,0,P|146:76|130:77,1,60,0|0,1:0|1:0,0:0:0:0:
75,130,15957,1,10,0:0:0:0:
75,130,16101,6,0,B|102:164|102:164|88:260,1,120,2|2,0:0|0:0,0:0:0:0:
45,318,16536,2,0,P|99:289|159:295,1,120,10|0,0:0|1:0,0:0:0:0:
223,355,16971,1,0,1:0:0:0:
284,289,17116,2,0,L|276:221,1,60,8|0,0:0|0:0,0:0:0:0:
338,162,17406,5,4,1:2:0:0:
422,217,17551,1,8,0:0:0:0:
422,217,17623,1,8,0:0:0:0:
422,217,17696,2,0,L|428:157,1,60,8|8,0:0|0:0,0:0:0:0:
381,79,17986,2,0,L|374:19,1,60,8|8,0:0|0:0,0:0:0:0:
307,132,18275,2,0,L|300:191,1,60,8|8,0:0|0:0,0:0:0:0:
223,239,18565,6,0,P|180:203|101:199,1,120,4|0,1:2|1:0,0:0:0:0:
5,336,19145,2,0,L|31:153,1,180,10|10,0:0|0:0,0:0:0:0:
97,97,19725,1,0,1:0:0:0:
97,97,19870,2,0,P|133:135|217:143,1,120,10|0,0:0|1:0,0:0:0:0:
266,90,20304,2,0,P|302:52|386:44,1,120,10|0,0:0|0:0,0:0:0:0:
439,92,20739,1,10,0:0:0:0:
439,92,20884,6,0,L|422:229,1,120,0|0,1:0|1:0,0:0:0:0:
307,348,21464,2,0,P|261:297|191:291,1,120,10|0,0:0|0:0,0:0:0:0:
134,332,21899,1,10,0:0:0:0:
70,268,22043,1,0,1:0:0:0:
70,268,22188,2,0,L|85:136,1,120,10|0,0:0|1:0,0:0:0:0:
155,94,22623,2,0,P|187:117|268:98,1,120,10|0,0:0|0:0,0:0:0:0:
323,37,23058,1,10,0:0:0:0:
390,96,23203,6,0,B|424:130|424:130|410:224,1,120,0|0,1:0|1:0,0:0:0:0:
291,334,23783,2,0,B|257:300|257:300|271:206,1,120,10|0,0:0|0:0,0:0:0:0:
335,169,24217,1,10,0:0:0:0:
406,223,24362,1,0,1:0:0:0:
406,223,24507,2,0,L|395:297,1,60,10|0,0:0|0:0,0:0:0:0:
334,347,24797,1,0,1:0:0:0:
264,289,24942,2,0,P|222:318|150:331,1,120,10|0,0:0|0:0,0:0:0:0:
86,271,25377,1,10,0:0:0:0:
111,184,25522,6,0,L|196:196,1,60,0|0,1:0|0:0,0:0:0:0:
197,105,25812,2,0,L|282:117,1,60,0|0,1:0|0:0,0:0:0:0:
293,195,26101,6,0,L|378:183,1,60,8|0,0:0|0:0,0:0:0:0:
391,104,26391,2,0,L|476:92,1,60,4|0,1:2|0:0,0:0:0:0:
510,163,26681,5,0,1:0:0:0:
472,244,26826,2,0,L|480:285,2,30,8|8|8,0:0|0:0|0:0,0:0:0:0:
385,216,27116,1,8,0:0:0:0:
385,216,27188,1,8,0:0:0:0:
385,216,27261,6,0,B|339:253|296:244|296:244|268:213|238:206|209:214,1,180,2|0,1:3|0:0,0:0:0:0:
140,267,27841,6,0,L|127:182,1,66.0000020141602,4|0,1:0|0:0,0:0:0:0:
190,122,28130,2,0,L|203:37,1,66.0000020141602,10|0,0:0|0:0,0:0:0:0:
121,1,28420,1,2,1:2:0:0:
121,1,28565,1,0,1:2:0:0:
58,77,28710,2,0,P|6:99|-18:98,1,66.0000020141602,10|0,0:0|0:0,0:0:0:0:
35,191,29000,6,0,L|13:350,1,132.00000402832,2|8,1:2|0:0,0:0:0:0:
99,377,29435,2,0,P|140:338|228:342,1,132.00000402832,0|0,1:2|1:0,0:0:0:0:
304,373,29870,2,0,L|295:292,1,66.0000020141602,10|0,0:0|0:0,0:0:0:0:
308,208,30159,6,0,P|367:236|386:236,1,66.0000020141602,2|0,1:2|0:0,0:0:0:0:
442,170,30449,2,0,P|501:142|520:142,1,66.0000020141602,10|0,0:0|0:0,0:0:0:0:
437,64,30739,1,2,1:2:0:0:
437,64,30884,1,0,1:0:0:0:
363,130,31029,2,0,P|304:158|285:158,1,66.0000020141602,10|0,0:0|0:0,0:0:0:0:
225,97,31319,6,0,B|258:132|258:132|246:226,1,132.00000402832,2|10,1:2|0:0,0:0:0:0:
293,304,31754,2,0,P|241:264|167:269,1,132.00000402832,0|0,1:2|1:0,0:0:0:0:
98,325,32188,1,10,0:0:0:0:
98,325,32333,1,2,0:0:0:0:
13,273,32478,6,0,L|29:139,1,132.00000402832,2|8,1:2|0:0,0:0:0:0:
46,43,32913,1,2,0:0:0:0:
46,43,33058,2,0,B|119:44|85:75|183:74,1,132.00000402832,2|8,1:2|0:0,0:0:0:0:
253,16,33493,1,2,0:0:0:0:
318,90,33638,6,0,P|306:159|300:231,1,132.00000402832,2|8,1:2|0:0,0:0:0:0:
357,301,34072,1,2,1:2:0:0:
357,301,34217,2,0,P|405:287|437:288,1,66.0000020141602,2|0,0:0|1:0,0:0:0:0:
506,232,34507,1,8,0:0:0:0:
506,232,34652,2,0,P|485:273|499:373,1,132.00000402832,2|0,0:0|0:0,0:0:0:0:
391,370,35087,6,0,P|348:352|257:352,1,132.00000402832,8|0,0:0|1:0,0:0:0:0:
165,368,35522,1,0,1:0:0:0:
204,277,35667,2,0,P|216:219|211:196,1,66.0000020141602,8|0,0:0|0:0,0:0:0:0:
133,156,35957,6,0,L|40:169,1,66.0000020141602,0|0,1:0|0:0,0:0:0:0:
87,68,36246,2,0,L|152:58,1,66.0000020141602,8|0,0:0|1:0,0:0:0:0:
228,123,36536,1,2,0:0:0:0:
228,123,36681,1,0,1:0:0:0:
292,47,36826,1,8,0:0:0:0:
416,201,37116,6,0,L|350:191,1,66.0000020141602,4|0,1:0|0:0,0:0:0:0:
279,261,37406,2,0,L|213:270,1,66.0000020141602,10|0,0:0|0:0,0:0:0:0:
133,210,37696,1,2,1:2:0:0:
133,210,37841,1,0,1:0:0:0:
53,268,37986,2,0,P|70:309|63:346,1,66.0000020141602,10|0,0:0|0:0,0:0:0:0:
150,382,38275,6,0,P|212:363|295:365,1,132.00000402832,2|8,1:2|0:0,0:0:0:0:
366,314,38710,2,0,B|340:271|340:271|354:171,1,132.00000402832,0|0,1:2|1:0,0:0:0:0:
415,113,39145,2,0,L|404:17,1,66.0000020141602,10|0,0:0|0:0,0:0:0:0:
312,16,39435,6,0,P|264:40|221:39,1,66.0000020141602,2|0,1:2|0:0,0:0:0:0:
168,95,39725,2,0,P|120:71|77:72,1,66.0000020141602,10|0,0:0|0:0,0:0:0:0:
32,133,40014,1,2,1:2:0:0:
32,133,40159,1,0,1:0:0:0:
86,215,40304,2,0,L|75:302,1,66.0000020141602,10|0,0:0|0:0,0:0:0:0:
143,355,40594,6,0,P|186:310|276:301,1,132.00000402832,2|8,1:2|0:0,0:0:0:0:
327,230,41029,2,0,L|309:374,1,132.00000402832,0|0,1:0|1:0,0:0:0:0:
410,363,41464,2,0,P|454:336|484:337,1,66.0000020141602,10|0,0:0|0:0,0:0:0:0:
493,238,41754,6,0,P|462:207|454:117,1,132.00000402832,2|8,1:2|0:0,0:0:0:0:
398,39,42188,1,2,0:0:0:0:
398,39,42333,2,0,B|325:40|359:71|261:70,1,132.00000402832,2|8,1:2|0:0,0:0:0:0:
187,16,42768,1,2,0:0:0:0:
118,87,42913,6,0,L|130:224,1,132.00000402832,2|8,1:2|0:0,0:0:0:0:
220,281,43348,1,8,0:0:0:0:
220,281,43420,1,8,0:0:0:0:
220,281,43493,2,0,L|231:188,1,66.0000020141602,8|8,0:0|0:0,0:0:0:0:
286,136,43783,1,8,0:0:0:0:
286,136,43928,1,8,0:0:0:0:
348,199,44072,6,0,B|386:174|420:175|420:175|425:195|453:207|453:207|482:194|508:196,1,180,4|0,1:2|1:0,0:0:0:0:
505,287,44652,1,8,0:0:0:0:
505,287,44797,2,0,L|496:362,1,60,0|8,1:0|0:0,0:0:0:0:
407,348,45087,6,0,P|367:317|300:314,1,120,4|0,1:2|1:0,0:0:0:0:
227,368,45522,2,0,L|243:224,1,120,8|0,0:0|1:0,0:0:0:0:
308,188,45957,1,8,0:0:0:0:
308,188,46029,1,8,0:0:0:0:
308,188,46101,2,0,L|301:135,3,30,8|8|8|8,0:0|0:0|0:0|0:0,0:0:0:0:
296,113,46391,6,0,P|238:147|162:132,1,120,4|8,1:0|0:0,0:0:0:0:
120,82,46826,1,0,0:0:0:0:
53,143,46971,2,0,L|61:212,1,60,2|0,1:2|1:0,0:0:0:0:
102,282,47261,2,0,P|129:263|166:258,1,60,10|2,0:0|0:0,0:0:0:0:
223,317,47551,6,0,B|203:257|203:257|229:191,1,120,0|8,1:2|0:0,0:0:0:0:
283,136,47986,1,2,0:0:0:0:
344,201,48130,2,0,P|375:224|415:230,1,60,0|0,1:2|1:0,0:0:0:0:
469,176,48420,1,8,0:0:0:0:
469,176,48565,2,0,L|458:303,1,120,2|0,0:0|0:0,0:0:0:0:
398,363,49000,1,10,0:0:0:0:
309,206,49290,2,0,L|249:216,1,60,0|0,1:0|1:0,0:0:0:0:
179,275,49580,2,0,L|96:260,1,60,10|0,0:0|0:0,0:0:0:0:
48,208,49870,6,0,P|65:253|43:331,2,120,2|8|2,1:2|0:0|1:2,0:0:0:0:
103,137,50594,1,0,1:0:0:0:
184,186,50739,1,10,0:0:0:0:
184,186,50884,2,0,P|234:171|311:176,1,120,2|2,0:0|0:0,0:0:0:0:
369,232,51319,2,0,L|358:98,1,120,10|0,0:0|1:0,0:0:0:0:
298,52,51753,1,0,1:0:0:0:
298,52,51898,1,8,0:0:0:0:
471,4,52188,6,0,L|463:79,1,60,0|2,1:0|0:0,0:0:0:0:
390,115,52478,2,0,L|398:190,1,60,8|2,0:0|0:0,0:0:0:0:
356,255,52768,2,0,P|300:230|284:229,1,60,0|0,1:0|1:0,0:0:0:0:
230,175,53058,1,10,0:0:0:0:
205,261,53203,6,0,P|163:273|65:245,1,120,2|2,0:0|0:0,0:0:0:0:
28,192,53638,2,0,B|0:241|0:241|7:310,1,120,10|0,0:0|1:0,0:0:0:0:
73,364,54072,1,0,1:0:0:0:
148,314,54217,2,0,P|189:298|218:303,1,60,8|0,0:0|0:0,0:0:0:0:
277,352,54507,5,4,1:2:0:0:
353,301,54652,1,8,0:0:0:0:
353,301,54724,1,8,0:0:0:0:
353,301,54797,2,0,L|347:241,1,60,8|8,0:0|0:0,0:0:0:0:
273,184,55087,2,0,L|280:124,1,60,8|8,0:0|0:0,0:0:0:0:
197,236,55377,2,0,L|204:295,1,60,8|8,0:0|0:0,0:0:0:0:
133,352,55667,6,0,P|90:316|11:312,1,120,4|0,1:2|1:0,0:0:0:0:
15,127,56246,2,0,B|64:167|64:167|191:150,1,180,10|10,0:0|0:0,0:0:0:0:
250,94,56826,1,0,1:0:0:0:
250,94,56971,2,0,P|233:143|265:221,1,120,10|0,0:0|1:0,0:0:0:0:
323,152,57406,2,0,L|461:168,1,120,10|0,0:0|0:0,0:0:0:0:
492,241,57840,1,10,0:0:0:0:
492,241,57986,6,0,P|467:296|469:359,1,120,0|0,1:0|1:0,0:0:0:0:
289,379,58565,2,0,L|305:241,1,120,10|0,0:0|0:0,0:0:0:0:
235,199,59000,1,10,0:0:0:0:
179,270,59145,1,0,1:0:0:0:
179,270,59290,2,0,L|164:138,1,120,10|0,0:0|1:0,0:0:0:0:
114,75,59725,2,0,P|146:98|227:79,1,120,10|0,0:0|0:0,0:0:0:0:
295,32,60159,1,10,0:0:0:0:
357,96,60304,6,0,L|342:224,1,120,0|0,1:0|1:0,0:0:0:0:
205,332,60884,2,0,B|284:326|247:363|338:358,1,120,10|0,0:0|0:0,0:0:0:0:
384,295,61319,1,10,0:0:0:0:
331,221,61464,1,0,1:0:0:0:
331,221,61609,2,0,L|252:232,1,60,10|0,0:0|0:0,0:0:0:0:
209,294,61899,1,0,1:0:0:0:
144,232,62043,2,0,P|100:210|18:221,1,120,10|0,0:0|0:0,0:0:0:0:
1,128,62478,1,10,0:0:0:0:
100,60,62623,6,0,L|87:140,1,60,0|0,1:0|0:0,0:0:0:0:
148,188,62913,2,0,L|161:268,1,60,0|0,1:0|0:0,0:0:0:0:
232,143,63203,6,0,L|245:63,1,60,8|0,0:0|0:0,0:0:0:0:
311,198,63493,2,0,L|320:257,1,60,4|0,1:2|0:0,0:0:0:0:
399,170,63783,5,0,1:0:0:0:
483,202,63928,2,0,L|479:234,2,30,8|8|8,0:0|0:0|0:0,0:0:0:0:
496,112,64217,1,8,0:0:0:0:
496,112,64290,1,8,0:0:0:0:
496,112,64362,6,0,B|481:73|429:54|429:54|395:93|325:81,1,180,2|0,1:3|0:0,0:0:0:0:
269,143,64942,6,0,L|256:50,1,66.0000020141602,4|0,1:0|0:0,0:0:0:0:
183,13,65232,2,0,P|140:41|107:45,1,66.0000020141602,10|0,0:0|0:0,0:0:0:0:
34,19,65522,1,2,1:2:0:0:
34,19,65667,1,0,1:2:0:0:
57,115,65812,2,0,P|62:161|54:192,1,66.0000020141602,10|0,0:0|0:0,0:0:0:0:
39,277,66101,6,0,B|103:259|103:259|176:280,1,132.00000402832,2|8,1:2|0:0,0:0:0:0:
251,225,66536,2,0,P|220:281|254:366,1,132.00000402832,0|0,1:2|1:0,0:0:0:0:
322,298,66971,2,0,P|361:292|395:297,1,66.0000020141602,10|0,0:0|0:0,0:0:0:0:
482,323,67261,6,0,L|471:237,1,66.0000020141602,2|0,1:2|0:0,0:0:0:0:
398,192,67551,2,0,L|409:106,1,66.0000020141602,10|0,0:0|0:0,0:0:0:0:
474,54,67841,1,2,1:2:0:0:
474,54,67986,1,0,1:0:0:0:
386,8,68131,2,0,P|327:36|308:36,1,66.0000020141602,10|0,0:0|0:0,0:0:0:0:
268,115,68420,6,0,P|230:85|140:83,1,132.00000402832,2|10,1:2|0:0,0:0:0:0:
58,37,68855,2,0,L|69:172,1,132.00000402832,0|0,1:2|1:0,0:0:0:0:
83,271,69290,1,10,0:0:0:0:
83,271,69435,1,2,0:0:0:0:
163,212,69580,6,0,B|250:210|216:241|289:242,1,132.00000402832,2|8,1:2|0:0,0:0:0:0:
377,195,70014,1,2,0:0:0:0:
377,195,70160,2,0,P|345:261|369:330,1,132.00000402832,2|8,1:2|0:0,0:0:0:0:
281,379,70595,1,2,0:0:0:0:
202,319,70739,6,0,P|147:299|67:306,1,132.00000402832,2|8,1:2|0:0,0:0:0:0:
13,224,71174,1,2,1:2:0:0:
13,224,71319,2,0,P|23:192|25:159,1,66.0000020141602,2|0,0:0|1:0,0:0:0:0:
4,62,71609,1,8,0:0:0:0:
4,62,71754,2,0,B|91:60|57:91|130:92,1,132.00000402832,2|0,0:0|0:0,0:0:0:0:
201,23,72188,6,0,B|227:54|227:54|211:168,1,132.00000402832,8|0,0:0|1:0,0:0:0:0:
205,244,72624,1,0,1:0:0:0:
292,197,72769,2,0,P|350:185|373:190,1,66.0000020141602,8|0,0:0|0:0,0:0:0:0:
431,250,73059,6,0,L|421:315,1,66.0000020141602,0|0,1:0|0:0,0:0:0:0:
340,371,73348,2,0,L|330:305,1,66.0000020141602,8|0,0:0|1:0,0:0:0:0:
261,242,73638,1,2,0:0:0:0:
261,242,73783,1,0,1:0:0:0:
188,309,73928,1,8,0:0:0:0:
96,133,74218,6,0,L|162:123,1,66.0000020141602,4|0,1:0|0:0,0:0:0:0:
233,193,74508,2,0,L|299:202,1,66.0000020141602,10|0,0:0|0:0,0:0:0:0:
379,142,74798,1,2,1:2:0:0:
379,142,74943,1,0,1:0:0:0:
459,200,75088,2,0,P|442:241|449:278,1,66.0000020141602,10|0,0:0|0:0,0:0:0:0:
379,337,75377,6,0,P|318:308|234:320,1,132.00000402832,2|8,1:2|0:0,0:0:0:0:
167,359,75812,2,0,B|154:218,1,132.00000402832,0|0,1:2|1:0,0:0:0:0:
230,162,76247,2,0,L|241:66,1,66.0000020141602,10|0,0:0|0:0,0:0:0:0:
176,17,76537,6,0,P|128:41|85:40,1,66.0000020141602,2|0,1:2|0:0,0:0:0:0:
19,19,76827,2,0,P|30:63|24:109,1,66.0000020141602,10|0,0:0|0:0,0:0:0:0:
10,183,77116,1,2,1:2:0:0:
10,183,77261,1,0,1:0:0:0:
103,150,77406,2,0,L|114:237,1,66.0000020141602,10|0,0:0|0:0,0:0:0:0:
67,305,77696,6,0,P|122:266|196:286,1,132.00000402832,2|8,1:2|0:0,0:0:0:0:
253,346,78131,2,0,B|282:310|282:310|270:200,1,132.00000402832,0|0,1:0|1:0,0:0:0:0:
209,148,78565,2,0,L|220:61,1,66.0000020141602,10|0,0:0|0:0,0:0:0:0:
297,22,78856,6,0,P|328:53|418:61,1,132.00000402832,2|8,1:2|0:0,0:0:0:0:
487,128,79290,1,2,0:0:0:0:
487,128,79435,2,0,P|462:178|456:262,1,132.00000402832,2|8,1:2|0:0,0:0:0:0:
386,325,79870,1,2,0:0:0:0:
321,251,80014,6,0,B|284:223|284:223|191:236,1,132.00000402832,2|8,1:2|0:0,0:0:0:0:
129,305,80449,1,0,1:0:0:0:
55,238,80594,2,0,L|65:161,1,66.0000020141602,2|0,0:0|1:0,0:0:0:0:
120,92,80884,1,8,0:0:0:0:
120,92,81029,2,0,P|163:128|247:117,1,132.00000402832,2|0,0:0|0:0,0:0:0:0:
310,58,81464,6,0,L|382:71,1,66.0000020141602,8|0,0:0|0:0,0:0:0:0:
457,131,81754,1,2,1:2:0:0:
457,131,81899,1,0,1:0:0:0:
391,203,82043,2,0,P|383:251|384:279,1,66.0000020141602,12|0,0:0|0:0,0:0:0:0:
314,340,82333,6,0,L|320:393,2,44.0000013427735,8|8|8,0:0|0:0|0:0,0:0:0:0:
246,277,82623,2,0,L|281:250,2,44.0000013427735,8|8|8,0:0|0:0|0:0,0:0:0:0:
184,356,82913,2,0,L|224:373,2,44.0000013427735,8|8|8,0:3|0:3|0:3,0:0:0:0:
151,268,83203,2,0,L|146:224,2,44.0000013427735,4|4|4,0:3|0:3|0:3,0:0:0:0:
71,322,83493,6,0,L|56:190,1,120,4|0,1:0|0:0,0:0:0:0:
116,133,83928,1,0,1:0:0:0:
173,201,84072,2,0,P|229:176|300:182,1,120,8|0,0:0|0:0,0:0:0:0:
359,232,84507,1,8,0:0:0:0:
434,183,84652,5,0,1:0:0:0:
434,183,84797,2,0,L|427:105,1,60,8|2,0:0|0:0,0:0:0:0:
355,70,85087,1,2,1:2:0:0:
355,70,85232,1,8,0:0:0:0:
286,128,85377,1,0,1:2:0:0:
128,40,85667,5,0,1:0:0:0:
128,40,85812,1,4,1:0:0:0:
256,192,85957,12,0,88710,0:0:0:0:
