osu file format v14

[General]
AudioFilename: audio.mp3
AudioLeadIn: 0
PreviewTime: 64362
Countdown: 0
SampleSet: Soft
StackLeniency: 0.7
Mode: 3
LetterboxInBreaks: 0
SpecialStyle: 0
WidescreenStoryboard: 0

[Editor]
Bookmarks: 9290,18565,27841,44072,55667,64942
DistanceSpacing: 0.9
BeatDivisor: 4
GridSize: 8
TimelineZoom: 2.2

[Metadata]
Title:"Tenohira" (TV Size)
TitleUnicode:「テノヒラ」(TV Size)
Artist:HERO
ArtistUnicode:HERO
Creator:Ihram-San
Version:Infinity Clock
Source:FAIRY TAIL
Tags:savageeeee syrion- フェアリーテイル ft japanese rock j-rock jrock anime opening op 12 jin
BeatmapID:4059499
BeatmapSetID:1959118

[Difficulty]
HPDrainRate:8.5
CircleSize:4
OverallDifficulty:8.5
ApproachRate:5
SliderMultiplier:1.4
SliderTickRate:1

[Events]
//Background and Video events
Video,-796,"fairytailop12.avi"
0,0,"lucyto.jpg",0,0
//Break Periods
//Storyboard Layer 0 (Background)
//Storyboard Layer 1 (Fail)
//Storyboard Layer 2 (Pass)
//Storyboard Layer 3 (Foreground)
//Storyboard Layer 4 (Overlay)
//Storyboard Sound Samples

[TimingPoints]
15,289.855072463768,4,2,1,35,1,0
27841,-100,4,2,1,35,0,1
44072,-100,4,2,1,35,0,0
64942,-100,4,2,1,35,0,1
83493,-100,4,2,1,35,0,0

[HitObjects]
64,192,15,5,2,0:0:0:0:
192,192,15,1,0,0:0:0:0:
192,192,159,1,0,0:0:0:0:
64,192,304,1,8,0:0:0:0:
320,192,304,1,0,0:0:0:0:
448,192,304,1,0,0:0:0:0:
320,192,449,1,0,0:0:0:0:
64,192,594,1,2,0:0:0:0:
192,192,594,1,0,0:0:0:0:
64,192,739,1,2,0:0:0:0:
192,192,739,1,0,0:0:0:0:
64,192,884,1,8,0:0:0:0:
320,192,884,1,0,0:0:0:0:
448,192,884,1,0,0:0:0:0:
320,192,1029,1,2,0:0:0:0:
448,192,1029,128,0,1319:0:0:0:0:
64,192,1319,1,2,0:0:0:0:
192,192,1319,1,0,0:0:0:0:
192,192,1464,1,8,0:0:0:0:
320,192,1464,1,0,0:0:0:0:
448,192,1464,1,0,0:0:0:0:
320,192,1609,1,0,0:0:0:0:
192,192,1754,1,2,0:0:0:0:
448,192,1754,1,0,0:0:0:0:
192,192,1899,1,2,0:0:0:0:
448,192,1899,1,0,0:0:0:0:
64,192,2043,1,8,0:0:0:0:
192,192,2043,1,0,0:0:0:0:
320,192,2043,1,0,0:0:0:0:
64,192,2188,128,2,2478:0:0:0:0:
320,192,2188,1,0,0:0:0:0:
192,192,2478,1,2,0:0:0:0:
320,192,2478,1,0,0:0:0:0:
64,192,2623,1,8,0:0:0:0:
320,192,2623,1,0,0:0:0:0:
448,192,2623,1,0,0:0:0:0:
448,192,2768,1,0,0:0:0:0:
64,192,2913,1,2,0:0:0:0:
320,192,2913,1,0,0:0:0:0:
64,192,3058,1,2,0:0:0:0:
320,192,3058,1,0,0:0:0:0:
192,192,3203,1,8,0:0:0:0:
320,192,3203,1,0,0:0:0:0:
448,192,3203,1,0,0:0:0:0:
192,192,3348,1,2,0:0:0:0:
448,192,3348,128,0,3638:0:0:0:0:
192,192,3638,1,2,0:0:0:0:
320,192,3638,1,0,0:0:0:0:
64,192,3783,1,8,0:0:0:0:
320,192,3783,1,0,0:0:0:0:
448,192,3783,1,0,0:0:0:0:
64,192,3928,1,0,0:0:0:0:
192,192,4072,1,2,0:0:0:0:
320,192,4072,1,0,0:0:0:0:
192,192,4217,1,2,0:0:0:0:
320,192,4217,1,0,0:0:0:0:
64,192,4362,1,8,0:0:0:0:
192,192,4362,1,0,0:0:0:0:
448,192,4362,1,0,0:0:0:0:
64,192,4507,128,2,4797:0:0:0:0:
448,192,4507,1,0,0:0:0:0:
320,192,4797,1,2,0:0:0:0:
448,192,4797,1,0,0:0:0:0:
64,192,4942,1,8,0:0:0:0:
192,192,4942,1,0,0:0:0:0:
448,192,4942,1,0,0:0:0:0:
192,192,5087,1,0,0:0:0:0:
64,192,5232,1,2,0:0:0:0:
448,192,5232,1,0,0:0:0:0:
64,192,5377,1,2,0:0:0:0:
448,192,5377,1,0,0:0:0:0:
192,192,5522,1,8,0:0:0:0:
320,192,5522,1,0,0:0:0:0:
448,192,5522,1,0,0:0:0:0:
192,192,5667,1,2,0:0:0:0:
320,192,5667,128,0,5957:0:0:0:0:
64,192,5957,1,2,0:0:0:0:
448,192,5957,1,0,0:0:0:0:
64,192,6101,1,8,0:0:0:0:
192,192,6101,1,0,0:0:0:0:
320,192,6101,1,0,0:0:0:0:
192,192,6246,1,0,0:0:0:0:
320,192,6391,1,2,0:0:0:0:
448,192,6391,1,0,0:0:0:0:
320,192,6536,1,2,0:0:0:0:
448,192,6536,1,0,0:0:0:0:
64,192,6681,1,8,0:0:0:0:
192,192,6681,1,0,0:0:0:0:
448,192,6681,1,0,0:0:0:0:
64,192,6826,128,2,7116:0:0:0:0:
192,192,6826,1,0,0:0:0:0:
320,192,7116,1,2,0:0:0:0:
448,192,7116,1,0,0:0:0:0:
64,192,7261,1,8,0:0:0:0:
192,192,7261,1,0,0:0:0:0:
448,192,7261,1,0,0:0:0:0:
192,192,7406,1,0,0:0:0:0:
320,192,7551,1,2,0:0:0:0:
448,192,7551,1,0,0:0:0:0:
192,192,7696,1,2,0:0:0:0:
320,192,7696,1,0,0:0:0:0:
64,192,7841,1,8,0:0:0:0:
192,192,7841,1,0,0:0:0:0:
448,192,7841,1,0,0:0:0:0:
64,192,7986,1,2,0:0:0:0:
320,192,7986,128,4,8275:0:0:0:0:
448,192,7986,1,0,0:0:0:0:
64,192,8275,1,2,0:0:0:0:
192,192,8275,1,0,0:0:0:0:
64,192,8420,1,8,0:0:0:0:
320,192,8420,1,0,0:0:0:0:
448,192,8420,1,0,0:0:0:0:
192,192,8565,1,0,0:0:0:0:
320,192,8710,1,2,0:0:0:0:
448,192,8710,1,0,0:0:0:0:
64,192,8855,1,8,0:0:0:0:
192,192,8855,1,0,0:0:0:0:
320,192,8928,1,8,0:0:0:0:
448,192,8928,1,0,0:0:0:0:
64,192,9000,1,8,0:0:0:0:
192,192,9000,1,0,0:0:0:0:
320,192,9072,1,8,0:0:0:0:
448,192,9072,1,0,0:0:0:0:
64,192,9145,1,8,0:0:0:0:
192,192,9145,1,0,0:0:0:0:
320,192,9217,1,8,0:0:0:0:
64,192,9290,128,2,9580:0:0:0:0:
192,192,9290,1,4,0:0:0:0:
448,192,9290,1,0,0:0:0:0:
192,192,9580,1,8,0:0:0:0:
320,192,9580,1,0,0:0:0:0:
448,192,9580,128,0,9870:0:0:0:0:
64,192,9870,1,2,0:0:0:0:
192,192,9870,1,0,0:0:0:0:
320,192,10014,1,2,0:0:0:0:
448,192,10014,1,0,0:0:0:0:
64,192,10159,128,8,10449:0:0:0:0:
192,192,10159,1,0,0:0:0:0:
448,192,10159,1,0,0:0:0:0:
320,192,10449,128,2,10739:0:0:0:0:
448,192,10449,1,0,0:0:0:0:
64,192,10739,1,8,0:0:0:0:
192,192,10739,128,0,11029:0:0:0:0:
448,192,10739,1,0,0:0:0:0:
320,192,11029,1,2,0:0:0:0:
448,192,11029,1,0,0:0:0:0:
64,192,11174,1,2,0:0:0:0:
192,192,11174,1,0,0:0:0:0:
64,192,11319,1,8,0:0:0:0:
320,192,11319,128,0,11609:0:0:0:0:
448,192,11319,1,0,0:0:0:0:
192,192,11609,128,2,11899:0:0:0:0:
448,192,11609,1,0,0:0:0:0:
64,192,11899,128,8,12188:0:0:0:0:
320,192,11899,1,0,0:0:0:0:
448,192,11899,1,0,0:0:0:0:
192,192,12188,1,2,0:0:0:0:
448,192,12188,1,0,0:0:0:0:
64,192,12333,1,2,0:0:0:0:
320,192,12333,1,0,0:0:0:0:
192,192,12478,128,8,12768:0:0:0:0:
320,192,12478,1,0,0:0:0:0:
448,192,12478,1,0,0:0:0:0:
64,192,12768,1,2,0:0:0:0:
320,192,12768,128,0,13058:0:0:0:0:
64,192,13058,1,8,0:0:0:0:
192,192,13058,1,0,0:0:0:0:
448,192,13058,128,0,13348:0:0:0:0:
64,192,13348,1,2,0:0:0:0:
320,192,13348,1,0,0:0:0:0:
192,192,13493,1,2,0:0:0:0:
448,192,13493,1,0,0:0:0:0:
64,192,13638,128,8,13928:0:0:0:0:
192,192,13638,1,0,0:0:0:0:
320,192,13638,1,0,0:0:0:0:
320,192,13928,1,2,0:0:0:0:
448,192,13928,128,0,14217:0:0:0:0:
64,192,14217,1,8,0:0:0:0:
192,192,14217,128,0,14507:0:0:0:0:
320,192,14217,1,0,0:0:0:0:
64,192,14507,1,2,0:0:0:0:
448,192,14507,1,0,0:0:0:0:
192,192,14652,1,2,0:0:0:0:
320,192,14652,1,0,0:0:0:0:
64,192,14797,1,8,0:0:0:0:
320,192,14797,1,0,0:0:0:0:
448,192,14797,128,0,15087:0:0:0:0:
64,192,15087,128,2,15377:0:0:0:0:
192,192,15087,1,0,0:0:0:0:
192,192,15377,1,8,0:0:0:0:
320,192,15377,128,0,15667:0:0:0:0:
448,192,15377,1,0,0:0:0:0:
64,192,15667,1,2,0:0:0:0:
192,192,15667,1,0,0:0:0:0:
320,192,15812,1,2,0:0:0:0:
448,192,15812,1,0,0:0:0:0:
64,192,15957,1,8,0:0:0:0:
192,192,15957,128,0,16246:0:0:0:0:
448,192,15957,1,0,0:0:0:0:
320,192,16246,1,2,0:0:0:0:
448,192,16246,128,0,16536:0:0:0:0:
64,192,16536,128,8,16826:0:0:0:0:
192,192,16536,1,0,0:0:0:0:
320,192,16536,1,0,0:0:0:0:
320,192,16826,1,2,0:0:0:0:
448,192,16826,1,0,0:0:0:0:
64,192,16971,1,2,0:0:0:0:
192,192,16971,1,0,0:0:0:0:
64,192,17116,1,8,0:0:0:0:
320,192,17116,128,0,17406:0:0:0:0:
448,192,17116,1,0,0:0:0:0:
64,192,17406,1,2,0:0:0:0:
192,192,17406,1,4,0:0:0:0:
448,192,17406,1,0,0:0:0:0:
320,192,17551,1,8,0:0:0:0:
448,192,17551,1,0,0:0:0:0:
64,192,17623,1,8,0:0:0:0:
192,192,17623,1,0,0:0:0:0:
320,192,17696,1,8,0:0:0:0:
448,192,17696,1,0,0:0:0:0:
192,192,17841,1,8,0:0:0:0:
320,192,17841,1,0,0:0:0:0:
64,192,17986,1,8,0:0:0:0:
192,192,17986,1,0,0:0:0:0:
320,192,18130,1,8,0:0:0:0:
448,192,18130,1,0,0:0:0:0:
192,192,18275,1,8,0:0:0:0:
320,192,18275,1,0,0:0:0:0:
64,192,18420,1,8,0:0:0:0:
192,192,18420,1,0,0:0:0:0:
64,192,18565,1,2,0:0:0:0:
320,192,18565,1,4,0:0:0:0:
448,192,18565,128,0,18855:0:0:0:0:
192,192,18855,1,2,0:0:0:0:
320,192,18855,1,0,0:0:0:0:
64,192,19145,128,8,19435:0:0:0:0:
192,192,19145,1,0,0:0:0:0:
448,192,19145,1,0,0:0:0:0:
448,192,19435,128,0,19725:0:0:0:0:
192,192,19580,1,8,0:0:0:0:
320,192,19580,1,0,0:0:0:0:
64,192,19725,128,2,20014:0:0:0:0:
192,192,19725,1,0,0:0:0:0:
320,192,19870,1,8,0:0:0:0:
448,192,19870,1,0,0:0:0:0:
192,192,20159,1,2,0:0:0:0:
320,192,20159,1,0,0:0:0:0:
64,192,20304,1,8,0:0:0:0:
192,192,20304,1,0,0:0:0:0:
448,192,20304,128,0,20884:0:0:0:0:
64,192,20739,1,8,0:0:0:0:
320,192,20739,1,0,0:0:0:0:
64,192,20884,128,2,21174:0:0:0:0:
192,192,20884,1,0,0:0:0:0:
192,192,21174,1,2,0:0:0:0:
320,192,21174,1,0,0:0:0:0:
64,192,21464,1,8,0:0:0:0:
320,192,21464,1,0,0:0:0:0:
448,192,21464,128,0,21754:0:0:0:0:
64,192,21754,128,0,22043:0:0:0:0:
192,192,21899,1,8,0:0:0:0:
320,192,21899,1,0,0:0:0:0:
320,192,22043,1,2,0:0:0:0:
448,192,22043,128,0,22333:0:0:0:0:
64,192,22188,1,8,0:0:0:0:
192,192,22188,1,0,0:0:0:0:
192,192,22478,1,2,0:0:0:0:
320,192,22478,1,0,0:0:0:0:
64,192,22623,128,8,23203:0:0:0:0:
320,192,22623,1,0,0:0:0:0:
448,192,22623,1,0,0:0:0:0:
192,192,23058,1,8,0:0:0:0:
320,192,23058,1,0,0:0:0:0:
320,192,23203,1,2,0:0:0:0:
448,192,23203,128,0,23493:0:0:0:0:
64,192,23493,1,2,0:0:0:0:
192,192,23493,1,0,0:0:0:0:
64,192,23783,1,8,0:0:0:0:
192,192,23783,128,0,24072:0:0:0:0:
448,192,23783,1,0,0:0:0:0:
448,192,24072,128,0,24362:0:0:0:0:
64,192,24217,1,8,0:0:0:0:
320,192,24217,1,0,0:0:0:0:
64,192,24362,128,2,24652:0:0:0:0:
192,192,24362,1,0,0:0:0:0:
320,192,24507,1,8,0:0:0:0:
448,192,24507,1,0,0:0:0:0:
192,192,24797,1,2,0:0:0:0:
320,192,24797,1,0,0:0:0:0:
64,192,24942,1,8,0:0:0:0:
192,192,24942,1,0,0:0:0:0:
448,192,24942,128,0,25522:0:0:0:0:
192,192,25377,1,8,0:0:0:0:
320,192,25377,1,0,0:0:0:0:
64,192,25522,128,2,26101:0:0:0:0:
192,192,25522,1,0,0:0:0:0:
192,192,25812,1,2,0:0:0:0:
320,192,25812,1,0,0:0:0:0:
192,192,26101,1,8,0:0:0:0:
320,192,26101,1,0,0:0:0:0:
448,192,26101,128,0,26391:0:0:0:0:
64,192,26246,1,0,0:0:0:0:
192,192,26391,1,4,0:0:0:0:
320,192,26391,128,0,26681:0:0:0:0:
448,192,26536,1,0,0:0:0:0:
64,192,26681,1,0,0:0:0:0:
192,192,26681,1,0,0:0:0:0:
320,192,26826,1,8,0:0:0:0:
448,192,26826,1,0,0:0:0:0:
192,192,26899,1,8,0:0:0:0:
320,192,26971,1,0,0:0:0:70:tom01.wav
448,192,26971,1,0,0:0:0:0:
64,192,27116,1,8,0:0:0:0:
192,192,27116,1,0,0:0:0:0:
320,192,27188,1,8,0:0:0:0:
64,192,27261,1,2,0:0:0:0:
192,192,27261,1,4,0:0:0:0:
448,192,27261,128,0,27841:0:0:0:0:
64,192,27841,1,2,0:0:0:0:
192,192,27841,1,4,0:0:0:0:
320,192,27841,1,0,0:0:0:0:
64,192,27986,1,0,0:0:0:0:
192,192,28130,1,8,0:0:0:0:
320,192,28130,1,0,0:0:0:0:
448,192,28130,1,0,0:0:0:0:
448,192,28275,1,0,0:0:0:0:
64,192,28420,1,2,0:0:0:0:
192,192,28420,1,0,0:0:0:0:
192,192,28565,1,2,0:0:0:0:
320,192,28565,1,0,0:0:0:0:
64,192,28710,1,8,0:0:0:0:
320,192,28710,1,0,0:0:0:0:
448,192,28710,1,0,0:0:0:0:
448,192,28855,1,0,0:0:0:0:
64,192,29000,1,2,0:0:0:0:
320,192,29000,1,0,0:0:0:0:
64,192,29145,1,0,0:0:0:0:
192,192,29290,1,8,0:0:0:0:
320,192,29290,1,0,0:0:0:0:
448,192,29290,1,0,0:0:0:0:
64,192,29435,1,2,0:0:0:0:
192,192,29435,1,0,0:0:0:0:
320,192,29580,1,0,0:0:0:0:
192,192,29725,1,2,0:0:0:0:
448,192,29725,1,0,0:0:0:0:
64,192,29870,1,8,0:0:0:0:
320,192,29870,1,0,0:0:0:0:
448,192,29870,1,0,0:0:0:0:
64,192,30014,1,0,0:0:0:0:
192,192,30159,1,2,0:0:0:0:
448,192,30159,1,0,0:0:0:0:
448,192,30304,1,0,0:0:0:0:
64,192,30449,1,8,0:0:0:0:
192,192,30449,1,0,0:0:0:0:
320,192,30449,1,0,0:0:0:0:
192,192,30594,1,0,0:0:0:0:
320,192,30739,1,2,0:0:0:0:
448,192,30739,1,0,0:0:0:0:
192,192,30884,1,2,0:0:0:0:
320,192,30884,1,0,0:0:0:0:
64,192,31029,1,8,0:0:0:0:
192,192,31029,1,0,0:0:0:0:
448,192,31029,1,0,0:0:0:0:
64,192,31174,1,0,0:0:0:0:
192,192,31319,1,2,0:0:0:0:
320,192,31319,1,0,0:0:0:0:
320,192,31464,1,0,0:0:0:0:
64,192,31609,1,8,0:0:0:0:
192,192,31609,1,0,0:0:0:0:
448,192,31609,1,0,0:0:0:0:
320,192,31754,1,2,0:0:0:0:
448,192,31754,1,0,0:0:0:0:
192,192,31899,1,0,0:0:0:0:
64,192,32043,1,2,0:0:0:0:
320,192,32043,1,0,0:0:0:0:
192,192,32188,1,8,0:0:0:0:
320,192,32188,1,0,0:0:0:0:
448,192,32188,1,0,0:0:0:0:
448,192,32333,1,0,0:0:0:0:
64,192,32478,1,2,0:0:0:0:
192,192,32478,1,0,0:0:0:0:
192,192,32623,1,0,0:0:0:0:
64,192,32768,1,8,0:0:0:0:
320,192,32768,1,0,0:0:0:0:
448,192,32768,1,0,0:0:0:0:
320,192,32913,1,0,0:0:0:0:
192,192,33058,1,2,0:0:0:0:
448,192,33058,1,0,0:0:0:0:
64,192,33203,1,2,0:0:0:0:
192,192,33203,1,0,0:0:0:0:
64,192,33348,1,8,0:0:0:0:
320,192,33348,1,0,0:0:0:0:
448,192,33348,1,0,0:0:0:0:
320,192,33493,1,0,0:0:0:0:
192,192,33638,1,2,0:0:0:0:
448,192,33638,1,0,0:0:0:0:
192,192,33783,1,0,0:0:0:0:
64,192,33928,1,8,0:0:0:0:
320,192,33928,1,0,0:0:0:0:
448,192,33928,1,0,0:0:0:0:
192,192,34072,1,2,0:0:0:0:
320,192,34072,1,0,0:0:0:0:
192,192,34217,1,0,0:0:0:0:
64,192,34362,1,2,0:0:0:0:
320,192,34362,1,0,0:0:0:0:
64,192,34507,1,8,0:0:0:0:
192,192,34507,1,0,0:0:0:0:
448,192,34507,1,0,0:0:0:0:
448,192,34652,1,0,0:0:0:0:
192,192,34797,1,2,0:0:0:0:
320,192,34797,1,0,0:0:0:0:
192,192,34942,1,0,0:0:0:0:
64,192,35087,1,8,0:0:0:0:
320,192,35087,1,0,0:0:0:0:
448,192,35087,1,0,0:0:0:0:
192,192,35232,1,0,0:0:0:0:
64,192,35377,1,2,0:0:0:0:
320,192,35377,1,0,0:0:0:0:
192,192,35522,1,2,0:0:0:0:
448,192,35522,1,0,0:0:0:0:
64,192,35667,1,8,0:0:0:0:
192,192,35667,1,0,0:0:0:0:
320,192,35667,1,0,0:0:0:0:
448,192,35812,1,0,0:0:0:0:
64,192,35957,1,2,0:0:0:0:
320,192,35957,1,0,0:0:0:0:
192,192,36101,1,0,0:0:0:0:
64,192,36246,1,8,0:0:0:0:
320,192,36246,1,0,0:0:0:0:
448,192,36246,1,0,0:0:0:0:
192,192,36391,1,2,0:0:0:0:
320,192,36391,1,0,0:0:0:0:
64,192,36536,128,0,37116:0:0:0:0:
192,192,36681,1,2,0:0:0:0:
320,192,36681,1,0,0:0:0:0:
192,192,36826,1,8,0:0:0:0:
320,192,36826,1,0,0:0:0:0:
448,192,36826,1,0,0:0:0:0:
192,192,37116,1,4,0:0:0:0:
320,192,37116,1,2,0:0:0:0:
448,192,37116,1,0,0:0:0:0:
448,192,37261,1,0,0:0:0:0:
64,192,37406,1,8,0:0:0:0:
192,192,37406,1,0,0:0:0:0:
320,192,37406,1,0,0:0:0:0:
64,192,37551,1,0,0:0:0:0:
192,192,37696,1,2,0:0:0:0:
320,192,37696,1,0,0:0:0:0:
320,192,37841,1,2,0:0:0:0:
448,192,37841,1,0,0:0:0:0:
64,192,37986,1,8,0:0:0:0:
192,192,37986,1,0,0:0:0:0:
448,192,37986,1,0,0:0:0:0:
192,192,38130,1,0,0:0:0:0:
320,192,38275,1,2,0:0:0:0:
448,192,38275,1,0,0:0:0:0:
320,192,38420,1,0,0:0:0:0:
64,192,38565,1,8,0:0:0:0:
192,192,38565,1,0,0:0:0:0:
448,192,38565,1,0,0:0:0:0:
192,192,38710,1,2,0:0:0:0:
320,192,38710,1,0,0:0:0:0:
64,192,38855,1,0,0:0:0:0:
192,192,39000,1,2,0:0:0:0:
448,192,39000,1,0,0:0:0:0:
64,192,39145,1,8,0:0:0:0:
320,192,39145,1,0,0:0:0:0:
448,192,39145,1,0,0:0:0:0:
64,192,39290,1,0,0:0:0:0:
192,192,39435,1,2,0:0:0:0:
320,192,39435,1,0,0:0:0:0:
192,192,39580,1,0,0:0:0:0:
64,192,39725,1,8,0:0:0:0:
320,192,39725,1,0,0:0:0:0:
448,192,39725,1,0,0:0:0:0:
448,192,39870,1,0,0:0:0:0:
64,192,40014,1,2,0:0:0:0:
320,192,40014,1,0,0:0:0:0:
192,192,40159,1,2,0:0:0:0:
320,192,40159,1,0,0:0:0:0:
64,192,40304,1,8,0:0:0:0:
192,192,40304,1,0,0:0:0:0:
448,192,40304,1,0,0:0:0:0:
448,192,40449,1,0,0:0:0:0:
64,192,40594,1,2,0:0:0:0:
320,192,40594,1,0,0:0:0:0:
64,192,40739,1,0,0:0:0:0:
192,192,40884,1,8,0:0:0:0:
320,192,40884,1,0,0:0:0:0:
448,192,40884,1,0,0:0:0:0:
64,192,41029,1,2,0:0:0:0:
192,192,41029,1,0,0:0:0:0:
320,192,41174,1,0,0:0:0:0:
64,192,41319,1,2,0:0:0:0:
448,192,41319,1,0,0:0:0:0:
192,192,41464,1,8,0:0:0:0:
320,192,41464,1,0,0:0:0:0:
448,192,41464,1,0,0:0:0:0:
192,192,41609,1,0,0:0:0:0:
64,192,41754,1,2,0:0:0:0:
320,192,41754,1,0,0:0:0:0:
320,192,41899,1,0,0:0:0:0:
64,192,42043,1,8,0:0:0:0:
192,192,42043,1,0,0:0:0:0:
448,192,42043,1,0,0:0:0:0:
64,192,42188,1,0,0:0:0:0:
320,192,42333,1,2,0:0:0:0:
448,192,42333,1,0,0:0:0:0:
64,192,42478,1,2,0:0:0:0:
448,192,42478,1,0,0:0:0:0:
64,192,42623,1,8,0:0:0:0:
192,192,42623,1,0,0:0:0:0:
320,192,42623,1,0,0:0:0:0:
320,192,42768,1,0,0:0:0:0:
64,192,42913,1,2,0:0:0:0:
448,192,42913,1,0,0:0:0:0:
64,192,43058,1,0,0:0:0:0:
192,192,43203,1,8,0:0:0:0:
320,192,43203,1,0,0:0:0:0:
448,192,43203,1,0,0:0:0:0:
320,192,43348,1,2,0:0:0:0:
448,192,43348,1,0,0:0:0:0:
64,192,43420,1,2,0:0:0:0:
192,192,43420,1,0,0:0:0:0:
320,192,43493,1,8,0:0:0:0:
448,192,43493,1,0,0:0:0:0:
64,192,43638,1,2,0:0:0:0:
192,192,43638,1,0,0:0:0:0:
192,192,43783,1,8,0:0:0:0:
448,192,43783,1,0,0:0:0:0:
320,192,43928,1,8,0:0:0:0:
448,192,43928,1,0,0:0:0:0:
64,192,44072,128,2,44652:0:0:0:0:
192,192,44072,1,4,0:0:0:0:
320,192,44072,1,0,0:0:0:0:
448,192,44362,1,0,0:0:0:0:
320,192,44507,1,2,0:0:0:0:
192,192,44652,1,8,0:0:0:0:
448,192,44652,1,0,0:0:0:0:
192,192,44797,1,0,0:0:0:0:
320,192,44797,1,0,0:0:0:0:
64,192,44942,1,8,0:0:0:0:
192,192,44942,1,0,0:0:0:0:
448,192,44942,1,0,0:0:0:0:
64,192,45087,1,4,0:0:0:0:
320,192,45087,128,0,45377:0:0:0:0:
448,192,45087,1,0,0:0:0:0:
64,192,45377,1,2,0:0:0:0:
192,192,45377,1,0,0:0:0:0:
192,192,45522,1,8,0:0:0:0:
320,192,45522,1,0,0:0:0:0:
448,192,45522,1,0,0:0:0:0:
64,192,45812,1,2,0:0:0:0:
192,192,45812,1,0,0:0:0:0:
320,192,45957,1,8,0:0:0:0:
448,192,45957,1,0,0:0:0:0:
64,192,46029,1,8,0:0:0:0:
192,192,46029,1,0,0:0:0:0:
320,192,46101,1,8,0:0:0:0:
448,192,46101,1,0,0:0:0:0:
64,192,46174,1,8,0:0:0:0:
192,192,46174,1,0,0:0:0:0:
320,192,46246,1,8,0:0:0:0:
448,192,46246,1,0,0:0:0:0:
192,192,46319,1,8,0:0:0:0:
64,192,46391,1,2,0:0:0:0:
320,192,46391,1,4,0:0:0:0:
448,192,46391,128,0,46681:0:0:0:0:
64,192,46681,128,8,46971:0:0:0:0:
192,192,46681,1,0,0:0:0:0:
320,192,46681,1,0,0:0:0:0:
320,192,46971,1,2,0:0:0:0:
448,192,46971,1,0,0:0:0:0:
64,192,47116,1,2,0:0:0:0:
192,192,47116,1,0,0:0:0:0:
64,192,47261,1,8,0:0:0:0:
320,192,47261,1,0,0:0:0:0:
448,192,47261,128,0,47551:0:0:0:0:
64,192,47551,1,2,0:0:0:0:
192,192,47551,128,0,47841:0:0:0:0:
64,192,47841,1,8,0:0:0:0:
320,192,47841,128,0,48130:0:0:0:0:
448,192,47841,1,0,0:0:0:0:
64,192,48130,1,2,0:0:0:0:
192,192,48130,1,0,0:0:0:0:
320,192,48275,1,2,0:0:0:0:
448,192,48275,1,0,0:0:0:0:
64,192,48420,1,8,0:0:0:0:
192,192,48420,128,0,48710:0:0:0:0:
448,192,48420,1,0,0:0:0:0:
64,192,48710,1,2,0:0:0:0:
320,192,48710,128,0,49000:0:0:0:0:
64,192,49000,1,8,0:0:0:0:
192,192,49000,1,0,0:0:0:0:
448,192,49000,128,0,49290:0:0:0:0:
64,192,49290,1,2,0:0:0:0:
320,192,49290,1,0,0:0:0:0:
192,192,49435,1,2,0:0:0:0:
448,192,49435,1,0,0:0:0:0:
64,192,49580,1,8,0:0:0:0:
192,192,49580,1,0,0:0:0:0:
320,192,49580,128,0,49870:0:0:0:0:
192,192,49870,128,2,50159:0:0:0:0:
448,192,49870,1,0,0:0:0:0:
64,192,50159,128,8,50449:0:0:0:0:
320,192,50159,1,0,0:0:0:0:
448,192,50159,1,0,0:0:0:0:
192,192,50449,1,2,0:0:0:0:
448,192,50449,1,0,0:0:0:0:
64,192,50594,1,2,0:0:0:0:
320,192,50594,1,0,0:0:0:0:
192,192,50739,1,8,0:0:0:0:
320,192,50739,1,0,0:0:0:0:
448,192,50739,128,0,51029:0:0:0:0:
64,192,51029,128,2,51319:0:0:0:0:
192,192,51029,1,0,0:0:0:0:
192,192,51319,1,8,0:0:0:0:
320,192,51319,128,0,51609:0:0:0:0:
448,192,51319,1,0,0:0:0:0:
64,192,51609,1,2,0:0:0:0:
448,192,51609,1,0,0:0:0:0:
192,192,51754,1,2,0:0:0:0:
320,192,51754,1,0,0:0:0:0:
64,192,51899,128,8,52188:0:0:0:0:
192,192,51899,1,0,0:0:0:0:
448,192,51899,1,0,0:0:0:0:
320,192,52188,1,2,0:0:0:0:
448,192,52188,128,0,52478:0:0:0:0:
64,192,52478,1,8,0:0:0:0:
192,192,52478,128,0,52768:0:0:0:0:
320,192,52478,1,0,0:0:0:0:
320,192,52768,1,2,0:0:0:0:
448,192,52768,1,0,0:0:0:0:
64,192,52913,1,2,0:0:0:0:
192,192,52913,1,0,0:0:0:0:
64,192,53058,1,8,0:0:0:0:
320,192,53058,128,0,53348:0:0:0:0:
448,192,53058,1,0,0:0:0:0:
64,192,53348,128,2,53638:0:0:0:0:
192,192,53348,1,0,0:0:0:0:
192,192,53638,1,8,0:0:0:0:
320,192,53638,1,0,0:0:0:0:
448,192,53638,128,0,53928:0:0:0:0:
64,192,53928,1,2,0:0:0:0:
192,192,53928,1,0,0:0:0:0:
320,192,54072,1,2,0:0:0:0:
448,192,54072,1,0,0:0:0:0:
64,192,54217,1,8,0:0:0:0:
192,192,54217,128,0,54507:0:0:0:0:
448,192,54217,1,0,0:0:0:0:
64,192,54507,1,2,0:0:0:0:
320,192,54507,1,4,0:0:0:0:
448,192,54507,1,0,0:0:0:0:
64,192,54652,1,8,0:0:0:0:
192,192,54652,1,0,0:0:0:0:
320,192,54725,1,8,0:0:0:0:
448,192,54725,1,0,0:0:0:0:
64,192,54797,1,8,0:0:0:0:
192,192,54797,1,0,0:0:0:0:
192,192,54942,1,8,0:0:0:0:
320,192,54942,1,0,0:0:0:0:
320,192,55087,1,8,0:0:0:0:
448,192,55087,1,0,0:0:0:0:
64,192,55232,1,8,0:0:0:0:
192,192,55232,1,0,0:0:0:0:
192,192,55377,1,8,0:0:0:0:
320,192,55377,1,0,0:0:0:0:
320,192,55522,1,8,0:0:0:0:
448,192,55522,1,0,0:0:0:0:
64,192,55667,128,2,55957:0:0:0:0:
192,192,55667,1,4,0:0:0:0:
448,192,55667,1,0,0:0:0:0:
192,192,55957,1,2,0:0:0:0:
320,192,55957,1,0,0:0:0:0:
64,192,56246,1,8,0:0:0:0:
320,192,56246,1,0,0:0:0:0:
448,192,56246,128,0,56536:0:0:0:0:
64,192,56536,128,0,56826:0:0:0:0:
192,192,56681,1,8,0:0:0:0:
320,192,56681,1,0,0:0:0:0:
320,192,56826,1,2,0:0:0:0:
448,192,56826,128,0,57116:0:0:0:0:
64,192,56971,1,8,0:0:0:0:
192,192,56971,1,0,0:0:0:0:
192,192,57261,1,2,0:0:0:0:
320,192,57261,1,0,0:0:0:0:
64,192,57406,128,8,57986:0:0:0:0:
320,192,57406,1,0,0:0:0:0:
448,192,57406,1,0,0:0:0:0:
192,192,57841,1,8,0:0:0:0:
448,192,57841,1,0,0:0:0:0:
320,192,57986,1,2,0:0:0:0:
448,192,57986,128,0,58275:0:0:0:0:
192,192,58275,1,2,0:0:0:0:
320,192,58275,1,0,0:0:0:0:
64,192,58565,128,8,58855:0:0:0:0:
192,192,58565,1,0,0:0:0:0:
448,192,58565,1,0,0:0:0:0:
448,192,58855,128,0,59145:0:0:0:0:
192,192,59000,1,8,0:0:0:0:
320,192,59000,1,0,0:0:0:0:
64,192,59145,128,2,59435:0:0:0:0:
192,192,59145,1,0,0:0:0:0:
320,192,59290,1,8,0:0:0:0:
448,192,59290,1,0,0:0:0:0:
192,192,59580,1,2,0:0:0:0:
320,192,59580,1,0,0:0:0:0:
64,192,59725,1,8,0:0:0:0:
192,192,59725,1,0,0:0:0:0:
448,192,59725,128,0,60304:0:0:0:0:
192,192,60159,1,8,0:0:0:0:
320,192,60159,1,0,0:0:0:0:
64,192,60304,128,2,60594:0:0:0:0:
192,192,60304,1,0,0:0:0:0:
320,192,60594,1,2,0:0:0:0:
448,192,60594,1,0,0:0:0:0:
64,192,60884,1,8,0:0:0:0:
320,192,60884,128,0,61174:0:0:0:0:
448,192,60884,1,0,0:0:0:0:
64,192,61174,128,0,61464:0:0:0:0:
192,192,61319,1,8,0:0:0:0:
448,192,61319,1,0,0:0:0:0:
320,192,61464,1,2,0:0:0:0:
448,192,61464,128,0,61754:0:0:0:0:
64,192,61609,1,8,0:0:0:0:
192,192,61609,1,0,0:0:0:0:
192,192,61899,1,2,0:0:0:0:
320,192,61899,1,0,0:0:0:0:
64,192,62043,128,8,62623:0:0:0:0:
320,192,62043,1,0,0:0:0:0:
448,192,62043,1,0,0:0:0:0:
192,192,62478,1,8,0:0:0:0:
320,192,62478,1,0,0:0:0:0:
320,192,62623,1,2,0:0:0:0:
448,192,62623,128,0,63203:0:0:0:0:
192,192,62913,1,2,0:0:0:0:
320,192,62913,1,0,0:0:0:0:
64,192,63203,128,8,63493:0:0:0:0:
192,192,63203,1,0,0:0:0:0:
320,192,63203,1,0,0:0:0:0:
448,192,63348,1,0,0:0:0:0:
192,192,63493,128,4,63783:0:0:0:0:
320,192,63493,1,0,0:0:0:0:
64,192,63638,1,0,0:0:0:0:
320,192,63783,1,0,0:0:0:0:
448,192,63783,1,0,0:0:0:0:
64,192,63928,1,8,0:0:0:0:
192,192,63928,1,0,0:0:0:0:
320,192,64000,1,8,0:0:0:0:
64,192,64072,1,0,0:0:0:70:tom01.wav
192,192,64072,1,0,0:0:0:0:
320,192,64217,1,8,0:0:0:0:
448,192,64217,1,0,0:0:0:0:
192,192,64290,1,8,0:0:0:0:
64,192,64362,128,2,64942:0:0:0:0:
320,192,64362,1,4,0:0:0:0:
448,192,64362,1,0,0:0:0:0:
192,192,64942,1,2,0:0:0:0:
320,192,64942,1,4,0:0:0:0:
448,192,64942,1,0,0:0:0:0:
448,192,65087,1,0,0:0:0:0:
64,192,65232,1,8,0:0:0:0:
192,192,65232,1,0,0:0:0:0:
320,192,65232,1,0,0:0:0:0:
64,192,65377,1,0,0:0:0:0:
320,192,65522,1,2,0:0:0:0:
448,192,65522,1,0,0:0:0:0:
192,192,65667,1,2,0:0:0:0:
320,192,65667,1,0,0:0:0:0:
64,192,65812,1,8,0:0:0:0:
192,192,65812,1,0,0:0:0:0:
448,192,65812,1,0,0:0:0:0:
64,192,65957,1,0,0:0:0:0:
192,192,66101,1,2,0:0:0:0:
448,192,66101,1,0,0:0:0:0:
448,192,66246,1,0,0:0:0:0:
64,192,66391,1,8,0:0:0:0:
192,192,66391,1,0,0:0:0:0:
320,192,66391,1,0,0:0:0:0:
320,192,66536,1,2,0:0:0:0:
448,192,66536,1,0,0:0:0:0:
192,192,66681,1,0,0:0:0:0:
64,192,66826,1,2,0:0:0:0:
320,192,66826,1,0,0:0:0:0:
64,192,66971,1,8,0:0:0:0:
192,192,66971,1,0,0:0:0:0:
448,192,66971,1,0,0:0:0:0:
448,192,67116,1,0,0:0:0:0:
64,192,67261,1,2,0:0:0:0:
320,192,67261,1,0,0:0:0:0:
64,192,67406,1,0,0:0:0:0:
192,192,67551,1,8,0:0:0:0:
320,192,67551,1,0,0:0:0:0:
448,192,67551,1,0,0:0:0:0:
320,192,67696,1,0,0:0:0:0:
64,192,67841,1,2,0:0:0:0:
192,192,67841,1,0,0:0:0:0:
192,192,67986,1,2,0:0:0:0:
320,192,67986,1,0,0:0:0:0:
64,192,68130,1,8,0:0:0:0:
320,192,68130,1,0,0:0:0:0:
448,192,68130,1,0,0:0:0:0:
448,192,68275,1,0,0:0:0:0:
192,192,68420,1,2,0:0:0:0:
320,192,68420,1,0,0:0:0:0:
192,192,68565,1,0,0:0:0:0:
64,192,68710,1,8,0:0:0:0:
320,192,68710,1,0,0:0:0:0:
448,192,68710,1,0,0:0:0:0:
64,192,68855,1,2,0:0:0:0:
192,192,68855,1,0,0:0:0:0:
320,192,69000,1,0,0:0:0:0:
192,192,69145,1,2,0:0:0:0:
448,192,69145,1,0,0:0:0:0:
64,192,69290,1,8,0:0:0:0:
192,192,69290,1,0,0:0:0:0:
320,192,69290,1,0,0:0:0:0:
64,192,69435,1,0,0:0:0:0:
320,192,69580,1,2,0:0:0:0:
448,192,69580,1,0,0:0:0:0:
320,192,69725,1,0,0:0:0:0:
64,192,69870,1,8,0:0:0:0:
192,192,69870,1,0,0:0:0:0:
448,192,69870,1,0,0:0:0:0:
192,192,70014,1,0,0:0:0:0:
64,192,70159,1,2,0:0:0:0:
320,192,70159,1,0,0:0:0:0:
320,192,70304,1,2,0:0:0:0:
448,192,70304,1,0,0:0:0:0:
64,192,70449,1,8,0:0:0:0:
192,192,70449,1,0,0:0:0:0:
448,192,70449,1,0,0:0:0:0:
192,192,70594,1,0,0:0:0:0:
64,192,70739,1,2,0:0:0:0:
320,192,70739,1,0,0:0:0:0:
320,192,70884,1,0,0:0:0:0:
64,192,71029,1,8,0:0:0:0:
192,192,71029,1,0,0:0:0:0:
448,192,71029,1,0,0:0:0:0:
192,192,71174,1,2,0:0:0:0:
320,192,71174,1,0,0:0:0:0:
320,192,71319,1,0,0:0:0:0:
192,192,71464,1,2,0:0:0:0:
448,192,71464,1,0,0:0:0:0:
64,192,71609,1,8,0:0:0:0:
320,192,71609,1,0,0:0:0:0:
448,192,71609,1,0,0:0:0:0:
64,192,71754,1,0,0:0:0:0:
192,192,71899,1,2,0:0:0:0:
320,192,71899,1,0,0:0:0:0:
320,192,72043,1,0,0:0:0:0:
64,192,72188,1,8,0:0:0:0:
192,192,72188,1,0,0:0:0:0:
448,192,72188,1,0,0:0:0:0:
320,192,72333,1,0,0:0:0:0:
192,192,72478,1,2,0:0:0:0:
448,192,72478,1,0,0:0:0:0:
64,192,72623,1,2,0:0:0:0:
320,192,72623,1,0,0:0:0:0:
192,192,72768,1,8,0:0:0:0:
320,192,72768,1,0,0:0:0:0:
448,192,72768,1,0,0:0:0:0:
64,192,72913,1,0,0:0:0:0:
192,192,73058,1,2,0:0:0:0:
448,192,73058,1,0,0:0:0:0:
320,192,73203,1,0,0:0:0:0:
64,192,73348,1,8,0:0:0:0:
192,192,73348,1,0,0:0:0:0:
448,192,73348,1,0,0:0:0:0:
192,192,73493,1,2,0:0:0:0:
320,192,73493,1,0,0:0:0:0:
448,192,73638,128,0,74217:0:0:0:0:
192,192,73783,1,2,0:0:0:0:
320,192,73783,1,0,0:0:0:0:
64,192,73928,1,8,0:0:0:0:
192,192,73928,1,0,0:0:0:0:
320,192,73928,1,0,0:0:0:0:
64,192,74217,1,4,0:0:0:0:
192,192,74217,1,2,0:0:0:0:
320,192,74217,1,0,0:0:0:0:
64,192,74362,1,0,0:0:0:0:
192,192,74507,1,8,0:0:0:0:
320,192,74507,1,0,0:0:0:0:
448,192,74507,1,0,0:0:0:0:
448,192,74652,1,0,0:0:0:0:
192,192,74797,1,2,0:0:0:0:
320,192,74797,1,0,0:0:0:0:
64,192,74942,1,2,0:0:0:0:
192,192,74942,1,0,0:0:0:0:
64,192,75087,1,8,0:0:0:0:
320,192,75087,1,0,0:0:0:0:
448,192,75087,1,0,0:0:0:0:
320,192,75232,1,0,0:0:0:0:
64,192,75377,1,2,0:0:0:0:
192,192,75377,1,0,0:0:0:0:
192,192,75522,1,0,0:0:0:0:
64,192,75667,1,8,0:0:0:0:
320,192,75667,1,0,0:0:0:0:
448,192,75667,1,0,0:0:0:0:
192,192,75812,1,2,0:0:0:0:
320,192,75812,1,0,0:0:0:0:
448,192,75957,1,0,0:0:0:0:
64,192,76101,1,2,0:0:0:0:
320,192,76101,1,0,0:0:0:0:
64,192,76246,1,8,0:0:0:0:
192,192,76246,1,0,0:0:0:0:
448,192,76246,1,0,0:0:0:0:
448,192,76391,1,0,0:0:0:0:
192,192,76536,1,2,0:0:0:0:
320,192,76536,1,0,0:0:0:0:
320,192,76681,1,0,0:0:0:0:
64,192,76826,1,8,0:0:0:0:
192,192,76826,1,0,0:0:0:0:
448,192,76826,1,0,0:0:0:0:
64,192,76971,1,0,0:0:0:0:
192,192,77116,1,2,0:0:0:0:
448,192,77116,1,0,0:0:0:0:
192,192,77261,1,2,0:0:0:0:
320,192,77261,1,0,0:0:0:0:
64,192,77406,1,8,0:0:0:0:
320,192,77406,1,0,0:0:0:0:
448,192,77406,1,0,0:0:0:0:
64,192,77551,1,0,0:0:0:0:
192,192,77696,1,2,0:0:0:0:
448,192,77696,1,0,0:0:0:0:
448,192,77841,1,0,0:0:0:0:
64,192,77986,1,8,0:0:0:0:
192,192,77986,1,0,0:0:0:0:
320,192,77986,1,0,0:0:0:0:
320,192,78130,1,2,0:0:0:0:
448,192,78130,1,0,0:0:0:0:
192,192,78275,1,0,0:0:0:0:
64,192,78420,1,2,0:0:0:0:
448,192,78420,1,0,0:0:0:0:
64,192,78565,1,8,0:0:0:0:
192,192,78565,1,0,0:0:0:0:
320,192,78565,1,0,0:0:0:0:
320,192,78710,1,0,0:0:0:0:
192,192,78855,1,2,0:0:0:0:
448,192,78855,1,0,0:0:0:0:
192,192,79000,1,0,0:0:0:0:
64,192,79145,1,8,0:0:0:0:
320,192,79145,1,0,0:0:0:0:
448,192,79145,1,0,0:0:0:0:
448,192,79290,1,0,0:0:0:0:
64,192,79435,1,2,0:0:0:0:
192,192,79435,1,0,0:0:0:0:
64,192,79580,1,2,0:0:0:0:
448,192,79580,1,0,0:0:0:0:
192,192,79725,1,8,0:0:0:0:
320,192,79725,1,0,0:0:0:0:
448,192,79725,1,0,0:0:0:0:
192,192,79870,1,0,0:0:0:0:
64,192,80014,1,2,0:0:0:0:
320,192,80014,1,0,0:0:0:0:
320,192,80159,1,0,0:0:0:0:
64,192,80304,1,8,0:0:0:0:
192,192,80304,1,0,0:0:0:0:
448,192,80304,1,0,0:0:0:0:
64,192,80449,1,2,0:0:0:0:
320,192,80449,1,0,0:0:0:0:
320,192,80594,1,0,0:0:0:0:
64,192,80739,1,2,0:0:0:0:
192,192,80739,1,0,0:0:0:0:
64,192,80884,1,8,0:0:0:0:
320,192,80884,1,0,0:0:0:0:
448,192,80884,1,0,0:0:0:0:
448,192,81029,1,0,0:0:0:0:
192,192,81174,1,2,0:0:0:0:
320,192,81174,1,0,0:0:0:0:
192,192,81319,1,0,0:0:0:0:
64,192,81464,1,8,0:0:0:0:
320,192,81464,1,0,0:0:0:0:
448,192,81464,1,0,0:0:0:0:
192,192,81609,1,0,0:0:0:0:
320,192,81754,1,2,0:0:0:0:
448,192,81754,1,0,0:0:0:0:
64,192,81899,1,2,0:0:0:0:
320,192,81899,1,0,0:0:0:0:
64,192,82043,128,8,82333:0:0:0:0:
192,192,82043,1,0,0:0:0:0:
448,192,82043,1,0,0:0:0:0:
192,192,82188,1,0,0:0:0:0:
320,192,82333,1,0,0:0:0:0:
448,192,82333,1,0,0:0:0:0:
64,192,82430,1,0,0:0:0:70:tom01.wav
192,192,82430,1,0,0:0:0:0:
320,192,82527,1,0,0:0:0:70:tom01.wav
448,192,82527,1,0,0:0:0:0:
64,192,82623,1,0,0:0:0:70:tom01.wav
192,192,82623,1,0,0:0:0:0:
320,192,82720,1,0,0:0:0:70:tom01.wav
448,192,82720,1,0,0:0:0:0:
64,192,82816,1,0,0:0:0:70:tom01.wav
192,192,82816,1,0,0:0:0:0:
320,192,82913,1,0,0:0:0:70:tom01.wav
448,192,82913,1,0,0:0:0:0:
64,192,83010,1,0,0:0:0:70:tom01.wav
192,192,83010,1,0,0:0:0:0:
448,192,83106,1,2,0:0:0:0:
320,192,83203,1,2,0:0:0:0:
192,192,83300,1,2,0:0:0:0:
64,192,83396,1,2,0:0:0:0:
192,192,83493,1,4,0:0:0:0:
320,192,83493,1,2,0:0:0:0:
448,192,83493,128,0,84072:0:0:0:0:
64,192,83928,1,0,0:0:0:0:
192,192,83928,1,0,0:0:0:0:
64,192,84072,128,8,84507:0:0:0:0:
192,192,84072,1,0,0:0:0:0:
320,192,84072,1,0,0:0:0:0:
320,192,84507,1,2,0:0:0:0:
448,192,84507,1,0,0:0:0:0:
64,192,84652,1,8,0:0:0:0:
192,192,84652,1,0,0:0:0:0:
320,192,84652,1,0,0:0:0:0:
192,192,84797,1,2,0:0:0:0:
448,192,84797,128,0,85232:0:0:0:0:
320,192,84942,1,0,0:0:0:0:
64,192,85087,1,0,0:0:0:0:
192,192,85087,1,0,0:0:0:0:
64,192,85232,1,8,0:0:0:0:
192,192,85232,1,0,0:0:0:0:
320,192,85232,1,0,0:0:0:0:
320,192,85377,1,0,0:0:0:0:
448,192,85377,1,0,0:0:0:0:
64,192,85667,1,2,0:0:0:0:
192,192,85667,1,0,0:0:0:0:
64,192,85812,1,4,0:0:0:0:
320,192,85812,128,2,88710:0:0:0:0:
448,192,85812,128,0,88710:0:0:0:0:
