osu file format v14

[General]
AudioFilename: audio.mp3
AudioLeadIn: 0
PreviewTime: 64362
Countdown: 0
SampleSet: Soft
StackLeniency: 0.7
Mode: 3
LetterboxInBreaks: 0
SpecialStyle: 0
WidescreenStoryboard: 1

[Editor]
Bookmarks: 9290,18565,27841,44072,55667,64942
DistanceSpacing: 0.9
BeatDivisor: 2
GridSize: 8
TimelineZoom: 2.2

[Metadata]
Title:"Tenohira" (TV Size)
TitleUnicode:「テノヒラ」(TV Size)
Artist:HERO
ArtistUnicode:HERO
Creator:Ihram-San
Version:Easy
Source:FAIRY TAIL
Tags:savageeeee syrion- フェアリーテイル ft japanese rock j-rock jrock anime opening op 12 jin
BeatmapID:4059497
BeatmapSetID:1959118

[Difficulty]
HPDrainRate:7
CircleSize:4
OverallDifficulty:7
ApproachRate:5
SliderMultiplier:1.4
SliderTickRate:1

[Events]
//Background and Video events
Video,-796,"fairytailop12.avi"
0,0,"lucyto.jpg",0,0
//Break Periods
//Storyboard Layer 0 (Background)
//Storyboard Layer 1 (Fail)
//Storyboard Layer 2 (Pass)
//Storyboard Layer 3 (Foreground)
//Storyboard Layer 4 (Overlay)
//Storyboard Sound Samples

[TimingPoints]
15,289.855072463768,4,2,1,35,1,0
27841,-100,4,2,1,35,0,1
44072,-100,4,2,1,35,0,0
64942,-100,4,2,1,35,0,1
83493,-100,4,2,1,35,0,0

[HitObjects]
64,192,15,5,2,0:0:0:0:
448,192,15,1,0,0:0:0:0:
320,192,304,1,8,0:0:0:0:
192,192,594,1,2,0:0:0:0:
320,192,739,1,2,0:0:0:0:
64,192,884,1,8,0:0:0:0:
448,192,1029,1,2,0:0:0:0:
64,192,1319,1,2,0:0:0:0:
320,192,1464,1,8,0:0:0:0:
192,192,1754,1,2,0:0:0:0:
448,192,1899,1,2,0:0:0:0:
64,192,2043,1,8,0:0:0:0:
320,192,2188,1,2,0:0:0:0:
448,192,2478,1,2,0:0:0:0:
64,192,2623,1,8,0:0:0:0:
320,192,2913,1,2,0:0:0:0:
192,192,3058,1,2,0:0:0:0:
64,192,3203,1,8,0:0:0:0:
448,192,3348,1,2,0:0:0:0:
64,192,3638,1,2,0:0:0:0:
320,192,3783,1,8,0:0:0:0:
192,192,4072,1,2,0:0:0:0:
320,192,4217,1,2,0:0:0:0:
448,192,4362,1,8,0:0:0:0:
64,192,4507,1,2,0:0:0:0:
320,192,4797,1,2,0:0:0:0:
64,192,4942,1,8,0:0:0:0:
448,192,5232,1,2,0:0:0:0:
192,192,5377,1,2,0:0:0:0:
320,192,5522,1,8,0:0:0:0:
64,192,5667,1,2,0:0:0:0:
192,192,5957,1,2,0:0:0:0:
448,192,6101,1,8,0:0:0:0:
64,192,6391,1,2,0:0:0:0:
192,192,6536,1,2,0:0:0:0:
320,192,6681,1,8,0:0:0:0:
448,192,6826,1,2,0:0:0:0:
320,192,7116,1,2,0:0:0:0:
64,192,7261,1,8,0:0:0:0:
448,192,7551,1,2,0:0:0:0:
192,192,7696,1,2,0:0:0:0:
320,192,7841,1,8,0:0:0:0:
64,192,7986,1,2,0:0:0:0:
192,192,7986,1,4,0:0:0:0:
448,192,8275,1,2,0:0:0:0:
192,192,8420,1,8,0:0:0:0:
64,192,8710,1,2,0:0:0:0:
448,192,8855,128,8,9290:0:0:0:0:
64,192,9290,1,2,0:0:0:0:
192,192,9290,1,4,0:0:0:0:
320,192,9580,1,8,0:0:0:0:
448,192,9870,1,2,0:0:0:0:
64,192,10014,1,2,0:0:0:0:
320,192,10159,1,8,0:0:0:0:
192,192,10449,1,2,0:0:0:0:
448,192,10739,1,8,0:0:0:0:
64,192,11029,1,2,0:0:0:0:
448,192,11174,1,2,0:0:0:0:
192,192,11319,1,8,0:0:0:0:
64,192,11609,1,2,0:0:0:0:
320,192,11899,1,8,0:0:0:0:
448,192,12188,1,2,0:0:0:0:
64,192,12333,1,2,0:0:0:0:
192,192,12478,1,8,0:0:0:0:
320,192,12768,1,2,0:0:0:0:
192,192,13058,1,8,0:0:0:0:
448,192,13348,1,2,0:0:0:0:
64,192,13493,1,2,0:0:0:0:
320,192,13638,1,8,0:0:0:0:
448,192,13928,1,2,0:0:0:0:
64,192,14217,1,8,0:0:0:0:
320,192,14507,1,2,0:0:0:0:
192,192,14652,1,2,0:0:0:0:
448,192,14797,1,8,0:0:0:0:
64,192,15087,1,2,0:0:0:0:
448,192,15377,1,8,0:0:0:0:
192,192,15667,1,2,0:0:0:0:
320,192,15812,1,2,0:0:0:0:
64,192,15957,1,8,0:0:0:0:
448,192,16246,1,2,0:0:0:0:
192,192,16536,1,8,0:0:0:0:
448,192,16826,1,2,0:0:0:0:
64,192,16971,1,2,0:0:0:0:
192,192,17116,1,8,0:0:0:0:
320,192,17406,1,2,0:0:0:0:
448,192,17406,128,4,17696:0:0:0:0:
64,192,17696,128,8,17986:0:0:0:0:
448,192,17986,1,8,0:0:0:0:
320,192,18130,1,8,0:0:0:0:
64,192,18275,1,8,0:0:0:0:
192,192,18420,1,8,0:0:0:0:
320,192,18565,1,2,0:0:0:0:
448,192,18565,1,4,0:0:0:0:
64,192,19145,1,8,0:0:0:0:
192,192,19435,1,0,0:0:0:0:
320,192,19725,1,2,0:0:0:0:
448,192,20304,128,8,20884:0:0:0:0:
64,192,20884,1,2,0:0:0:0:
448,192,21464,1,8,0:0:0:0:
320,192,21754,1,0,0:0:0:0:
192,192,22043,1,2,0:0:0:0:
64,192,22623,128,8,23203:0:0:0:0:
448,192,23203,1,2,0:0:0:0:
192,192,23783,1,8,0:0:0:0:
320,192,24072,1,0,0:0:0:0:
64,192,24362,1,2,0:0:0:0:
192,192,24942,128,8,25522:0:0:0:0:
448,192,25522,1,2,0:0:0:0:
64,192,25812,1,2,0:0:0:0:
320,192,26101,1,8,0:0:0:0:
448,192,26391,1,4,0:0:0:0:
192,192,26681,1,0,0:0:0:0:
64,192,26826,1,8,0:0:0:0:
320,192,26971,1,0,0:0:0:70:tom01.wav
448,192,27116,1,8,0:0:0:0:
64,192,27261,128,2,27841:0:0:0:0:
192,192,27261,1,4,0:0:0:0:
320,192,27841,1,2,0:0:0:0:
448,192,27841,1,4,0:0:0:0:
192,192,28130,1,8,0:0:0:0:
320,192,28420,1,2,0:0:0:0:
64,192,28565,1,2,0:0:0:0:
448,192,28710,1,8,0:0:0:0:
192,192,29000,1,2,0:0:0:0:
448,192,29290,1,8,0:0:0:0:
64,192,29435,1,2,0:0:0:0:
192,192,29725,1,2,0:0:0:0:
320,192,29870,1,8,0:0:0:0:
64,192,30159,1,2,0:0:0:0:
448,192,30449,1,8,0:0:0:0:
192,192,30739,1,2,0:0:0:0:
320,192,30884,1,2,0:0:0:0:
64,192,31029,1,8,0:0:0:0:
448,192,31319,1,2,0:0:0:0:
320,192,31609,1,8,0:0:0:0:
64,192,31754,1,2,0:0:0:0:
192,192,32043,1,2,0:0:0:0:
448,192,32188,1,8,0:0:0:0:
320,192,32478,1,2,0:0:0:0:
64,192,32768,1,8,0:0:0:0:
448,192,33058,1,2,0:0:0:0:
192,192,33203,1,2,0:0:0:0:
320,192,33348,1,8,0:0:0:0:
64,192,33638,1,2,0:0:0:0:
448,192,33928,1,8,0:0:0:0:
192,192,34072,1,2,0:0:0:0:
64,192,34362,1,2,0:0:0:0:
320,192,34507,1,8,0:0:0:0:
192,192,34797,1,2,0:0:0:0:
448,192,35087,1,8,0:0:0:0:
64,192,35377,1,2,0:0:0:0:
448,192,35522,1,2,0:0:0:0:
192,192,35667,1,8,0:0:0:0:
320,192,35957,1,2,0:0:0:0:
64,192,36246,1,8,0:0:0:0:
448,192,36536,128,0,37116:0:0:0:0:
320,192,36826,1,8,0:0:0:0:
64,192,37116,1,4,0:0:0:0:
192,192,37116,1,2,0:0:0:0:
320,192,37406,1,8,0:0:0:0:
192,192,37696,1,2,0:0:0:0:
448,192,37841,1,2,0:0:0:0:
64,192,37986,1,8,0:0:0:0:
320,192,38275,1,2,0:0:0:0:
192,192,38565,1,8,0:0:0:0:
448,192,38710,1,2,0:0:0:0:
320,192,39000,1,2,0:0:0:0:
64,192,39145,1,8,0:0:0:0:
448,192,39435,1,2,0:0:0:0:
64,192,39725,1,8,0:0:0:0:
320,192,40014,1,2,0:0:0:0:
192,192,40159,1,2,0:0:0:0:
448,192,40304,1,8,0:0:0:0:
64,192,40594,1,2,0:0:0:0:
448,192,40884,1,8,0:0:0:0:
64,192,41029,1,2,0:0:0:0:
192,192,41319,1,2,0:0:0:0:
320,192,41464,1,8,0:0:0:0:
64,192,41754,1,2,0:0:0:0:
448,192,42043,1,8,0:0:0:0:
192,192,42333,1,2,0:0:0:0:
320,192,42478,1,2,0:0:0:0:
64,192,42623,1,8,0:0:0:0:
448,192,42913,1,2,0:0:0:0:
64,192,43203,128,8,43493:0:0:0:0:
448,192,43493,1,8,0:0:0:0:
320,192,43638,1,2,0:0:0:0:
64,192,43783,1,8,0:0:0:0:
192,192,43928,1,8,0:0:0:0:
320,192,44072,1,2,0:0:0:0:
448,192,44072,1,4,0:0:0:0:
64,192,44507,1,2,0:0:0:0:
320,192,44652,1,8,0:0:0:0:
448,192,44942,1,8,0:0:0:0:
64,192,45087,1,4,0:0:0:0:
192,192,45087,1,0,0:0:0:0:
320,192,45377,1,2,0:0:0:0:
64,192,45522,1,8,0:0:0:0:
448,192,45812,1,2,0:0:0:0:
64,192,45957,128,8,46391:0:0:0:0:
320,192,46391,1,2,0:0:0:0:
448,192,46391,1,4,0:0:0:0:
192,192,46681,1,8,0:0:0:0:
64,192,46971,1,2,0:0:0:0:
448,192,47116,1,2,0:0:0:0:
192,192,47261,1,8,0:0:0:0:
320,192,47551,1,2,0:0:0:0:
64,192,47841,1,8,0:0:0:0:
448,192,48130,1,2,0:0:0:0:
64,192,48275,1,2,0:0:0:0:
320,192,48420,1,8,0:0:0:0:
448,192,48710,1,2,0:0:0:0:
192,192,49000,1,8,0:0:0:0:
64,192,49290,1,2,0:0:0:0:
448,192,49435,1,2,0:0:0:0:
320,192,49580,1,8,0:0:0:0:
192,192,49870,1,2,0:0:0:0:
320,192,50159,1,8,0:0:0:0:
64,192,50449,1,2,0:0:0:0:
448,192,50594,1,2,0:0:0:0:
192,192,50739,1,8,0:0:0:0:
64,192,51029,1,2,0:0:0:0:
448,192,51319,1,8,0:0:0:0:
192,192,51609,1,2,0:0:0:0:
320,192,51754,1,2,0:0:0:0:
64,192,51899,1,8,0:0:0:0:
448,192,52188,1,2,0:0:0:0:
64,192,52478,1,8,0:0:0:0:
320,192,52768,1,2,0:0:0:0:
192,192,52913,1,2,0:0:0:0:
448,192,53058,1,8,0:0:0:0:
64,192,53348,1,2,0:0:0:0:
320,192,53638,1,8,0:0:0:0:
64,192,53928,1,2,0:0:0:0:
448,192,54072,1,2,0:0:0:0:
320,192,54217,1,8,0:0:0:0:
64,192,54507,128,2,54797:0:0:0:0:
192,192,54507,1,4,0:0:0:0:
448,192,54797,128,8,55087:0:0:0:0:
64,192,55087,1,8,0:0:0:0:
192,192,55232,1,8,0:0:0:0:
320,192,55377,1,8,0:0:0:0:
448,192,55522,1,8,0:0:0:0:
64,192,55667,1,2,0:0:0:0:
192,192,55667,1,4,0:0:0:0:
448,192,56246,1,8,0:0:0:0:
320,192,56536,1,0,0:0:0:0:
192,192,56826,1,2,0:0:0:0:
64,192,57406,128,8,57986:0:0:0:0:
448,192,57986,1,2,0:0:0:0:
64,192,58565,1,8,0:0:0:0:
192,192,58855,1,0,0:0:0:0:
320,192,59145,1,2,0:0:0:0:
448,192,59725,128,8,60304:0:0:0:0:
64,192,60304,1,2,0:0:0:0:
320,192,60884,1,8,0:0:0:0:
192,192,61174,1,0,0:0:0:0:
448,192,61464,1,2,0:0:0:0:
320,192,62043,128,8,62623:0:0:0:0:
64,192,62623,1,2,0:0:0:0:
448,192,62913,1,2,0:0:0:0:
320,192,63203,1,8,0:0:0:0:
192,192,63493,1,4,0:0:0:0:
320,192,63783,1,0,0:0:0:0:
448,192,63928,1,8,0:0:0:0:
64,192,64072,1,0,0:0:0:70:tom01.wav
192,192,64217,1,8,0:0:0:0:
320,192,64362,1,2,0:0:0:0:
448,192,64362,128,4,64942:0:0:0:0:
64,192,64942,1,2,0:0:0:0:
192,192,64942,1,4,0:0:0:0:
320,192,65232,1,8,0:0:0:0:
192,192,65522,1,2,0:0:0:0:
448,192,65667,1,2,0:0:0:0:
64,192,65812,1,8,0:0:0:0:
320,192,66101,1,2,0:0:0:0:
64,192,66391,1,8,0:0:0:0:
448,192,66536,1,2,0:0:0:0:
320,192,66826,1,2,0:0:0:0:
192,192,66971,1,8,0:0:0:0:
448,192,67261,1,2,0:0:0:0:
64,192,67551,1,8,0:0:0:0:
320,192,67841,1,2,0:0:0:0:
192,192,67986,1,2,0:0:0:0:
448,192,68130,1,8,0:0:0:0:
64,192,68420,1,2,0:0:0:0:
192,192,68710,1,8,0:0:0:0:
448,192,68855,1,2,0:0:0:0:
320,192,69145,1,2,0:0:0:0:
64,192,69290,1,8,0:0:0:0:
192,192,69580,1,2,0:0:0:0:
448,192,69870,1,8,0:0:0:0:
64,192,70159,1,2,0:0:0:0:
320,192,70304,1,2,0:0:0:0:
192,192,70449,1,8,0:0:0:0:
448,192,70739,1,2,0:0:0:0:
64,192,71029,1,8,0:0:0:0:
320,192,71174,1,2,0:0:0:0:
448,192,71464,1,2,0:0:0:0:
192,192,71609,1,8,0:0:0:0:
320,192,71899,1,2,0:0:0:0:
64,192,72188,1,8,0:0:0:0:
448,192,72478,1,2,0:0:0:0:
64,192,72623,1,2,0:0:0:0:
320,192,72768,1,8,0:0:0:0:
192,192,73058,1,2,0:0:0:0:
448,192,73348,1,8,0:0:0:0:
64,192,73638,128,0,74217:0:0:0:0:
192,192,73928,1,8,0:0:0:0:
320,192,74217,1,4,0:0:0:0:
448,192,74217,1,2,0:0:0:0:
192,192,74507,1,8,0:0:0:0:
320,192,74797,1,2,0:0:0:0:
64,192,74942,1,2,0:0:0:0:
448,192,75087,1,8,0:0:0:0:
192,192,75377,1,2,0:0:0:0:
320,192,75667,1,8,0:0:0:0:
64,192,75812,1,2,0:0:0:0:
192,192,76101,1,2,0:0:0:0:
448,192,76246,1,8,0:0:0:0:
64,192,76536,1,2,0:0:0:0:
448,192,76826,1,8,0:0:0:0:
192,192,77116,1,2,0:0:0:0:
320,192,77261,1,2,0:0:0:0:
64,192,77406,1,8,0:0:0:0:
448,192,77696,1,2,0:0:0:0:
64,192,77986,1,8,0:0:0:0:
448,192,78130,1,2,0:0:0:0:
320,192,78420,1,2,0:0:0:0:
192,192,78565,1,8,0:0:0:0:
448,192,78855,1,2,0:0:0:0:
64,192,79145,1,8,0:0:0:0:
320,192,79435,1,2,0:0:0:0:
192,192,79580,1,2,0:0:0:0:
448,192,79725,1,8,0:0:0:0:
64,192,80014,1,2,0:0:0:0:
320,192,80304,1,8,0:0:0:0:
64,192,80449,1,2,0:0:0:0:
192,192,80739,1,2,0:0:0:0:
448,192,80884,1,8,0:0:0:0:
64,192,81174,1,2,0:0:0:0:
448,192,81464,1,8,0:0:0:0:
320,192,81754,1,2,0:0:0:0:
64,192,81899,1,2,0:0:0:0:
192,192,82043,1,8,0:0:0:0:
448,192,82043,1,0,0:0:0:0:
64,192,82333,128,0,82623:0:0:0:0:
192,192,82623,128,0,82913:0:0:0:70:tom01.wav
448,192,82913,1,0,0:0:0:70:tom01.wav
320,192,83058,1,0,0:0:0:0:
64,192,83203,1,2,0:0:0:0:
192,192,83348,1,0,0:0:0:0:
320,192,83493,1,4,0:0:0:0:
448,192,83493,128,2,84072:0:0:0:0:
64,192,84072,1,8,0:0:0:0:
448,192,84507,1,2,0:0:0:0:
64,192,84652,1,8,0:0:0:0:
320,192,84797,128,2,85232:0:0:0:0:
192,192,85232,1,8,0:0:0:0:
64,192,85667,1,2,0:0:0:0:
320,192,85812,1,4,0:0:0:0:
448,192,85812,128,2,88710:0:0:0:0:
