osu file format v14

[General]
AudioFilename: audio.mp3
AudioLeadIn: 0
PreviewTime: 57477
Countdown: 0
SampleSet: Soft
StackLeniency: 0.2
Mode: 0
LetterboxInBreaks: 0
WidescreenStoryboard: 1

[Editor]
Bookmarks: 277,12877,24877,51277,70477,76877,89677,92877
DistanceSpacing: 1.3
BeatDivisor: 4
GridSize: 4
TimelineZoom: 3.299999

[Metadata]
Title:OPENING 1 - 'Sekiro - 'Ready to die more than twice' 2019-2562
TitleUnicode:OPENING 1 สองไม่มี → 'Sekiro - 'Ready to die more than twice' 2019-2562
Artist:HEARTROCKER
ArtistUnicode:HEARTROCKER
Creator:Typ4
Version:INSANE
Source:
Tags:verse one music real game hrk misterheartz sekiro shadows die twice opening 1 สองไม่มี sekiro ready to die more than twice 2019-2562
BeatmapID:2015829
BeatmapSetID:962459

[Difficulty]
HPDrainRate:4
CircleSize:3.8
OverallDifficulty:8
ApproachRate:9.3
SliderMultiplier:2
SliderTickRate:1

[Events]
//Background and Video events
Video,0,"vdo.mp4"
0,0,"hrk.png",0,0
//Break Periods
//Storyboard Layer 0 (Background)
//Storyboard Layer 1 (Fail)
//Storyboard Layer 2 (Pass)
//Storyboard Layer 3 (Foreground)
//Storyboard Sound Samples

[TimingPoints]
277,400,4,2,0,100,1,0
277,-133.333333333333,4,2,0,100,0,0
12877,400,4,2,0,100,1,1
12877,-100,4,2,0,100,0,1
24877,-133.333333333333,4,2,0,100,0,0
38477,-100,4,2,0,100,0,0
43577,-100,4,2,0,20,0,0
43677,-100,4,2,0,100,0,0
44377,-100,4,2,0,20,0,0
44477,-100,4,2,0,100,0,0
44877,-100,4,2,0,100,0,0
48377,-100,4,2,0,20,0,0
48477,-100,4,2,0,100,0,0
51277,-133.333333333333,4,2,0,100,0,0
56077,-200,4,2,0,100,0,0
56477,-133.333333333333,4,2,0,100,0,0
57677,-80,4,2,0,100,0,1
70477,-200,4,2,0,100,0,0
73677,-303.030303030303,4,2,0,100,0,0
75077,-303.030303030303,4,2,0,20,0,0
75277,-400,4,2,0,100,0,0
76877,-100,4,2,0,100,0,0
89677,-263.157894736842,4,2,0,100,0,0
90077,-263.157894736842,4,2,0,80,0,0
90477,-263.157894736842,4,2,0,70,0,0
90877,-263.157894736842,4,2,0,60,0,0
91277,-263.157894736842,4,2,0,50,0,0
91677,-263.157894736842,4,2,0,40,0,0
92077,-263.157894736842,4,2,0,30,0,0
92477,-263.157894736842,4,2,0,20,0,0
92877,-263.157894736842,4,2,0,10,0,0

[HitObjects]
95,65,277,6,0,P|107:137|90:185,1,112.500004291535,2|0,0:0|0:0,0:0:0:0:
194,221,877,2,0,P|174:278|205:365,2,150.000005722046
411,65,1877,6,0,P|399:137|416:185,1,112.500004291535
312,221,2477,2,0,P|332:278|301:365,1,150.000005722046
212,357,3077,1,0,0:0:0:0:
162,279,3277,1,0,0:0:0:0:
232,86,3477,6,0,L|220:232,2,112.500004291535,2|0|0,0:0|0:0|0:0,0:0:0:0:
56,104,4277,1,0,0:0:0:0:
56,104,4477,2,0,P|95:116|158:97,1,75.0000028610231
31,209,4877,1,0,0:0:0:0:
213,288,5077,6,0,L|72:310,2,112.500004291535,2|0|0,0:0|0:0|0:0,0:0:0:0:
293,124,5877,2,0,L|404:106,2,112.500004291535
385,323,6677,6,0,L|396:187,2,112.500004291535,2|0|0,0:0|0:0|0:0,0:0:0:0:
240,258,7477,2,0,L|257:391,2,112.500004291535
121,89,8277,6,0,L|111:201,2,112.500004291535,2|0|0,0:0|0:0|0:0,0:0:0:0:
266,154,9076,2,0,L|251:42,2,112.500004291535
414,261,9877,6,0,P|425:207|412:143,2,112.500004291535,2|0|0,0:0|0:0|0:0,0:0:0:0:
92,261,10677,2,0,P|81:207|94:143,2,112.500004291535
252,311,11477,1,8,0:0:0:0:
252,311,12277,1,0,0:0:0:0:
252,311,12877,6,0,L|272:181,1,100,6|8,0:0|0:0,0:0:0:0:
164,97,13177,2,0,L|178:227,1,100
38,221,13477,2,0,L|90:213,1,50,8|0,0:0|0:0,0:0:0:0:
173,348,13677,6,0,L|108:344,1,50
174,196,13877,2,0,L|255:187,1,50,8|0,0:0|0:0,0:0:0:0:
343,177,14077,1,0,0:0:0:0:
372,217,14177,1,0,0:0:0:0:
382,265,14277,2,0,L|376:318,1,50,8|0,0:0|0:0,0:0:0:0:
488,344,14477,6,0,L|473:210,1,100,0|8,0:0|0:0,0:0:0:0:
424,161,14777,2,0,L|434:52,1,100
338,45,15077,2,0,B|313:35|313:35|287:46,1,50,8|0,0:0|0:0,0:0:0:0:
213,156,15277,6,0,P|239:161|263:155,1,50
176,52,15477,2,0,P|154:46|122:54,1,50,8|0,0:0|0:0,0:0:0:0:
18,127,15677,1,0,0:0:0:0:
23,176,15777,1,0,0:0:0:0:
27,225,15877,2,0,L|108:228,1,50,8|0,0:0|0:0,0:0:0:0:
252,167,16077,6,0,L|242:293,1,100,2|8,0:0|0:0,0:0:0:0:
161,363,16377,2,0,L|151:250,1,100
202,163,16677,2,0,L|276:168,1,50,8|0,0:0|0:0,0:0:0:0:
374,260,16877,2,0,L|320:264,1,50
359,75,17077,1,8,0:0:0:0:
399,104,17177,1,0,0:0:0:0:
427,145,17277,1,0,0:0:0:0:
432,194,17377,1,0,0:0:0:0:
417,241,17477,1,8,0:0:0:0:
210,194,17677,6,0,L|324:179,1,100,0|8,0:0|0:0,0:0:0:0:
384,320,17977,2,0,L|263:309,1,100,2|0,0:0|0:0,0:0:0:0:
73,215,18277,2,8,L|126:208,1,50,0|0,0:0|0:0,0:0:0:0:
109,349,18477,2,0,L|115:293,1,50
73,41,18677,1,0,3:0:0:0:
91,87,18777,1,0,3:0:0:0:
123,124,18877,1,0,3:0:0:0:
172,129,18977,1,0,3:0:0:0:
220,118,19077,1,0,3:0:0:0:
257,85,19177,1,0,3:0:0:0:
279,40,19277,6,0,L|392:25,1,100,6|8,0:0|0:0,0:0:0:0:
463,139,19577,2,0,L|344:125,1,100
356,229,19877,2,0,L|429:216,1,50,8|0,0:0|0:0,0:0:0:0:
365,348,20077,2,0,L|300:343,1,50
266,245,20277,2,0,L|209:252,1,50,8|0,0:0|0:0,0:0:0:0:
87,346,20477,1,0,0:0:0:0:
111,302,20577,1,0,0:0:0:0:
115,252,20677,2,0,L|104:164,1,50,8|0,0:0|0:0,0:0:0:0:
51,47,20877,6,0,L|35:164,1,100,0|8,0:0|0:0,0:0:0:0:
197,173,21177,2,0,L|183:60,1,100
312,41,21477,2,0,L|305:98,1,50,8|0,0:0|0:0,0:0:0:0:
443,126,21677,2,0,L|381:133,1,50
285,208,21877,2,0,L|364:216,1,50,8|0,0:0|0:0,0:0:0:0:
405,332,22077,1,0,0:0:0:0:
356,320,22177,1,0,0:0:0:0:
306,320,22277,2,0,P|279:327|258:338,1,50,8|0,0:0|0:0,0:0:0:0:
22,337,22477,6,0,L|155:320,1,100,2|0,0:0|0:0,0:0:0:0:
187,237,22777,2,0,L|65:225,1,100,8|0,0:0|0:0,0:0:0:0:
27,148,23077,2,0,L|82:142,1,50,8|0,0:0|0:0,0:0:0:0:
225,110,23277,2,0,L|217:165,1,50
144,72,23477,1,8,0:0:0:0:
179,36,23577,1,0,0:0:0:0:
226,20,23677,1,0,0:0:0:0:
274,30,23777,1,0,0:0:0:0:
310,63,23877,1,8,0:0:0:0:
315,214,24077,6,0,L|321:152,1,50
421,93,24277,2,0,L|426:156,1,50,8|0,0:0|0:0,0:0:0:0:
465,295,24477,2,0,L|405:288,1,50
315,214,24677,2,0,L|366:207,1,50,8|0,0:0|0:0,0:0:0:0:
283,338,24877,1,0,3:0:0:0:
223,292,24977,1,0,3:0:0:0:
149,278,25077,1,0,3:0:0:0:
75,293,25177,1,0,3:0:0:0:
25,348,25277,1,0,3:0:0:0:
46,317,25377,1,0,3:0:0:0:
61,282,25477,1,0,3:0:0:0:
66,244,25577,1,0,3:0:0:0:
62,202,25677,6,0,P|56:138|37:60,2,112.500004291535,6|0|0,0:0|0:0|0:0,0:0:0:0:
168,139,26477,2,0,P|173:82|196:13,2,112.500004291535
193,270,27277,5,0,0:0:0:0:
282,289,27577,1,0,0:0:0:0:
358,333,27877,1,0,0:0:0:0:
324,110,28077,2,0,L|326:198,1,75.0000028610231
489,155,28477,2,0,P|447:141|409:149,1,75.0000028610231
412,38,28877,6,0,L|235:44,1,150.000005722046
110,50,29477,1,0,0:0:0:0:
187,219,29677,2,0,P|197:155|187:89,2,112.500004291535
30,181,30477,2,0,L|115:171,1,75.0000028610231
111,284,30877,2,0,L|36:276,1,75.0000028610231
198,336,31277,2,0,L|283:328,1,75.0000028610231
392,322,31677,1,0,0:0:0:0:
392,322,31877,1,0,0:0:0:0:
482,205,32077,6,0,B|505:235|505:235|497:331,2,112.500004291535,2|0|0,0:0|0:0|0:0,0:0:0:0:
400,127,32877,2,0,B|373:100|373:100|368:25,2,112.500004291535
344,216,33677,1,0,0:0:0:0:
218,138,33977,1,0,0:0:0:0:
171,283,34277,1,0,0:0:0:0:
33,152,34477,2,0,L|16:67,1,75.0000028610231
36,247,34877,2,0,L|23:345,1,75.0000028610231
140,190,35277,6,0,P|209:187|267:248,1,150.000005722046
305,338,35877,1,0,0:0:0:0:
211,345,36077,2,0,P|147:343|74:362,2,112.500004291535
343,308,36877,5,0,0:0:0:0:
165,265,37277,5,0,0:0:0:0:
378,172,37677,5,0,0:0:0:0:
149,124,38077,5,0,0:0:0:0:
381,55,38477,6,0,L|394:172,1,100,2|0,0:0|0:0,0:0:0:0:
496,245,38777,1,0,0:0:0:0:
496,245,38877,2,0,P|445:240|374:274,1,100,8|0,0:0|0:0,0:0:0:0:
266,329,39277,1,0,0:0:0:0:
261,348,39377,1,0,0:0:0:0:
100,288,39577,1,0,0:0:0:0:
101,306,39677,1,8,0:0:0:0:
201,236,39877,1,0,0:0:0:0:
36,106,40077,6,0,B|17:144|17:144|33:264,2,150
184,46,40877,1,8,0:0:0:0:
161,44,40977,1,0,0:0:0:0:
303,140,41177,1,0,0:0:0:0:
277,142,41277,1,8,0:0:0:0:
433,53,41477,1,0,0:0:0:0:
367,227,41677,6,0,P|433:201|519:193,2,150,8|0|0,0:0|0:0|0:0,0:0:0:0:
135,187,42477,1,8,0:0:0:0:
138,205,42577,1,0,0:0:0:0:
241,337,42777,1,0,0:0:0:0:
250,320,42877,1,8,0:0:0:0:
271,146,43077,1,0,0:0:0:0:
52,320,43277,6,0,P|98:320|157:236,1,150,8|0,0:0|0:0,0:0:0:0:
157,231,43677,2,0,L|149:117,1,100
460,64,44077,6,0,P|388:76|354:140,1,150
355,153,44477,2,0,L|362:252,1,100
303,353,44877,6,0,P|364:333|451:354,2,150,8|0|0,0:0|0:0|0:0,0:0:0:0:
159,286,45677,1,8,0:0:0:0:
143,284,45777,1,0,0:0:0:0:
305,219,45977,1,0,0:0:0:0:
321,213,46077,1,8,0:0:0:0:
124,159,46277,1,0,0:0:0:0:
336,86,46477,6,0,B|260:96|283:7|169:35,2,150,8|0|0,0:0|0:0|0:0,0:0:0:0:
465,51,47277,1,8,0:0:0:0:
475,49,47377,1,0,0:0:0:0:
483,44,47477,1,0,0:0:0:0:
490,143,47677,1,8,0:0:0:0:
464,230,47877,1,0,0:0:0:0:
349,274,48077,6,0,P|347:307|263:281,1,150,8|0,0:0|0:0,0:0:0:0:
263,276,48477,2,0,L|274:134,1,100
149,97,48877,2,0,L|159:254,2,150,8|0|0,0:0|0:0|0:0,0:0:0:0:
52,115,49677,6,0,P|61:142|78:163,1,50,8|0,0:0|0:0,0:0:0:0:
55,250,49877,1,0,0:0:0:0:
55,250,49977,1,0,0:0:0:0:
55,250,50077,2,0,P|87:256|115:250,1,50,8|0,0:0|0:0,0:0:0:0:
143,339,50277,1,0,0:0:0:0:
143,339,50377,1,0,0:0:0:0:
143,339,50477,6,0,P|176:323|192:302,1,50,8|0,0:0|0:0,0:0:0:0:
266,220,50677,2,0,P|267:252|284:280,1,50
371,334,50877,1,0,3:0:0:0:
414,309,50977,1,0,3:0:0:0:
442,273,51077,1,0,3:0:0:0:
463,224,51177,1,0,3:0:0:0:
456,173,51277,6,0,P|421:130|321:161,1,150.000005722046,10|0,0:0|0:0,0:0:0:0:
56,173,52077,6,0,P|91:130|191:161,1,150.000005722046,8|0,0:0|0:0,0:0:0:0:
390,321,52877,6,0,L|409:151,1,150.000005722046,8|0,0:0|0:0,0:0:0:0:
122,321,53677,6,0,L|103:151,1,150.000005722046,8|0,0:0|0:0,0:0:0:0:
364,64,54477,5,10,0:0:0:0:
138,141,54877,5,0,0:0:0:0:
352,207,55277,5,0,0:0:0:0:
162,278,55677,5,0,0:0:0:0:
256,341,55877,1,0,0:0:0:0:
256,341,55977,1,0,0:0:0:0:
256,341,56077,6,0,B|266:285|236:287|257:234,1,100,2|0,0:0|0:0,0:0:0:0:
346,109,56677,1,0,0:0:0:0:
346,109,56777,1,0,0:0:0:0:
346,109,56877,2,0,L|358:172,1,37.5000014305115
198,179,57077,2,0,L|203:138,1,37.5000014305115
266,49,57277,2,0,L|278:112,1,37.5000014305115
118,119,57477,2,0,L|123:78,1,37.5000014305115
327,185,57677,6,0,P|264:203|182:150,1,125,6|8,0:0|0:0,0:0:0:0:
197,179,57977,2,0,L|188:326,1,125
293,349,58277,2,0,L|285:281,1,62.5,8|0,0:0|0:0,0:0:0:0:
386,164,58477,2,0,L|378:249,1,62.5
478,308,58677,1,8,0:0:0:0:
478,308,58777,2,0,L|461:227,1,62.5
488,156,58977,1,0,0:0:0:0:
488,156,59077,2,0,L|495:87,1,62.5,8|0,0:0|0:0,0:0:0:0:
408,32,59277,6,0,P|351:63|286:29,1,125,0|8,0:0|0:0,0:0:0:0:
289,33,59577,2,0,P|231:51|204:117,1,125
335,170,59877,2,0,P|297:155|268:164,1,62.5,8|0,0:0|0:0,0:0:0:0:
153,176,60077,6,0,B|146:207|146:207|153:236,1,62.5
300,302,60277,1,8,0:0:0:0:
300,302,60377,2,0,B|304:264|304:264|294:230,1,62.5
118,329,60577,1,0,0:0:0:0:
118,329,60677,2,0,L|204:316,1,62.5
332,301,60877,6,0,P|410:310|474:361,2,125,2|8|0,0:0|0:0|0:0,0:0:0:0:
396,219,61377,1,0,0:0:0:0:
396,219,61477,2,0,P|426:202|443:177,1,62.5,8|0,0:0|0:0,0:0:0:0:
357,61,61677,2,0,L|364:137,1,62.5
264,182,61877,1,8,0:0:0:0:
271,151,61977,1,0,0:0:0:0:
278,120,62077,2,0,P|245:123|209:134,1,62.5
178,52,62277,2,0,P|141:55|109:42,1,62.5,8|0,0:0|0:0,0:0:0:0:
35,131,62477,6,0,P|91:196|16:197,1,187.5
15,202,62877,2,0,P|32:268|43:350,1,125
206,274,63277,2,0,P|180:272|142:277,1,62.5
272,349,63477,1,0,3:0:0:0:
301,337,63577,1,0,3:0:0:0:
331,342,63677,1,0,3:0:0:0:
379,354,63777,1,0,3:0:0:0:
428,345,63877,1,0,3:0:0:0:
463,309,63977,1,0,3:0:0:0:
479,261,64077,6,0,L|486:122,1,125,2|8,0:0|0:0,0:0:0:0:
488,118,64377,2,0,P|439:136|371:111,1,125
277,32,64677,2,0,P|287:69|284:103,1,62.5,8|0,0:0|0:0,0:0:0:0:
136,85,64877,2,0,L|203:77,1,62.5
255,176,65077,1,8,0:0:0:0:
255,176,65177,2,0,L|176:175,1,62.5
44,108,65377,1,0,0:0:0:0:
44,108,65477,2,0,B|60:134|60:134|58:176,1,62.5,8|0,0:0|0:0,0:0:0:0:
14,273,65677,6,0,P|86:278|107:324,1,125,0|8,0:0|0:0,0:0:0:0:
116,328,65977,2,0,B|171:357|190:306|239:330,1,125
350,350,66277,2,0,P|329:323|321:288,1,62.5,8|0,0:0|0:0,0:0:0:0:
486,226,66477,2,0,L|481:296,1,62.5
392,220,66677,1,8,0:0:0:0:
392,220,66777,2,0,L|382:143,1,62.5
500,79,66977,1,0,0:0:0:0:
500,79,67077,2,0,L|398:90,1,62.5,8|0,0:0|0:0,0:0:0:0:
260,46,67277,6,0,P|288:99|283:165,2,125,2|8|0,0:0|0:0|0:0,0:0:0:0:
129,105,67777,1,0,0:0:0:0:
129,105,67877,2,0,L|202:111,1,62.5,8|0,0:0|0:0,0:0:0:0:
36,39,68077,2,0,L|31:106,1,62.5
6,219,68277,1,8,0:0:0:0:
37,220,68377,1,0,0:0:0:0:
66,230,68477,1,0,0:0:0:0:
88,252,68577,1,0,0:0:0:0:
101,279,68677,2,0,L|93:347,1,62.5,8|0,0:0|0:0,0:0:0:0:
229,349,68877,6,0,L|217:212,1,125,0|8,0:0|0:0,0:0:0:0:
315,132,69177,1,0,0:0:0:0:
315,132,69277,2,0,L|309:205,1,62.5
393,312,69477,2,0,L|385:244,1,62.5
460,58,69677,1,0,3:0:0:0:
419,87,69777,1,0,3:0:0:0:
369,95,69877,1,0,3:0:0:0:
321,79,69977,1,0,3:0:0:0:
290,39,70077,5,0,3:0:0:0:
215,44,70177,1,0,3:0:0:0:
156,91,70277,1,0,3:0:0:0:
135,163,70377,1,0,3:0:0:0:
184,233,70477,1,6,0:0:0:0:
256,192,70577,12,0,73477,0:0:0:0:
428,165,73677,6,0,B|312:140|353:258|206:202,1,230.999999295044,2|0,0:0|0:0,0:0:0:0:
137,169,75277,2,0,P|110:131|101:84,2,87.5
333,43,76877,6,0,L|324:150,1,100,6|8,0:0|0:0,0:0:0:0:
412,189,77177,2,0,L|430:332,1,100
311,335,77477,2,0,L|314:274,1,50,8|0,0:0|0:0,0:0:0:0:
226,177,77677,2,0,L|233:236,1,50
166,352,77877,2,0,L|171:300,1,50,8|0,0:0|0:0,0:0:0:0:
72,286,78077,1,0,0:0:0:0:
49,241,78177,1,0,0:0:0:0:
40,191,78277,2,0,L|50:101,1,50,8|0,0:0|0:0,0:0:0:0:
1,45,78477,6,0,B|51:61|51:61|119:44,1,100,0|8,0:0|0:0,0:0:0:0:
142,119,78777,2,0,B|196:102|196:102|248:124,1,100
312,77,79077,2,0,P|323:47|317:24,1,50,8|0,0:0|0:0,0:0:0:0:
397,94,79277,2,0,L|402:151,1,50
501,131,79477,2,0,L|498:201,1,50,8|0,0:0|0:0,0:0:0:0:
372,225,79677,1,0,0:0:0:0:
354,271,79777,1,0,0:0:0:0:
361,320,79877,2,0,P|381:341|411:357,1,50,8|0,0:0|0:0,0:0:0:0:
372,225,80077,6,0,P|324:216|274:240,1,100,2|8,0:0|0:0,0:0:0:0:
198,182,80377,2,0,P|184:230|200:286,1,100
316,349,80677,2,0,P|286:342|259:351,1,50,8|0,0:0|0:0,0:0:0:0:
101,353,80877,2,0,P|111:321|107:298,1,50
12,105,81077,1,8,0:0:0:0:
0,153,81177,1,0,0:0:0:0:
19,198,81277,1,0,0:0:0:0:
58,227,81377,1,0,0:0:0:0:
107,223,81477,1,8,0:0:0:0:
267,94,81677,6,0,L|154:103,1,100,0|8,0:0|0:0,0:0:0:0:
256,194,81977,2,0,L|370:208,1,100
379,78,82277,2,0,L|385:134,1,50,8|0,0:0|0:0,0:0:0:0:
485,264,82477,6,0,L|431:269,1,50
334,347,82677,1,0,3:0:0:0:
301,308,82777,1,0,3:0:0:0:
262,275,82877,1,0,3:0:0:0:
213,263,82977,1,0,3:0:0:0:
163,267,83077,1,0,3:0:0:0:
115,282,83177,1,0,3:0:0:0:
77,315,83277,6,0,P|93:267|97:194,1,100,6|8,0:0|0:0,0:0:0:0:
6,105,83577,2,0,P|40:139|108:111,1,100
154,21,83877,2,0,P|151:52|159:81,1,50,8|0,0:0|0:0,0:0:0:0:
289,51,84077,2,0,L|236:55,1,50
205,148,84277,2,0,L|271:154,1,50,8|0,0:0|0:0,0:0:0:0:
390,67,84477,1,0,0:0:0:0:
356,104,84577,1,0,0:0:0:0:
360,153,84677,2,0,P|371:178|385:197,1,50,8|0,0:0|0:0,0:0:0:0:
512,268,84877,6,0,L|406:275,1,100,0|8,0:0|0:0,0:0:0:0:
314,262,85177,2,0,P|308:318|342:359,1,100
271,190,85477,2,0,P|246:188|212:195,1,50,8|0,0:0|0:0,0:0:0:0:
192,319,85677,2,0,L|200:266,1,50
11,202,85877,2,0,L|17:259,1,50,8|0,0:0|0:0,0:0:0:0:
69,353,86077,1,0,0:0:0:0:
98,318,86177,1,0,0:0:0:0:
107,274,86277,2,0,P|112:234|109:208,1,50,8|0,0:0|0:0,0:0:0:0:
6,99,86477,6,0,P|59:118|112:97,1,100,2|8,0:0|0:0,0:0:0:0:
198,37,86777,2,0,L|187:151,1,100
285,193,87077,2,0,L|278:132,1,50,8|0,0:0|0:0,0:0:0:0:
366,35,87277,2,0,L|358:93,1,50
505,170,87477,1,0,0:0:0:0:
462,156,87577,1,0,0:0:0:0:
415,163,87677,1,0,0:0:0:0:
380,191,87777,1,0,0:0:0:0:
365,233,87877,1,8,0:0:0:0:
494,297,88077,6,0,L|436:287,1,50
311,341,88277,2,0,L|363:333,1,50,8|0,0:0|0:0,0:0:0:0:
152,164,88477,2,0,L|145:213,1,50
275,268,88677,2,0,L|270:214,1,50,8|0,0:0|0:0,0:0:0:0:
198,39,88877,5,0,3:0:0:0:
153,44,88977,1,0,3:0:0:0:
112,62,89077,1,0,3:0:0:0:
83,96,89177,1,0,3:0:0:0:
71,139,89277,5,0,3:0:0:0:
132,116,89377,1,0,3:0:0:0:
196,110,89477,1,0,3:0:0:0:
260,119,89577,1,0,3:0:0:0:
311,143,89677,1,6,0:0:0:0:
256,192,89777,12,0,92877,0:0:0:0:
