osu file format v14

[General]
AudioFilename: audio.mp3
AudioLeadIn: 0
PreviewTime: 57477
Countdown: 0
SampleSet: None
StackLeniency: 0.4
Mode: 0
LetterboxInBreaks: 0
WidescreenStoryboard: 1

[Editor]
Bookmarks: 277,12877,24877,25677,38477,51277,70477,76877,89677,92877
DistanceSpacing: 1
BeatDivisor: 4
GridSize: 8
TimelineZoom: 2.899999

[Metadata]
Title:OPENING 1 - 'Sekiro - 'Ready to die more than twice' 2019-2562
TitleUnicode:OPENING 1 สองไม่มี → 'Sekiro - 'Ready to die more than twice' 2019-2562
Artist:HEARTROCKER
ArtistUnicode:HEARTROCKER
Creator:Typ4
Version:HARD
Source:
Tags:verse one music real game hrk misterheartz sekiro shadows die twice opening 1 สองไม่มี sekiro ready to die more than twice 2019-2562
BeatmapID:2015919
BeatmapSetID:962459

[Difficulty]
HPDrainRate:4
CircleSize:3.5
OverallDifficulty:6
ApproachRate:8.6
SliderMultiplier:1.5
SliderTickRate:1

[Events]
//Background and Video events
Video,0,"vdo.mp4"
0,0,"hrk.png",0,0
//Break Periods
//Storyboard Layer 0 (Background)
//Storyboard Layer 1 (Fail)
//Storyboard Layer 2 (Pass)
//Storyboard Layer 3 (Foreground)
//Storyboard Sound Samples

[TimingPoints]
277,400,4,2,0,100,1,0
277,-133.333333333333,4,2,0,100,0,0
12877,400,4,2,0,100,1,1
12877,-100,4,2,0,100,0,1
25677,-133.333333333333,4,2,0,100,0,0
57477,-117.647058823529,4,2,0,100,0,0
57677,-100,4,2,0,100,0,1
70477,-200,4,2,0,100,0,0
76877,-100,4,2,0,100,0,0
89677,-263.157894736842,4,2,0,100,0,0
90077,-263.157894736842,4,2,0,80,0,0
90477,-263.157894736842,4,2,0,70,0,0
90877,-263.157894736842,4,2,0,60,0,0
91277,-263.157894736842,4,2,0,50,0,0
91677,-263.157894736842,4,2,0,40,0,0
92077,-263.157894736842,4,2,0,30,0,0
92477,-263.157894736842,4,2,0,20,0,0
92877,-263.157894736842,4,2,0,10,0,0

[HitObjects]
73,83,277,6,0,L|80:186,2,84.3750032186509,2|0|0,0:0|0:0|0:0,0:0:0:0:
162,65,1277,2,0,P|201:62|271:106,1,112.500004291535
336,240,1877,6,0,L|343:137,2,84.3750032186509
429,260,2877,1,0,0:0:0:0:
429,260,3077,2,0,L|437:323,1,56.2500021457673
330,327,3477,2,0,B|287:318|287:318|229:333,1,84.3750032186509,2|0,0:0|0:0,0:0:0:0:
151,343,4077,1,0,0:0:0:0:
151,343,4277,1,0,0:0:0:0:
151,343,4477,1,0,0:0:0:0:
77,262,4877,1,0,0:0:0:0:
77,262,5077,6,0,B|62:167,2,84.3750032186509
164,201,5877,2,0,P|206:185|247:189,1,84.3750032186509
314,120,6477,1,0,0:0:0:0:
314,120,6677,6,0,P|275:102|213:102,2,84.3750032186509,2|0|0,0:0|0:0|0:0,0:0:0:0:
410,129,7477,2,0,P|420:85|410:26,2,84.3750032186509
409,254,8277,6,0,P|418:294|415:336,2,84.3750032186509,2|0|0,0:0|0:0|0:0,0:0:0:0:
314,264,9077,2,0,P|275:282|213:282,2,84.3750032186509
150,254,9877,6,0,P|140:294|143:336,2,84.3750032186509,2|0|0,0:0|0:0|0:0,0:0:0:0:
150,129,10677,2,0,P|140:88|143:46,2,84.3750032186509
235,192,11477,1,8,0:0:0:0:
475,54,12877,6,0,L|461:158,1,75,6|8,0:0|0:0,0:0:0:0:
420,154,13177,2,0,L|433:245,1,75
449,318,13477,1,8,0:0:0:0:
312,342,13677,6,0,B|292:315|292:315|294:268,1,75,0|8,0:0|0:0,0:0:0:0:
307,126,14077,2,0,L|319:172,2,37.5,0|0|8,0:0|0:0|0:0,0:0:0:0:
219,50,14477,6,0,L|205:154,1,75,0|8,0:0|0:0,0:0:0:0:
164,150,14777,2,0,L|177:241,1,75
193,314,15077,1,8,0:0:0:0:
56,338,15277,6,0,B|36:311|36:311|38:264,1,75,0|8,0:0|0:0,0:0:0:0:
46,142,15677,1,0,0:0:0:0:
46,142,15777,1,0,0:0:0:0:
46,142,15877,1,8,0:0:0:0:
164,213,16077,6,0,L|155:116,1,75,0|8,0:0|0:0,0:0:0:0:
155,106,16377,2,0,L|258:96,1,75
316,92,16677,1,8,0:0:0:0:
394,193,16877,2,0,L|296:183,1,75,0|8,0:0|0:0,0:0:0:0:
262,253,17177,1,0,0:0:0:0:
262,253,17277,2,0,L|221:258,2,37.5,0|0|8,0:0|0:0|0:0,0:0:0:0:
439,287,17677,6,0,L|348:276,1,75,0|8,0:0|0:0,0:0:0:0:
352,328,17977,2,0,L|259:340,1,75
186,341,18277,1,8,0:0:0:0:
25,343,18477,5,0,3:0:0:0:
25,343,18577,1,0,3:0:0:0:
25,343,18677,2,0,L|64:307,1,37.5,0|0,3:0|3:0,3:0:0:0:
140,262,18877,2,0,L|181:273,1,37.5,0|0,3:0|3:0,3:0:0:0:
272,295,19077,2,0,L|289:332,1,37.5,0|0,3:0|3:0,3:0:0:0:
475,330,19277,6,0,L|461:226,1,75,6|8,0:0|0:0,0:0:0:0:
420,230,19577,2,0,L|433:139,1,75
449,66,19877,1,8,0:0:0:0:
312,42,20077,6,0,B|292:69|292:69|294:116,1,75,0|8,0:0|0:0,0:0:0:0:
307,258,20477,2,0,L|319:212,2,37.5,0|0|8,0:0|0:0|0:0,0:0:0:0:
219,334,20877,6,0,L|205:230,1,75,0|8,0:0|0:0,0:0:0:0:
164,234,21177,2,0,L|177:143,1,75
193,70,21477,1,8,0:0:0:0:
56,46,21677,6,0,B|36:73|36:73|38:120,1,75,0|8,0:0|0:0,0:0:0:0:
46,242,22077,1,0,0:0:0:0:
46,242,22177,1,0,0:0:0:0:
46,242,22277,1,8,0:0:0:0:
164,171,22477,6,0,L|155:268,1,75,0|8,0:0|0:0,0:0:0:0:
155,278,22777,2,0,L|258:288,1,75
316,292,23077,1,8,0:0:0:0:
394,191,23277,2,0,L|296:201,1,75,0|8,0:0|0:0,0:0:0:0:
262,131,23577,1,0,0:0:0:0:
262,131,23677,2,0,L|221:126,2,37.5,0|0|8,0:0|0:0|0:0,0:0:0:0:
439,97,24077,6,0,L|348:108,1,75,0|8,0:0|0:0,0:0:0:0:
352,56,24377,2,0,L|259:44,1,75
186,43,24677,1,8,0:0:0:0:
25,41,24877,5,0,3:0:0:0:
25,41,24977,1,0,3:0:0:0:
25,41,25077,2,0,L|64:77,1,37.5,0|0,3:0|3:0,3:0:0:0:
140,122,25277,2,0,L|181:111,1,37.5,0|0,3:0|3:0,3:0:0:0:
272,89,25477,2,0,L|289:52,1,37.5,0|0,3:0|3:0,3:0:0:0:
432,32,25677,6,0,L|443:129,2,84.3750032186509,6|0|0,0:0|0:0|0:0,0:0:0:0:
351,164,26477,2,0,L|343:270,2,84.3750032186509
449,260,27277,1,0,0:0:0:0:
358,348,27577,1,0,0:0:0:0:
256,356,27877,2,0,P|204:338|166:283,1,112.500004291535
264,196,28477,2,0,L|259:255,1,56.2500021457673
84,255,28877,6,0,B|97:212|97:212|176:200|176:200,1,112.500004291535
219,123,29477,1,0,0:0:0:0:
52,100,29677,2,0,P|101:109|149:138,2,84.3750032186509
26,128,30477,6,0,L|34:198,1,56.2500021457673
109,271,30877,2,0,L|125:205,1,56.2500021457673
206,105,31277,2,0,L|214:175,1,56.2500021457673
282,277,31677,1,0,0:0:0:0:
306,197,31877,1,0,0:0:0:0:
366,126,32077,6,0,L|466:124,2,84.3750032186509,2|0|0,0:0|0:0|0:0,0:0:0:0:
413,218,32877,2,0,L|509:226,2,84.3750032186509
346,295,33677,5,0,0:0:0:0:
190,322,33977,1,0,0:0:0:0:
259,254,34277,1,0,0:0:0:0:
259,254,34477,2,0,P|267:218|264:186,1,56.2500021457673
155,149,34877,2,0,P|147:185|150:217,1,56.2500021457673
336,140,35277,6,0,B|304:110|304:110|222:103,1,112.500004291535
100,96,35877,1,0,0:0:0:0:
41,215,36077,2,0,P|29:273|30:312,2,84.3750032186509
149,288,36877,6,0,P|156:323|156:344,1,56.2500021457673
249,286,37277,2,0,P|263:321|269:354,1,56.2500021457673
349,266,37677,2,0,P|373:287|389:316,1,56.2500021457673
445,240,38077,2,0,P|473:249|497:268,1,56.2500021457673
492,128,38477,6,0,L|417:139,1,56.2500021457673,6|0,0:0|0:0,0:0:0:0:
379,67,38777,2,0,L|307:62,1,56.2500021457673
253,124,39077,1,0,0:0:0:0:
125,30,39277,1,0,0:0:0:0:
125,30,39377,2,0,P|141:62|136:102,1,56.2500021457673
52,139,39677,1,0,0:0:0:0:
52,139,39877,1,0,0:0:0:0:
81,281,40077,6,0,L|148:287,1,56.2500021457673
182,210,40377,2,0,L|246:205,1,56.2500021457673
281,286,40677,1,0,0:0:0:0:
383,229,40877,5,0,0:0:0:0:
383,229,40977,2,0,L|398:309,1,56.2500021457673
481,317,41277,1,0,0:0:0:0:
481,317,41477,1,0,0:0:0:0:
494,130,41677,6,0,L|488:206,1,56.2500021457673
401,143,41977,2,0,L|395:74,1,56.2500021457673
306,76,42277,1,0,0:0:0:0:
191,174,42477,1,0,0:0:0:0:
191,174,42577,2,0,P|222:167|267:175,1,56.2500021457673
227,253,42877,1,0,0:0:0:0:
227,253,43077,1,0,0:0:0:0:
42,327,43277,6,0,L|112:353,1,56.2500021457673
96,245,43677,2,0,L|159:256,1,56.2500021457673
96,139,44077,2,0,L|159:128,1,56.2500021457673
42,57,44477,2,0,L|112:31,1,56.2500021457673
20,256,44877,6,0,L|95:245,1,56.2500021457673,2|0,0:0|0:0,0:0:0:0:
133,317,45177,2,0,L|205:322,1,56.2500021457673
259,260,45477,1,0,0:0:0:0:
387,354,45677,1,0,0:0:0:0:
387,354,45777,2,0,P|371:322|376:282,1,56.2500021457673
460,245,46077,1,0,0:0:0:0:
460,245,46277,1,0,0:0:0:0:
431,103,46477,6,0,L|364:97,1,56.2500021457673
330,174,46777,2,0,L|266:179,1,56.2500021457673
231,98,47077,1,0,0:0:0:0:
129,155,47277,5,0,0:0:0:0:
129,155,47377,2,0,L|114:75,1,56.2500021457673
31,67,47677,1,0,0:0:0:0:
31,67,47877,1,0,0:0:0:0:
18,254,48077,6,0,L|24:178,1,56.2500021457673
111,241,48377,2,0,L|117:310,1,56.2500021457673
206,308,48677,1,0,0:0:0:0:
321,210,48877,1,0,0:0:0:0:
321,210,48977,2,0,P|290:217|245:209,1,56.2500021457673
285,131,49277,1,0,0:0:0:0:
285,131,49477,1,0,0:0:0:0:
470,57,49677,6,0,L|400:31,1,56.2500021457673
416,139,50077,2,0,L|353:128,1,56.2500021457673
416,245,50477,2,0,L|353:256,1,56.2500021457673
470,327,50877,2,0,L|424:344,3,28.1250010728836
334,335,51277,6,0,B|136:383|231:201|19:260,1,337.500012874604,6|0,0:0|0:0,0:0:0:0:
32,101,52877,2,0,P|104:109|51:161,1,168.750006437302
175,48,53677,1,0,0:0:0:0:
201,95,53877,1,0,0:0:0:0:
191,145,54077,1,0,0:0:0:0:
236,131,54277,1,0,0:0:0:0:
295,122,54477,6,0,L|428:118,1,112.500004291535,8|0,0:0|0:0,0:0:0:0:
295,262,55277,2,0,L|428:266,1,112.500004291535,8|0,0:0|0:0,0:0:0:0:
197,212,55877,1,0,0:0:0:0:
197,212,55977,1,0,0:0:0:0:
197,212,56077,6,0,L|191:291,1,56.2500021457673,8|0,0:0|0:0,0:0:0:0:
94,309,56477,2,0,L|89:230,1,56.2500021457673
118,215,56777,1,0,0:0:0:0:
116,205,56877,2,0,L|112:152,3,28.1250010728836,0|0|0|0,3:0|3:0|3:0|3:0,3:0:0:0:
16,128,57277,1,0,3:0:0:0:
30,118,57377,1,0,3:0:0:0:
51,105,57477,2,0,P|76:96|109:94,1,31.8750006079674,0|0,3:0|3:0,3:0:0:0:
190,38,57677,6,0,L|188:130,1,75,6|8,0:0|0:0,0:0:0:0:
248,173,57977,2,0,L|339:176,1,75
396,125,58277,1,8,0:0:0:0:
501,243,58477,6,0,P|460:225|418:221,1,75,0|8,0:0|0:0,0:0:0:0:
398,301,58777,2,0,P|364:320|305:312,1,75
279,244,59077,1,8,0:0:0:0:
187,351,59277,6,0,L|199:266,1,75,0|8,0:0|0:0,0:0:0:0:
94,177,59577,2,0,L|104:270,1,75
20,281,59877,1,8,0:0:0:0:
18,130,60077,6,0,P|44:109|113:95,1,75,0|8,0:0|0:0,0:0:0:0:
139,29,60377,2,0,P|181:48|231:48,1,75
302,34,60677,1,8,0:0:0:0:
391,126,60877,6,0,P|409:68|405:4,2,112.5
278,135,61677,1,0,0:0:0:0:
278,135,61777,1,0,0:0:0:0:
278,135,61877,2,0,P|307:181|320:222,1,75,8|0,0:0|0:0,0:0:0:0:
434,249,62277,1,8,0:0:0:0:
434,249,62377,1,0,0:0:0:0:
434,249,62477,6,0,P|379:284|393:332,1,112.5
385,323,62877,2,0,L|251:319,1,112.5
177,333,63277,1,0,0:0:0:0:
71,246,63477,1,8,0:0:0:0:
71,246,63577,1,0,0:0:0:0:
71,246,63677,2,0,L|122:232,1,37.5
66,148,63877,2,0,L|113:137,1,37.5,8|0,0:0|0:0,0:0:0:0:
271,62,64077,6,0,P|224:66|193:98,1,75,2|8,0:0|0:0,0:0:0:0:
182,169,64377,2,0,P|195:210|226:241,1,75
302,237,64677,1,8,0:0:0:0:
497,152,64877,6,0,P|455:170|435:201,1,75,0|8,0:0|0:0,0:0:0:0:
418,272,65177,2,0,P|424:312|448:340,1,75
352,359,65477,1,8,0:0:0:0:
190,331,65677,6,0,L|277:316,1,75,0|8,0:0|0:0,0:0:0:0:
312,243,65977,2,0,L|299:170,1,75
224,114,66277,1,8,0:0:0:0:
119,35,66477,6,0,L|126:117,1,75,0|8,0:0|0:0,0:0:0:0:
46,152,66777,2,0,L|40:240,1,75
111,282,67077,1,8,0:0:0:0:
226,252,67277,6,0,P|275:257|350:299,2,112.5,2|0|0,0:0|0:0|0:0,0:0:0:0:
148,166,68077,1,0,0:0:0:0:
148,166,68177,1,0,0:0:0:0:
148,166,68277,2,0,P|183:131|214:127,1,75,8|0,0:0|0:0,0:0:0:0:
348,187,68677,1,8,0:0:0:0:
348,187,68777,1,0,0:0:0:0:
348,187,68877,2,0,P|314:147|353:86,1,112.5
341,94,69277,2,0,L|429:83,1,75
490,153,69677,1,0,0:0:0:0:
481,291,69877,6,0,L|447:273,1,37.5,0|0,3:0|3:0,3:0:0:0:
378,338,70077,2,0,L|368:297,1,37.5,0|0,3:0|3:0,3:0:0:0:
256,324,70277,2,0,L|278:291,1,37.5,0|0,3:0|3:0,3:0:0:0:
346,211,70477,1,6,0:0:0:0:
256,192,70577,12,0,73677,0:0:0:0:
256,192,75277,5,0,0:0:0:0:
256,192,76077,1,0,0:0:0:0:
37,330,76877,6,0,L|51:226,1,75,6|8,0:0|0:0,0:0:0:0:
92,230,77177,2,0,L|79:139,1,75
63,66,77477,1,8,0:0:0:0:
200,42,77677,6,0,B|220:69|220:69|218:116,1,75,0|8,0:0|0:0,0:0:0:0:
205,258,78077,2,0,L|193:212,2,37.5,0|0|8,0:0|0:0|0:0,0:0:0:0:
293,334,78477,6,0,L|307:230,1,75,0|8,0:0|0:0,0:0:0:0:
348,234,78777,2,0,L|335:143,1,75
319,70,79077,1,8,0:0:0:0:
456,46,79277,6,0,B|476:73|476:73|474:120,1,75,0|8,0:0|0:0,0:0:0:0:
466,242,79677,1,0,0:0:0:0:
466,242,79777,1,0,0:0:0:0:
466,242,79877,1,8,0:0:0:0:
348,171,80077,6,0,L|357:268,1,75,0|8,0:0|0:0,0:0:0:0:
357,278,80377,2,0,L|254:288,1,75
196,292,80677,1,8,0:0:0:0:
118,191,80877,2,0,L|216:201,1,75,0|8,0:0|0:0,0:0:0:0:
250,131,81177,1,0,0:0:0:0:
250,131,81277,2,0,L|291:126,2,37.5,0|0|8,0:0|0:0|0:0,0:0:0:0:
73,97,81677,6,0,L|164:108,1,75,0|8,0:0|0:0,0:0:0:0:
160,56,81977,2,0,L|253:44,1,75
326,43,82277,1,8,0:0:0:0:
487,41,82477,5,0,3:0:0:0:
487,41,82577,1,0,3:0:0:0:
487,41,82677,2,0,L|448:77,1,37.5,0|0,3:0|3:0,3:0:0:0:
372,122,82877,2,0,L|331:111,1,37.5,0|0,3:0|3:0,3:0:0:0:
240,89,83077,2,0,L|223:52,1,37.5,0|0,3:0|3:0,3:0:0:0:
37,54,83277,6,0,L|51:158,1,75,6|8,0:0|0:0,0:0:0:0:
92,154,83577,2,0,L|79:245,1,75
63,318,83877,1,8,0:0:0:0:
200,342,84077,6,0,B|220:315|220:315|218:268,1,75,0|8,0:0|0:0,0:0:0:0:
205,126,84477,2,0,L|193:172,2,37.5,0|0|8,0:0|0:0|0:0,0:0:0:0:
293,50,84877,6,0,L|307:154,1,75,0|8,0:0|0:0,0:0:0:0:
348,150,85177,2,0,L|335:241,1,75
319,314,85477,1,8,0:0:0:0:
456,338,85677,6,0,B|476:311|476:311|474:264,1,75,0|8,0:0|0:0,0:0:0:0:
466,142,86077,1,0,0:0:0:0:
466,142,86177,1,0,0:0:0:0:
466,142,86277,1,8,0:0:0:0:
348,213,86477,6,0,L|357:116,1,75,0|8,0:0|0:0,0:0:0:0:
357,106,86777,2,0,L|254:96,1,75
196,92,87077,1,8,0:0:0:0:
118,193,87277,2,0,L|216:183,1,75,0|8,0:0|0:0,0:0:0:0:
250,253,87577,1,0,0:0:0:0:
250,253,87677,2,0,L|291:258,2,37.5,0|0|8,0:0|0:0|0:0,0:0:0:0:
73,287,88077,6,0,L|164:276,1,75,0|8,0:0|0:0,0:0:0:0:
160,328,88377,2,0,L|253:340,1,75
326,341,88677,1,8,0:0:0:0:
487,343,88877,5,0,3:0:0:0:
487,343,88977,1,0,3:0:0:0:
487,343,89077,2,0,L|448:307,1,37.5,0|0,3:0|3:0,3:0:0:0:
372,262,89277,2,0,L|331:273,1,37.5,0|0,3:0|3:0,3:0:0:0:
240,295,89477,2,0,L|223:332,1,37.5,0|0,3:0|3:0,3:0:0:0:
125,337,89677,1,6,0:0:0:0:
256,192,89777,12,0,92877,0:0:0:0:
