osu file format v14

[General]
AudioFilename: audio.mp3
AudioLeadIn: 0
PreviewTime: 28791
Countdown: 0
SampleSet: Soft
StackLeniency: 0
Mode: 0
LetterboxInBreaks: 0
WidescreenStoryboard: 1

[Editor]
Bookmarks: 107680,113976
DistanceSpacing: 1.8
BeatDivisor: 8
GridSize: 8
TimelineZoom: 1.5

[Metadata]
Title:ASHAMED
TitleUnicode:ASHAMED
Artist:HEALTH
ArtistUnicode:HEALTH
Creator:The Emperor
Version:++++++++++++++++++++++++
Source:
Tags:YOU WILL LOVE EACH OTHER YOU WILL LOVE EACH OTHER YOU WILL LOVE EACH OTHER YOU WILL LOVE EACH OTHER YOU WILL LOVE EACH OTHER YOU WILL LOVE EACH OTHER
BeatmapID:5331405
BeatmapSetID:2443321

[Difficulty]
HPDrainRate:6
CircleSize:6
OverallDifficulty:9
ApproachRate:8
SliderMultiplier:1.4
SliderTickRate:1

[Events]
//Background and Video events
0,0,"vivaldi_j3xfWiSiFC.png",0,0
//Break Periods
2,5288,16189
2,75658,86560
//Storyboard Layer 0 (Background)
//Storyboard Layer 1 (Fail)
//Storyboard Layer 2 (Pass)
//Storyboard Layer 3 (Foreground)
//Storyboard Layer 4 (Overlay)
//Storyboard Sound Samples

[TimingPoints]
5088,740.740740740741,4,2,0,100,1,0
5088,-100,4,2,0,5,0,0
16939,-100,4,2,0,100,0,0
17588,-100,4,2,0,5,0,0
17680,-50,4,2,0,100,0,0
18328,-50,4,2,0,5,0,0
18421,-50,4,2,0,100,0,0
19254,-50,4,2,0,5,0,0
19347,-50,4,2,0,100,0,0
19902,-100,4,2,0,100,0,0
20550,-100,4,2,0,5,0,0
20643,-50,4,2,0,100,0,0
21662,-50,4,2,0,5,0,0
21754,-50,4,2,0,100,0,0
22032,-50,4,2,0,5,0,0
22125,-50,4,2,0,100,0,0
22217,-50,4,2,0,5,0,0
22310,-71.4285714285714,4,2,0,100,0,0
22773,-71.4285714285714,4,2,0,5,0,0
22865,-71.4285714285714,4,2,0,100,0,0
23328,-71.4285714285714,4,2,0,5,0,0
23421,-71.4285714285714,4,2,0,100,0,0
25088,-50,4,2,0,100,0,0
25180,-50,4,2,0,5,0,0
25273,-50,4,2,0,100,0,0
25828,-100,4,2,0,100,0,0
26476,-100,4,2,0,5,0,0
28791,-50,4,2,0,100,0,0
29439,-50,4,2,0,5,0,0
29532,-50,4,2,0,100,0,0
30180,-50,4,2,0,5,0,0
30273,-50,4,2,0,100,0,0
30550,-50,4,2,0,5,0,0
30643,-50,4,2,0,100,0,0
30921,-50,4,2,0,5,0,0
31013,-50,4,2,0,100,0,0
31106,-50,4,2,0,5,0,0
31199,-50,4,2,0,100,0,0
32032,-50,4,2,0,5,0,0
32125,-50,4,2,0,100,0,0
32773,-50,4,2,0,5,0,0
32865,-50,4,2,0,100,0,0
33513,-50,4,2,0,5,0,0
33606,-50,4,2,0,100,0,0
35365,-50,4,2,0,5,0,0
35458,-50,4,2,0,100,0,0
36106,-50,4,2,0,5,0,0
36199,-50,4,2,0,100,0,0
36476,-50,4,2,0,5,0,0
36569,-50,4,2,0,100,0,0
36847,-50,4,2,0,5,0,0
36939,-50,4,2,0,100,0,0
37217,-50,4,2,0,5,0,0
37310,-50,4,2,0,100,0,0
37588,-50,4,2,0,5,0,0
37680,-50,4,2,0,100,0,0
38328,-50,4,2,0,5,0,0
38421,-50,4,2,0,100,0,0
38791,-66.6666666666667,4,2,0,100,0,0
40550,-66.6666666666667,4,2,0,5,0,0
40643,-50,4,2,0,100,0,0
41291,-50,4,2,0,5,0,0
41384,-50,4,2,0,100,0,0
42032,-50,4,2,0,5,0,0
42125,-50,4,2,0,100,0,0
42402,-50,4,2,0,5,0,0
42495,-50,4,2,0,100,0,0
42773,-50,4,2,0,5,0,0
42865,-50,4,2,0,100,0,0
42958,-50,4,2,0,5,0,0
43050,-50,4,2,0,100,0,0
43513,-50,4,2,0,5,0,0
43606,-50,4,2,0,100,0,0
44625,-50,4,2,0,5,0,0
44717,-40,4,2,0,100,0,0
45365,-40,4,2,0,5,0,0
45458,-40,4,2,0,100,0,0
45736,-40,4,2,0,5,0,0
45828,-50,4,2,0,100,0,0
45921,-50,4,2,0,5,0,0
46013,-50,4,2,0,100,0,0
47217,-50,4,2,0,5,0,0
47310,-50,4,2,0,100,0,0
47958,-50,4,2,0,5,0,0
48050,-50,4,2,0,100,0,0
49902,-50,4,2,0,5,0,0
51754,-33.3333333333333,4,2,0,100,0,0
52402,-33.3333333333333,4,2,0,5,0,0
52495,-16.6666666666667,4,2,0,100,0,0
57125,-25,4,2,0,100,0,0
57495,-16.6666666666667,4,2,0,100,0,0
60643,-33.3333333333333,4,2,0,100,0,0
63143,-33.3333333333333,4,2,0,5,0,0
63236,-33.3333333333333,4,2,0,100,0,0
64347,-16.6666666666667,4,2,0,100,0,0
68976,-25,4,2,0,100,0,0
69347,-16.6666666666667,4,2,0,100,0,0
72495,-33.3333333333333,4,2,0,100,0,0
74995,-33.3333333333333,4,2,0,5,0,0
75088,-33.3333333333333,4,2,0,100,0,0
87310,-500,4,2,0,100,0,0
87958,-500,4,2,0,5,0,0
88050,-66.6666666666667,4,2,0,100,0,0
88699,-66.6666666666667,4,2,0,5,0,0
88791,-66.6666666666667,4,2,0,100,0,0
89439,-66.6666666666667,4,2,0,5,0,0
89532,-66.6666666666667,4,2,0,100,0,0
89810,-66.6666666666667,4,2,0,5,0,0
89902,-66.6666666666667,4,2,0,100,0,0
90180,-66.6666666666667,4,2,0,5,0,0
90273,-66.6666666666667,4,2,0,100,0,0
90921,-66.6666666666667,4,2,0,5,0,0
91013,-66.6666666666667,4,2,0,100,0,0
91291,-66.6666666666667,4,2,0,5,0,0
91384,-66.6666666666667,4,2,0,100,0,0
91662,-66.6666666666667,4,2,0,5,0,0
91754,-66.6666666666667,4,2,0,100,0,0
92032,-66.6666666666667,4,2,0,5,0,0
92125,-66.6666666666667,4,2,0,100,0,0
92402,-66.6666666666667,4,2,0,5,0,0
92495,-66.6666666666667,4,2,0,100,0,0
93328,-66.6666666666667,4,2,0,5,0,0
93421,-66.6666666666667,4,2,0,100,0,0
93976,-50,4,2,0,100,0,0
95088,-66.6666666666667,4,2,0,100,0,0
95365,-66.6666666666667,4,2,0,5,0,0
95458,-66.6666666666667,4,2,0,100,0,0
95736,-66.6666666666667,4,2,0,5,0,0
95828,-66.6666666666667,4,2,0,100,0,0
96106,-66.6666666666667,4,2,0,5,0,0
96199,-66.6666666666667,4,2,0,100,0,0
96291,-66.6666666666667,4,2,0,5,0,0
96384,-66.6666666666667,4,2,0,100,0,0
99902,-50,4,2,0,100,0,0
100550,-50,4,2,0,5,0,0
100643,-50,4,2,0,100,0,0
101291,-50,4,2,0,5,0,0
101384,-50,4,2,0,100,0,0
101662,-50,4,2,0,5,0,0
101754,-50,4,2,0,100,0,0
102032,-50,4,2,0,5,0,0
102125,-50,4,2,0,100,0,0
102217,-50,4,2,0,5,0,0
102310,-50,4,2,0,100,0,0
103143,-50,4,2,0,5,0,0
103236,-50,4,2,0,100,0,0
103884,-50,4,2,0,5,0,0
103976,-50,4,2,0,100,0,0
104625,-50,4,2,0,5,0,0
104717,-50,4,2,0,100,0,0
106476,-50,4,2,0,5,0,0
106569,-50,4,2,0,100,0,0
107217,-50,4,2,0,5,0,0
107310,-50,4,2,0,100,0,0
107588,-50,4,2,0,5,0,0
107680,-50,4,2,0,100,0,0
107958,-50,4,2,0,5,0,0
108050,-50,4,2,0,100,0,0
108328,-50,4,2,0,5,0,0
108421,-50,4,2,0,100,0,0
108699,-50,4,2,0,5,0,0
108791,-50,4,2,0,100,0,0
109439,-50,4,2,0,5,0,0
109532,-50,4,2,0,100,0,0
109902,-66.6666666666667,4,2,0,100,0,0
111662,-66.6666666666667,4,2,0,5,0,0
111754,-50,4,2,0,100,0,0
112402,-50,4,2,0,5,0,0
112495,-50,4,2,0,100,0,0
113143,-50,4,2,0,5,0,0
113236,-50,4,2,0,100,0,0
113513,-50,4,2,0,5,0,0
113606,-50,4,2,0,100,0,0
113884,-50,4,2,0,5,0,0
113976,-50,4,2,0,100,0,0
114069,-50,4,2,0,5,0,0
114162,-50,4,2,0,100,0,0
114625,-50,4,2,0,5,0,0
114717,-50,4,2,0,100,0,0
115736,-50,4,2,0,5,0,0
115828,-40,4,2,0,100,0,0
116476,-40,4,2,0,5,0,0
116569,-40,4,2,0,100,0,0
116847,-40,4,2,0,5,0,0
116939,-50,4,2,0,100,0,0
117032,-50,4,2,0,5,0,0
117125,-50,4,2,0,100,0,0
118328,-50,4,2,0,5,0,0
118421,-50,4,2,0,100,0,0
119069,-50,4,2,0,5,0,0
119162,-50,4,2,0,100,0,0
121013,-50,4,2,0,5,0,0
122125,-16.6666666666667,4,2,0,100,0,1
122680,-16.6666666666667,4,2,0,5,0,0
122865,-16.6666666666667,4,2,0,100,0,1
123421,-16.6666666666667,4,2,0,5,0,0
123606,-16.6666666666667,4,2,0,100,0,0
127680,-16.6666666666667,4,2,0,100,0,0
128236,-25,4,2,0,100,0,0
128606,-16.6666666666667,4,2,0,100,0,0
131754,-33.3333333333333,4,2,0,100,0,0
134717,-16.6666666666667,4,2,0,100,0,0
135272,-16.6666666666667,4,2,0,5,0,0
135458,-12.5,4,2,0,100,0,1
135550,-12.5,4,2,0,5,0,0
135643,-12.5,4,2,0,100,0,0
135735,-12.5,4,2,0,5,0,0
135828,-12.5,4,2,0,100,0,0
135920,-12.5,4,2,0,5,0,0
136013,-12.5,4,2,0,100,0,0
136106,-12.5,4,2,0,5,0,0
136199,-16.6666666666667,4,2,0,100,0,1
136291,-16.6666666666667,4,2,0,5,0,0
136383,-16.6666666666667,4,2,0,100,0,0
136476,-16.6666666666667,4,2,0,5,0,0
136569,-16.6666666666667,4,2,0,100,0,0
136661,-16.6666666666667,4,2,0,5,0,0
136754,-16.6666666666667,4,2,0,100,0,0
136846,-16.6666666666667,4,2,0,5,0,0
136939,-25,4,2,0,100,0,1
137032,-25,4,2,0,5,0,0
137124,-25,4,2,0,100,0,0
137217,-25,4,2,0,5,0,0
137309,-25,4,2,0,100,0,0
137402,-25,4,2,0,5,0,0
137494,-25,4,2,0,100,0,0
137587,-25,4,2,0,5,0,0
137680,-25,4,2,0,100,0,0
137772,-25,4,2,0,5,0,0
137865,-25,4,2,0,100,0,0
137957,-25,4,2,0,5,0,0
138050,-25,4,2,0,100,0,0
138143,-25,4,2,0,5,0,0
138235,-25,4,2,0,100,0,0
138328,-25,4,2,0,5,0,0
138421,-12.5,4,2,0,100,0,1
138513,-12.5,4,2,0,5,0,0
138606,-12.5,4,2,0,100,0,0
138698,-12.5,4,2,0,5,0,0
138791,-12.5,4,2,0,100,0,0
138883,-12.5,4,2,0,5,0,0
138976,-12.5,4,2,0,100,0,0
139069,-12.5,4,2,0,5,0,0
139162,-16.6666666666667,4,2,0,100,0,1
139254,-16.6666666666667,4,2,0,5,0,0
139346,-16.6666666666667,4,2,0,100,0,0
139439,-16.6666666666667,4,2,0,5,0,0
139532,-16.6666666666667,4,2,0,100,0,0
139624,-16.6666666666667,4,2,0,5,0,0
139717,-16.6666666666667,4,2,0,100,0,0
139809,-16.6666666666667,4,2,0,5,0,0
139902,-25,4,2,0,100,0,1
139995,-25,4,2,0,5,0,0
140087,-25,4,2,0,100,0,0
140180,-25,4,2,0,5,0,0
140272,-25,4,2,0,100,0,0
140365,-25,4,2,0,5,0,0
140457,-25,4,2,0,100,0,0
140550,-25,4,2,0,5,0,0
140643,-25,4,2,0,100,0,1
140736,-25,4,2,0,5,0,0
140828,-25,4,2,0,100,0,0
140920,-25,4,2,0,5,0,0
141013,-25,4,2,0,100,0,0
141106,-25,4,2,0,5,0,0
141198,-25,4,2,0,100,0,0
141291,-25,4,2,0,5,0,0
141384,-25,4,2,0,100,0,1
141476,-25,4,2,0,5,0,0
141569,-25,4,2,0,100,0,0
141661,-25,4,2,0,5,0,0
141754,-25,4,2,0,100,0,1
141847,-25,4,2,0,5,0,0
141939,-25,4,2,0,100,0,0
142032,-25,4,2,0,5,0,0
142125,-20,4,2,0,100,0,1
142217,-20,4,2,0,5,0,0
142309,-20,4,2,0,100,0,0
142402,-20,4,2,0,5,0,0
142495,-20,4,2,0,100,0,1
142588,-20,4,2,0,5,0,0
142680,-20,4,2,0,100,0,0
142772,-20,4,2,0,5,0,0
142865,-16.6666666666667,4,2,0,100,0,1
142958,-16.6666666666667,4,2,0,5,0,0
143050,-16.6666666666667,4,2,0,100,0,0
143143,-16.6666666666667,4,2,0,5,0,0
143236,-16.6666666666667,4,2,0,100,0,1
143328,-16.6666666666667,4,2,0,5,0,0
143420,-16.6666666666667,4,2,0,100,0,0
143513,-16.6666666666667,4,2,0,5,0,0
143606,-14.2857142857143,4,2,0,100,0,1
143698,-14.2857142857143,4,2,0,5,0,1
143791,-14.2857142857143,4,2,0,100,0,1
143883,-14.2857142857143,4,2,0,5,0,1
143976,-14.2857142857143,4,2,0,100,0,1
144069,-14.2857142857143,4,2,0,5,0,1
144161,-14.2857142857143,4,2,0,100,0,1
144254,-14.2857142857143,4,2,0,5,0,1
144347,-16.6666666666667,4,2,0,100,0,1
144439,-16.6666666666667,4,2,0,5,0,1
144532,-16.6666666666667,4,2,0,100,0,1
144624,-16.6666666666667,4,2,0,5,0,1
144717,-16.6666666666667,4,2,0,100,0,1
144809,-16.6666666666667,4,2,0,5,0,1
144902,-16.6666666666667,4,2,0,100,0,1
144994,-16.6666666666667,4,2,0,5,0,1
145087,-16.6666666666667,4,2,0,100,0,1
145180,-16.6666666666667,4,2,0,5,0,1
145272,-16.6666666666667,4,2,0,100,0,1
145365,-16.6666666666667,4,2,0,5,0,1
145457,-16.6666666666667,4,2,0,100,0,1
145550,-16.6666666666667,4,2,0,5,0,1
145643,-16.6666666666667,4,2,0,100,0,1
145735,-16.6666666666667,4,2,0,5,0,1
145828,-12.5,4,2,0,100,0,1
145920,-12.5,4,2,0,5,0,1
146013,-12.5,4,2,0,100,0,1
146106,-12.5,4,2,0,5,0,1
146198,-12.5,4,2,0,100,0,1
146291,-12.5,4,2,0,5,0,1
146383,-12.5,4,2,0,100,0,1
146476,-12.5,4,2,0,5,0,1
146569,-25,4,2,0,100,0,0
146661,-25,4,2,0,5,0,0
146754,-25,4,2,0,100,0,0
146846,-25,4,2,0,5,0,0
146939,-25,4,2,0,100,0,0
147032,-25,4,2,0,5,0,0
147124,-25,4,2,0,100,0,0
147217,-25,4,2,0,5,0,0

[HitObjects]
256,192,2125,12,0,5088,0:0:0:0:
75,307,16939,6,0,P|77:242|23:229,1,122.5
123,347,17680,1,0,0:0:0:0:
18,130,18050,6,0,P|38:157|119:179,1,105
203,86,18421,1,0,0:0:0:0:
302,164,18791,1,0,0:0:0:0:
417,80,19162,2,0,L|472:112,2,35
183,319,19902,6,0,P|181:254|235:241,1,122.5
123,347,20643,1,0,0:0:0:0:
250,188,21013,5,0,0:0:0:0:
361,365,21384,2,0,P|411:346|466:367,1,105
415,287,21754,2,0,P|465:268|520:289,1,105
512,193,22125,2,0,P|502:200|470:207,1,35
444,156,22310,6,0,P|442:91|495:78,1,122.499996261597
331,5,22865,6,0,P|329:70|383:84,1,122.499996261597
190,4,23606,1,0,0:0:0:0:
44,164,24347,5,0,0:0:0:0:
207,296,24717,1,0,0:0:0:0:
354,122,25088,2,0,L|401:120,2,35
147,338,25828,6,0,P|123:285|66:293,1,122.499996261597
509,26,28791,6,0,P|441:76|376:234,1,245
329,367,29532,2,0,P|261:317|196:159,1,245
139,9,30273,2,0,P|88:75|83:99,1,105,0|0,3:0|3:0,3:0:0:0:
56,243,30643,2,0,P|5:177|0:153,1,105,0|0,3:0|3:0,3:0:0:0:
18,29,31014,2,0,L|-11:-18,2,35
402,0,31384,6,0,P|329:2|200:129,1,245
364,92,32125,2,0,P|291:94|162:221,1,245
333,181,32865,2,0,P|260:183|131:310,1,245
35,295,33606,2,0,P|102:307|144:361,2,140
7,0,34717,6,0,L|95:258,1,245
235,54,35458,2,0,L|155:285,1,245
237,274,36199,2,0,L|292:369,1,105
359,358,36569,2,0,L|306:267,1,105
376,260,36939,2,0,L|431:355,1,105
498,344,37309,2,0,L|445:253,1,105
404,187,37680,2,0,P|483:85|413:54,1,245
266,215,38421,1,0,0:0:0:0:
187,115,38791,6,0,P|150:150|133:152,2,52.5000020027161
128,68,39532,2,0,P|107:36|75:25,1,52.5000020027161
48,84,39902,2,0,P|15:95|2:120,1,52.5000020027161
43,163,40273,2,0,P|74:212|104:212,1,78.7500030040742
293,245,40643,6,0,P|173:299|53:276,1,245
277,140,41384,2,0,P|372:213|412:327,1,245
484,255,42125,2,0,P|487:179|504:132,1,105
434,95,42495,2,0,P|464:53|505:21,1,105
337,27,42865,2,0,P|312:10|294:-14,2,35
236,95,43236,2,0,P|209:50|195:-1,1,105,0|0,0:0|0:0,0:3:0:0:
203,0,43606,1,0,0:0:0:0:
29,378,43977,6,0,P|72:308|48:147,1,245
350,100,44717,2,0,P|264:192|276:373,1,306.25
117,362,45458,6,0,P|145:269|120:215,1,131.25
202,359,45828,2,0,P|189:370|177:388,2,35
16,21,46569,6,0,P|118:58|251:9,1,245
352,127,47310,2,0,P|270:215|260:335,1,245
111,377,48051,2,0,P|71:321|5:299,2,140
485,227,49162,2,0,B|393:157|308:220|312:306|363:332|407:309|422:281|399:253|396:266,1,280
256,0,51754,6,0,L|257:378,1,367.500014019013
174,275,52495,5,0,0:0:0:0:
336,309,52680,1,0,0:0:0:0:
178,268,52865,1,0,0:0:0:0:
331,312,53050,1,0,0:0:0:0:
178,191,53236,5,0,0:0:0:0:
380,140,53421,1,0,0:0:0:0:
177,185,53606,1,0,0:0:0:0:
382,145,53791,1,0,0:0:0:0:
97,30,53977,5,0,0:0:0:0:
381,69,54162,1,0,0:0:0:0:
101,37,54347,1,0,0:0:0:0:
378,63,54532,1,0,0:0:0:0:
0,240,54717,1,0,0:0:0:0:
214,135,55088,5,0,0:0:0:0:
116,290,55274,1,0,0:0:0:0:
212,143,55459,1,0,0:0:0:0:
116,282,55643,1,0,0:0:0:0:
305,83,55828,5,0,0:0:0:0:
420,327,56013,1,0,0:0:0:0:
301,90,56199,1,0,0:0:0:0:
415,332,56383,1,0,0:0:0:0:
333,355,56569,6,0,P|200:320|185:371,1,210.000008010865
438,61,56939,1,0,0:0:0:0:
162,199,57125,2,0,P|161:234|140:261,2,70
361,217,57495,2,0,P|262:200|232:105,1,210.000008010865
425,174,57865,1,0,0:0:0:0:
240,99,58051,1,0,0:0:0:0:
431,170,58236,1,0,0:0:0:0:
313,41,58421,5,0,0:0:0:0:
142,13,58606,1,0,0:0:0:0:
316,35,58791,1,0,0:0:0:0:
138,19,58976,1,0,0:0:0:0:
34,164,59161,5,0,0:0:0:0:
319,226,59346,1,0,0:0:0:0:
31,171,59531,1,0,0:0:0:0:
324,220,59716,1,0,0:0:0:0:
34,357,59902,5,0,0:0:0:0:
425,297,60087,1,0,0:0:0:0:
39,360,60272,1,0,0:0:0:0:
428,303,60457,1,0,0:0:0:0:
459,15,60643,6,0,P|473:65|507:104,1,105.000004005432
228,32,61013,2,0,P|291:39|387:168,2,210.000008010865
60,141,61939,1,0,0:0:0:0:
133,322,62124,2,0,P|228:359|327:328,1,210.000008010865
383,143,62680,2,0,P|304:44|146:71,1,262.500010013581
142,116,63235,1,0,0:0:0:0:
175,178,63421,1,0,0:0:0:0:
209,187,63606,1,0,0:0:0:0:
273,147,64347,5,0,0:0:0:0:
333,35,64532,1,0,0:0:0:0:
272,157,64717,1,0,0:0:0:0:
331,26,64902,1,0,0:0:0:0:
468,102,65088,5,0,0:0:0:0:
298,256,65273,1,0,0:0:0:0:
477,104,65458,1,0,0:0:0:0:
301,265,65643,1,0,0:0:0:0:
499,226,65829,5,0,0:0:0:0:
215,366,66014,1,0,0:0:0:0:
503,230,66199,1,0,0:0:0:0:
215,373,66384,1,0,0:0:0:0:
0,158,66569,1,0,0:0:0:0:
140,38,66940,5,0,0:0:0:0:
268,179,67126,1,0,0:0:0:0:
144,32,67311,1,0,0:0:0:0:
277,174,67495,1,0,0:0:0:0:
448,91,67680,5,0,0:0:0:0:
420,327,67865,1,0,0:0:0:0:
440,84,68049,1,0,0:0:0:0:
415,332,68235,1,0,0:0:0:0:
314,18,68421,6,0,P|245:136|170:145,1,210.000008010865
0,15,68791,1,0,0:0:0:0:
88,170,68977,2,0,P|98:220|83:255,2,70
179,218,69347,6,0,P|110:336|35:345,1,210.000008010865
244,353,69717,1,0,0:0:0:0:
38,344,69903,1,0,0:0:0:0:
248,344,70088,1,0,0:0:0:0:
307,185,70273,5,0,0:0:0:0:
495,179,70458,1,0,0:0:0:0:
306,177,70643,1,0,0:0:0:0:
494,172,70828,1,0,0:0:0:0:
272,59,71013,5,0,0:0:0:0:
2,41,71198,1,0,0:0:0:0:
273,48,71383,1,0,0:0:0:0:
0,32,71568,1,0,0:0:0:0:
118,253,71754,5,0,0:0:0:0:
507,310,71939,1,0,0:0:0:0:
121,247,72124,1,0,0:0:0:0:
512,307,72309,1,0,0:0:0:0:
0,279,72495,6,0,P|34:318|48:368,1,105.000004005432
87,181,72865,2,0,P|146:159|289:233,2,210.000008010865
237,364,73791,1,0,0:0:0:0:
0,69,73976,2,0,P|95:106|194:75,1,210.000008010865
459,90,74532,2,0,P|333:104|240:-26,1,262.500010013581
196,105,75087,1,0,0:0:0:0:
258,163,75273,1,0,0:0:0:0:
229,198,75458,1,0,0:0:0:0:
206,37,87310,6,0,L|206:63,1,24.5
372,107,88050,6,0,P|282:98|206:157,1,183.750007009506
20,267,88791,2,0,P|115:231|203:272,1,183.750007009506
203,323,89532,2,0,P|250:305|286:313,1,78.7500030040742
305,366,89902,2,0,P|352:348|391:360,1,78.7500030040742
147,299,90273,2,0,P|119:315|95:314,2,52.5000020027161
181,170,91013,6,0,P|251:189|261:179,1,78.7500030040742
272,133,91384,2,0,P|311:113|343:123,1,78.7500030040742
393,205,91754,2,0,P|429:214|467:184,1,78.7500030040742
466,129,92125,6,0,P|448:94|412:80,1,78.7500030040742
298,0,92495,1,0,0:0:0:0:
204,93,92865,1,0,0:0:0:0:
104,14,93236,2,0,L|70:52,2,26.2500010013581
0,197,93976,6,0,B|114:106|161:256|270:171,1,280
408,199,95088,2,0,P|352:206|329:229,1,78.7500030040742
322,316,95458,2,0,P|289:336|250:336,1,78.7500030040742
186,252,95828,2,0,P|130:259|107:282,1,78.7500030040742
11,369,96199,2,0,L|-25:351,2,26.2500010013581
18,374,96939,5,0,0:0:0:0:
47,308,97680,1,0,0:0:0:0:
319,305,99162,5,0,0:0:0:0:
492,196,99347,1,0,0:0:0:0:
386,31,99532,1,0,0:0:0:0:
218,132,99717,1,0,0:0:0:0:
3,26,99902,6,0,P|71:76|136:234,1,245
183,17,100643,2,0,P|251:67|316:225,1,245
333,30,101384,2,0,P|384:96|389:120,1,105,0|0,3:0|3:0,3:0:0:0:
451,134,101754,2,0,P|502:200|507:224,1,105,0|0,3:0|3:0,3:0:0:0:
470,31,102125,2,0,L|441:78,2,35
304,0,102495,6,0,P|232:4|102:129,1,245
95,271,103236,2,0,P|152:335|318:357,1,245
431,300,103976,2,0,P|460:162|410:58,1,245
304,0,104717,2,0,P|232:4|165:41,2,140
505,384,105828,6,0,L|417:126,1,245
290,151,106569,2,0,L|210:382,1,245
105,384,107310,2,0,L|10:329,1,105
13,275,107680,2,0,L|103:222,1,105
105,164,108050,2,0,B|56:137|56:137|10:109,1,105
13,55,108420,2,0,L|103:2,1,105
209,3,108791,2,0,L|288:234,1,245
333,369,109532,1,0,0:0:0:0:
462,214,109902,6,0,P|425:249|408:251,2,52.5000020027161
419,162,110643,2,0,P|398:130|366:119,1,52.5000020027161
339,170,111013,2,0,P|306:181|293:206,1,52.5000020027161
337,260,111384,2,0,P|368:309|398:309,1,78.7500030040742
418,0,111754,6,0,P|298:54|178:31,1,245
138,151,112495,2,0,P|233:224|273:338,1,245
391,337,113236,2,0,P|394:261|411:214,1,105
440,145,113606,2,0,P|470:103|511:71,1,105
511,71,113976,2,0,P|486:88|468:112,2,35
440,145,114347,2,0,P|413:190|399:241,1,105,0|0,0:0|0:0,0:3:0:0:
461,243,114717,1,0,0:0:0:0:
274,361,115088,6,0,P|317:291|293:130,1,245
147,82,115828,2,0,P|61:174|73:355,1,306.25
235,304,116569,6,0,P|263:211|238:157,1,131.25
182,235,116939,2,0,P|169:246|157:264,2,35
512,358,117680,6,0,P|410:395|277:346,1,245
52,211,118421,2,0,P|159:156|209:47,1,245
421,106,119162,2,0,P|365:66|343:0,2,140
163,336,120273,2,0,B|71:421|-18:367|-24:281|23:250|69:268|88:294|67:325|42:317,1,280
0,25,122125,6,0,P|186:271|487:343,1,630.000024032594
9,15,122865,6,0,P|195:261|496:330,1,630.000024032594
191,121,123606,5,0,0:0:0:0:
352,72,123791,1,0,0:0:0:0:
191,115,123976,1,0,0:0:0:0:
352,66,124161,1,0,0:0:0:0:
84,30,124347,5,0,0:0:0:0:
332,148,124532,1,0,0:0:0:0:
84,38,124717,1,0,0:0:0:0:
332,156,124902,1,0,0:0:0:0:
0,291,125088,5,0,0:0:0:0:
417,225,125273,1,0,0:0:0:0:
0,286,125458,1,0,0:0:0:0:
417,220,125643,1,0,0:0:0:0:
170,361,125828,1,0,0:0:0:0:
94,36,126199,5,0,0:0:0:0:
190,175,126385,1,0,0:0:0:0:
92,42,126570,1,0,0:0:0:0:
194,181,126754,1,0,0:0:0:0:
381,82,126939,5,0,0:0:0:0:
500,319,127125,1,0,0:0:0:0:
387,80,127310,1,0,0:0:0:0:
506,317,127494,1,0,0:0:0:0:
102,371,127680,6,0,P|261:320|335:213,1,210.000008010865
0,322,128050,1,0,0:0:0:0:
208,112,128236,2,0,P|242:148|295:164,2,70
507,0,128606,2,0,P|422:60|319:76,1,210.000008010865
143,20,128976,1,0,0:0:0:0:
309,76,129162,1,0,0:0:0:0:
137,25,129347,1,0,0:0:0:0:
204,172,129532,5,0,0:0:0:0:
26,239,129717,1,0,0:0:0:0:
204,178,129902,1,0,0:0:0:0:
22,246,130087,1,0,0:0:0:0:
291,208,130272,5,0,0:0:0:0:
510,361,130457,1,0,0:0:0:0:
291,215,130642,1,0,0:0:0:0:
512,367,130827,1,0,0:0:0:0:
117,376,131013,5,0,0:0:0:0:
34,43,131198,1,0,0:0:0:0:
111,377,131383,1,0,0:0:0:0:
27,41,131568,1,0,0:0:0:0:
296,348,131754,6,0,P|257:299|252:217,1,105.000004005432
360,155,132124,2,0,P|367:92|496:-4,2,210.000008010865
365,160,133050,1,0,0:0:0:0:
512,103,133235,2,0,P|543:204|484:318,1,210.000008010865
366,289,133791,2,0,P|267:202|275:57,1,210.000008010865
209,20,134346,1,0,0:0:0:0:
256,124,134532,1,0,0:0:0:0:
12,46,134717,6,0,P|197:292|498:360,1,630.000024032594
93,36,135458,6,0,L|56:200,1,140
146,360,135643,2,0,L|96:228,1,140
102,37,135828,2,0,L|65:201,1,140
155,361,136013,2,0,L|105:229,1,140
434,24,136199,6,0,L|297:68,1,105.000004005432
213,215,136384,2,0,L|290:113,1,105.000004005432
436,31,136569,2,0,L|306:73,1,105.000004005432
215,222,136754,2,0,L|294:118,1,105.000004005432
512,187,136939,6,0,L|410:171,1,70
336,240,137124,2,0,L|437:204,1,70
512,187,137309,2,0,L|380:165,1,70
336,240,137494,2,0,L|439:203,1,70
512,179,137680,2,0,L|375:166,1,70
341,249,137865,2,0,L|442:203,1,70
512,179,138050,2,0,L|375:166,1,70
341,249,138235,2,0,L|442:203,1,70
93,36,138421,6,0,L|56:200,1,140
146,360,138606,2,0,L|96:228,1,140
99,36,138791,2,0,L|62:200,1,140
152,360,138976,2,0,L|102:228,1,140
434,24,139162,6,0,L|297:68,1,105.000004005432
213,215,139347,2,0,L|290:113,1,105.000004005432
438,31,139532,2,0,L|308:73,1,105.000004005432
217,222,139717,2,0,L|296:118,1,105.000004005432
512,187,139902,6,0,L|410:171,1,70
336,240,140087,2,0,L|437:204,1,70
512,195,140272,2,0,L|380:173,1,70
336,248,140457,2,0,L|439:211,1,70
450,365,140643,6,0,L|386:335,1,70
300,312,140828,2,0,L|341:368,1,70
445,371,141013,2,0,L|382:340,1,70
295,318,141198,2,0,L|336:374,1,70
4,255,141384,6,0,P|50:261|86:280,1,70
171,380,141569,2,0,P|149:314|138:301,1,70
0,244,141754,2,0,P|82:250|125:276,1,70
185,372,141939,2,0,P|171:296|141:261,1,70
79,122,142125,6,0,P|127:172|181:191,1,87.5
299,307,142310,2,0,P|279:230|240:199,1,87.5
77,114,142495,2,0,P|125:164|182:181,1,87.5
296,319,142680,2,0,P|276:242|234:208,1,87.5
372,24,142865,6,0,P|344:95|352:138,1,105.000004005432
445,342,143050,2,0,P|465:258|455:223,1,105.000004005432
364,13,143236,2,0,P|325:78|317:135,1,105.000004005432
453,353,143421,2,0,P|488:275|488:229,1,105.000004005432
13,51,143606,6,0,P|91:33|188:86,1,122.500001168251
510,137,143791,2,0,P|428:135|378:193,1,122.500001168251
12,60,143976,2,0,P|88:34|210:52,1,122.500001168251
509,128,144161,2,0,P|433:144|384:188,1,122.500001168251
5,344,144347,2,0,P|72:296|127:298,1,105.000004005432
510,258,144532,2,0,P|427:238|374:247,1,105.000004005432
0,350,144717,2,0,P|82:316|115:318,1,105.000004005432
510,266,144902,2,0,P|425:261|392:276,1,105.000004005432
123,19,145088,6,0,P|177:81|182:115,1,105.000004005432
359,364,145273,2,0,P|320:292|321:268,1,105.000004005432
318,50,145458,2,0,P|308:119|284:147,1,105.000004005432
125,310,145643,2,0,P|133:230|158:208,1,105.000004005432
430,250,145828,6,0,P|463:246|535:167,1,140
67,102,146013,2,0,P|34:90|-66:110,1,140
439,346,146199,2,0,P|484:370|580:350,1,140
61,33,146384,2,0,P|0:0|-84:20,1,140
141,69,146569,2,0,P|121:2|100:-9,1,70
183,111,146754,2,0,P|216:50|210:27,1,70
187,148,146939,2,0,P|253:128|265:107,1,70
176,167,147125,2,0,P|237:200|260:194,1,70
