osu file format v14

[General]
AudioFilename: audio.mp3
AudioLeadIn: 0
PreviewTime: 44921
Countdown: 0
SampleSet: Drum
StackLeniency: 0.7
Mode: 3
LetterboxInBreaks: 0
SpecialStyle: 0
WidescreenStoryboard: 1

[Editor]
DistanceSpacing: 1
BeatDivisor: 4
GridSize: 16
TimelineZoom: 1

[Metadata]
Title:
TitleUnicode:防音都市
Artist:HASAMI group
ArtistUnicode:HASAMI group
Creator:axewll
Version:hikikomori
Source:
Tags:
BeatmapID:4550100
BeatmapSetID:2158327

[Difficulty]
HPDrainRate:7
CircleSize:4
OverallDifficulty:7
ApproachRate:5
SliderMultiplier:1.4
SliderTickRate:1

[Events]
//Background and Video events
0,0,"qbPwQ7BQT3U-SD.jpg",0,0
//Break Periods
//Storyboard Layer 0 (Background)
//Storyboard Layer 1 (Fail)
//Storyboard Layer 2 (Pass)
//Storyboard Layer 3 (Foreground)
//Storyboard Layer 4 (Overlay)
//Storyboard Sound Samples

[TimingPoints]
187,350.672121566335,4,3,0,21,1,0

[HitObjects]
448,192,187,5,0,0:0:0:0:
320,192,187,1,0,0:0:0:0:
192,192,537,1,8,0:0:0:0:
64,192,713,1,0,0:0:0:0:
320,192,1063,1,0,0:0:0:0:
64,192,1063,1,0,0:0:0:0:
192,192,1239,1,8,0:0:0:0:
448,192,1589,1,0,0:0:0:0:
192,192,1940,1,8,0:0:0:0:
320,192,2115,1,0,0:0:0:0:
448,192,2115,1,0,0:0:0:0:
64,192,2466,1,0,0:0:0:0:
192,192,2641,1,0,0:0:0:0:
320,192,2641,1,8,0:0:0:0:
448,192,2992,1,0,0:0:0:0:
320,192,3343,1,8,0:0:0:0:
320,192,3518,1,0,0:0:0:0:
64,192,3518,1,0,0:0:0:0:
64,192,3869,1,0,0:0:0:0:
320,192,4044,1,8,0:0:0:0:
320,192,4395,1,0,0:0:0:0:
192,192,4395,1,0,0:0:0:0:
192,192,4745,1,8,0:0:0:0:
64,192,4921,1,0,0:0:0:0:
64,192,5271,1,0,0:0:0:0:
320,192,5271,1,0,0:0:0:0:
448,192,5447,1,8,0:0:0:0:
192,192,5447,1,0,0:0:0:0:
192,192,5797,1,0,0:0:0:0:
64,192,6148,1,8,0:0:0:0:
192,192,6323,1,0,0:0:0:0:
448,192,6323,1,0,0:0:0:0:
320,192,6674,1,0,0:0:0:0:
192,192,6849,1,8,0:0:0:0:
448,192,7200,1,0,0:0:0:0:
64,192,7551,1,8,0:0:0:0:
192,192,7726,1,0,0:0:0:0:
320,192,7726,1,0,0:0:0:0:
64,192,8077,1,0,0:0:0:0:
64,192,8252,1,8,0:0:0:0:
448,192,8252,1,0,0:0:0:0:
320,192,8603,1,0,0:0:0:0:
192,192,8953,1,8,0:0:0:0:
448,192,9129,1,0,0:0:0:0:
320,192,9129,1,0,0:0:0:0:
192,192,9479,1,0,0:0:0:0:
64,192,9655,1,0,0:0:0:0:
320,192,9655,1,8,0:0:0:0:
192,192,10005,1,0,0:0:0:0:
64,192,10356,1,8,0:0:0:0:
448,192,10531,1,0,0:0:0:0:
192,192,10531,1,0,0:0:0:0:
320,192,10882,1,0,0:0:0:0:
192,192,11057,1,0,0:0:0:0:
64,192,11057,1,8,0:0:0:0:
64,192,11408,1,0,0:0:0:0:
192,192,11759,1,8,0:0:0:0:
448,192,11934,1,0,0:0:0:0:
320,192,12285,1,0,0:0:0:0:
64,192,12460,1,0,0:0:0:0:
192,192,12460,1,8,0:0:0:0:
192,192,12811,1,0,0:0:0:0:
320,192,13161,1,8,0:0:0:0:
320,192,13337,1,0,0:0:0:0:
448,192,13337,1,0,0:0:0:0:
192,192,13687,1,0,0:0:0:0:
64,192,13863,1,0,0:0:0:0:
320,192,13863,1,8,0:0:0:0:
320,192,14213,1,0,0:0:0:0:
320,192,14564,1,8,0:0:0:0:
192,192,14739,1,0,0:0:0:0:
64,192,14739,1,0,0:0:0:0:
64,192,15090,1,0,0:0:0:0:
192,192,15265,1,8,0:0:0:0:
448,192,15616,1,0,0:0:0:0:
192,192,15967,1,8,0:0:0:0:
320,192,16142,1,0,0:0:0:0:
448,192,16493,1,0,0:0:0:0:
64,192,16668,1,0,0:0:0:0:
192,192,16668,1,8,0:0:0:0:
320,192,17019,1,0,0:0:0:0:
320,192,17369,1,8,0:0:0:0:
192,192,17545,1,0,0:0:0:0:
192,192,17895,1,0,0:0:0:0:
448,192,17895,1,0,0:0:0:0:
64,192,18071,1,8,0:0:0:0:
320,192,18421,1,0,0:0:0:0:
448,192,18772,1,8,0:0:0:0:
320,192,18947,1,0,0:0:0:0:
64,192,18947,1,0,0:0:0:0:
448,192,19298,1,0,0:0:0:0:
448,192,19473,1,8,0:0:0:0:
192,192,19473,1,0,0:0:0:0:
64,192,19824,1,0,0:0:0:0:
192,192,20175,1,8,0:0:0:0:
320,192,20350,1,0,0:0:0:0:
192,192,20350,1,0,0:0:0:0:
448,192,20701,1,0,0:0:0:0:
192,192,20876,1,8,0:0:0:0:
320,192,21227,1,0,0:0:0:0:
192,192,21577,1,8,0:0:0:0:
192,192,21753,1,0,0:0:0:0:
320,192,22104,1,0,0:0:0:0:
64,192,22279,1,0,0:0:0:0:
448,192,22279,1,8,0:0:0:0:
320,192,22630,128,4,22980:0:0:0:0:
192,192,22630,128,0,22980:0:0:0:0:
64,192,22980,1,0,0:0:0:0:
448,192,22980,1,0,0:0:0:0:
320,192,23331,1,0,0:0:0:0:
64,192,23331,1,8,0:0:0:0:
320,192,23682,1,0,0:0:0:0:
192,192,23857,1,0,0:0:0:0:
320,192,24032,128,0,24383:0:0:0:0:
448,192,24383,1,0,0:0:0:0:
192,192,24734,1,8,0:0:0:0:
64,192,24734,1,0,0:0:0:0:
192,192,25084,1,0,0:0:0:0:
320,192,25260,1,0,0:0:0:0:
320,192,25435,128,0,25786:0:0:0:0:
64,192,25786,1,0,0:0:0:0:
448,192,26136,1,8,0:0:0:0:
192,192,26487,1,0,0:0:0:0:
64,192,26662,1,0,0:0:0:0:
192,192,26838,1,0,0:0:0:0:
320,192,27188,1,0,0:0:0:0:
192,192,27539,1,8,0:0:0:0:
448,192,27890,1,0,0:0:0:0:
320,192,28065,1,0,0:0:0:0:
192,192,28240,1,0,0:0:0:0:
64,192,28591,1,0,0:0:0:0:
320,192,28942,1,8,0:0:0:0:
192,192,28942,1,0,0:0:0:0:
192,192,29292,1,0,0:0:0:0:
320,192,29468,1,0,0:0:0:0:
448,192,29643,1,0,0:0:0:0:
320,192,29994,1,0,0:0:0:0:
192,192,30344,1,8,0:0:0:0:
64,192,30344,1,0,0:0:0:0:
320,192,30695,1,0,0:0:0:0:
448,192,30695,1,0,0:0:0:0:
64,192,30870,1,0,0:0:0:0:
448,192,31046,128,0,31396:0:0:0:0:
320,192,31396,1,0,0:0:0:0:
192,192,31747,1,8,0:0:0:0:
320,192,32098,1,0,0:0:0:0:
192,192,32273,1,0,0:0:0:0:
320,192,32448,1,0,0:0:0:0:
64,192,32799,1,0,0:0:0:0:
192,192,33150,1,0,0:0:0:0:
448,192,33150,1,8,0:0:0:0:
192,192,33500,1,0,0:0:0:0:
64,192,33851,1,0,0:0:0:0:
320,192,34026,1,0,0:0:0:0:
192,192,34202,1,0,0:0:0:0:
320,192,34552,1,8,0:0:0:0:
448,192,34552,1,0,0:0:0:0:
192,192,34903,1,0,0:0:0:0:
192,192,35078,1,0,0:0:0:0:
448,192,35254,1,0,0:0:0:0:
320,192,35429,1,0,0:0:0:0:
192,192,35429,1,0,0:0:0:0:
64,192,35604,1,0,0:0:0:0:
64,192,35955,1,8,0:0:0:0:
192,192,36130,1,0,0:0:0:0:
448,192,36130,1,0,0:0:0:0:
320,192,36306,1,0,0:0:0:0:
64,192,36306,1,0,0:0:0:0:
192,192,36481,1,0,0:0:0:0:
64,192,36656,1,0,0:0:0:0:
192,192,36832,1,0,0:0:0:0:
320,192,37007,1,0,0:0:0:0:
448,192,37182,1,0,0:0:0:0:
320,192,37358,1,8,0:0:0:0:
192,192,37358,1,0,0:0:0:0:
192,192,37708,1,0,0:0:0:0:
64,192,37884,1,0,0:0:0:0:
192,192,38059,1,0,0:0:0:0:
320,192,38234,1,0,0:0:0:0:
448,192,38410,1,0,0:0:0:0:
320,192,38585,1,0,0:0:0:0:
64,192,38760,1,8,0:0:0:0:
320,192,39111,1,0,0:0:0:0:
192,192,39111,128,0,39462:0:0:0:0:
320,192,39462,1,0,0:0:0:0:
64,192,39812,1,0,0:0:0:0:
448,192,40163,1,8,0:0:0:0:
320,192,40163,1,0,0:0:0:0:
192,192,40338,1,0,0:0:0:0:
320,192,40514,1,0,0:0:0:0:
192,192,40864,1,0,0:0:0:0:
448,192,40864,1,0,0:0:0:0:
64,192,40864,1,0,0:0:0:0:
192,192,41215,1,0,0:0:0:0:
192,192,41390,1,0,0:0:0:0:
192,192,41566,1,0,0:0:0:0:
320,192,41566,1,8,0:0:0:0:
320,192,41741,1,0,0:0:0:0:
320,192,41916,1,0,0:0:0:0:
192,192,42092,1,0,0:0:0:0:
64,192,42267,1,0,0:0:0:0:
192,192,42793,1,0,0:0:0:0:
320,192,42968,1,0,0:0:0:0:
448,192,42968,1,8,0:0:0:0:
192,192,43319,1,0,0:0:0:0:
64,192,43495,1,0,0:0:0:0:
192,192,43670,1,0,0:0:0:0:
320,192,43845,1,0,0:0:0:0:
448,192,44021,1,0,0:0:0:0:
64,192,44371,1,8,0:0:0:0:
192,192,44371,1,0,0:0:0:0:
192,192,44897,128,0,45073:0:0:0:0:
320,192,45073,1,4,0:0:0:0:
64,192,45248,1,0,0:0:0:0:
192,192,45423,1,8,0:0:0:0:
320,192,45423,1,0,0:0:0:0:
320,192,45599,1,0,0:0:0:0:
448,192,45774,1,0,0:0:0:0:
320,192,45949,1,0,0:0:0:0:
64,192,45949,1,0,0:0:0:0:
192,192,46125,1,8,0:0:0:0:
64,192,46300,1,0,0:0:0:0:
192,192,46475,1,0,0:0:0:0:
448,192,46475,1,0,0:0:0:0:
320,192,46651,1,0,0:0:0:0:
192,192,46826,1,8,0:0:0:0:
320,192,47001,1,0,0:0:0:0:
192,192,47177,1,0,0:0:0:0:
448,192,47352,1,0,0:0:0:0:
64,192,47527,1,8,0:0:0:0:
448,192,47527,128,0,47703:0:0:0:0:
64,192,47703,128,0,47878:0:0:0:0:
320,192,47878,128,0,48229:0:0:0:0:
192,192,48229,128,0,48404:0:0:0:0:
448,192,48229,1,8,0:0:0:0:
64,192,48404,128,0,48579:0:0:0:0:
320,192,48579,128,0,48930:0:0:0:0:
192,192,48755,1,0,0:0:0:0:
64,192,48930,1,8,0:0:0:0:
448,192,48930,128,0,49105:0:0:0:0:
320,192,49105,128,0,49281:0:0:0:0:
192,192,49281,128,0,49456:0:0:0:0:
64,192,49456,128,0,49631:0:0:0:0:
192,192,49631,128,0,49807:0:0:0:0:
448,192,49631,1,8,0:0:0:0:
320,192,49807,128,0,49982:0:0:0:0:
448,192,49982,128,0,50157:0:0:0:0:
320,192,50157,1,0,0:0:0:0:
64,192,50333,1,8,0:0:0:0:
192,192,50333,128,0,50683:0:0:0:0:
448,192,50683,1,0,0:0:0:0:
320,192,50859,1,0,0:0:0:0:
64,192,50859,1,0,0:0:0:0:
192,192,51034,1,8,0:0:0:0:
64,192,51209,1,0,0:0:0:0:
320,192,51209,1,0,0:0:0:0:
192,192,51385,1,0,0:0:0:0:
320,192,51560,1,0,0:0:0:0:
448,192,51735,1,8,0:0:0:0:
320,192,51911,1,0,0:0:0:0:
192,192,52086,1,0,0:0:0:0:
320,192,52261,1,0,0:0:0:0:
64,192,52437,1,8,0:0:0:0:
448,192,52612,1,0,0:0:0:0:
64,192,52787,128,0,52963:0:0:0:0:
320,192,53138,128,0,53313:0:0:0:0:
448,192,53138,1,8,0:0:0:0:
192,192,53313,128,0,53489:0:0:0:0:
320,192,53489,128,0,53839:0:0:0:0:
64,192,53664,1,0,0:0:0:0:
192,192,53839,128,0,54015:0:0:0:0:
448,192,53839,1,8,0:0:0:0:
64,192,54015,128,0,54190:0:0:0:0:
448,192,54190,128,0,54541:0:0:0:0:
192,192,54365,1,0,0:0:0:0:
320,192,54541,128,0,54716:0:0:0:0:
64,192,54541,1,8,0:0:0:0:
192,192,54716,128,0,54891:0:0:0:0:
64,192,54891,128,0,55067:0:0:0:0:
192,192,55067,128,0,55242:0:0:0:0:
448,192,55067,1,0,0:0:0:0:
320,192,55242,128,0,55417:0:0:0:0:
64,192,55242,1,8,0:0:0:0:
448,192,55417,128,0,55593:0:0:0:0:
320,192,55593,128,0,55943:0:0:0:0:
192,192,55768,1,0,0:0:0:0:
64,192,55943,1,8,0:0:0:0:
320,192,56294,1,0,0:0:0:0:
192,192,56294,1,0,0:0:0:0:
64,192,56645,1,0,0:0:0:0:
192,192,56820,1,0,0:0:0:0:
448,192,56995,1,8,0:0:0:0:
320,192,57171,1,0,0:0:0:0:
320,192,57346,1,0,0:0:0:0:
192,192,57697,1,0,0:0:0:0:
64,192,58047,1,0,0:0:0:0:
192,192,58223,1,0,0:0:0:0:
64,192,58398,1,8,0:0:0:0:
320,192,58573,1,0,0:0:0:0:
448,192,58749,1,0,0:0:0:0:
320,192,59099,1,0,0:0:0:0:
192,192,59450,1,0,0:0:0:0:
448,192,59450,1,0,0:0:0:0:
64,192,59625,1,0,0:0:0:0:
320,192,59625,1,0,0:0:0:0:
192,192,59801,1,8,0:0:0:0:
448,192,59976,1,0,0:0:0:0:
320,192,60151,128,0,60502:0:0:0:0:
192,192,60502,1,0,0:0:0:0:
448,192,60853,1,0,0:0:0:0:
192,192,61028,1,0,0:0:0:0:
64,192,61203,1,8,0:0:0:0:
192,192,61379,1,0,0:0:0:0:
320,192,61554,1,0,0:0:0:0:
192,192,61905,1,0,0:0:0:0:
448,192,62255,1,0,0:0:0:0:
192,192,62431,1,0,0:0:0:0:
320,192,62606,1,8,0:0:0:0:
64,192,62781,1,0,0:0:0:0:
448,192,62781,1,0,0:0:0:0:
192,192,62957,128,0,63307:0:0:0:0:
64,192,63307,1,0,0:0:0:0:
448,192,63658,1,0,0:0:0:0:
64,192,63833,1,0,0:0:0:0:
320,192,64009,1,8,0:0:0:0:
320,192,64184,1,0,0:0:0:0:
320,192,64359,128,0,64710:0:0:0:0:
64,192,64710,1,0,0:0:0:0:
320,192,65061,1,0,0:0:0:0:
448,192,65236,1,0,0:0:0:0:
320,192,65412,1,8,0:0:0:0:
192,192,65587,1,0,0:0:0:0:
64,192,65762,128,0,66113:0:0:0:0:
320,192,66113,1,0,0:0:0:0:
448,192,66464,1,0,0:0:0:0:
320,192,66639,1,0,0:0:0:0:
192,192,66814,1,8,0:0:0:0:
320,192,66990,1,0,0:0:0:0:
448,192,67165,128,0,67516:0:0:0:0:
64,192,67516,1,0,0:0:0:0:
192,192,67866,1,0,0:0:0:0:
192,192,68042,1,0,0:0:0:0:
320,192,68217,1,8,0:0:0:0:
192,192,68392,1,0,0:0:0:0:
320,192,68568,128,0,68918:0:0:0:0:
64,192,68918,1,0,0:0:0:0:
64,192,69269,1,0,0:0:0:0:
192,192,69444,1,0,0:0:0:0:
64,192,69620,1,8,0:0:0:0:
192,192,69795,1,0,0:0:0:0:
64,192,69970,128,0,70321:0:0:0:0:
192,192,70321,1,0,0:0:0:0:
448,192,70672,1,0,0:0:0:0:
320,192,70847,1,0,0:0:0:0:
64,192,71022,1,8,0:0:0:0:
192,192,71198,1,0,0:0:0:0:
192,192,71373,1,0,0:0:0:0:
320,192,71724,1,0,0:0:0:0:
448,192,72074,1,0,0:0:0:0:
320,192,72250,1,0,0:0:0:0:
448,192,72425,1,8,0:0:0:0:
192,192,72600,1,0,0:0:0:0:
64,192,72776,1,0,0:0:0:0:
192,192,73126,1,0,0:0:0:0:
320,192,73477,1,0,0:0:0:0:
64,192,73477,1,0,0:0:0:0:
448,192,73652,1,0,0:0:0:0:
192,192,73652,1,0,0:0:0:0:
320,192,73828,1,8,0:0:0:0:
64,192,74003,1,0,0:0:0:0:
192,192,74178,128,0,74529:0:0:0:0:
320,192,74529,1,0,0:0:0:0:
64,192,74880,1,0,0:0:0:0:
320,192,75055,1,0,0:0:0:0:
448,192,75230,1,8,0:0:0:0:
320,192,75406,1,0,0:0:0:0:
192,192,75581,1,0,0:0:0:0:
320,192,75932,1,0,0:0:0:0:
64,192,76282,1,0,0:0:0:0:
320,192,76458,1,0,0:0:0:0:
192,192,76633,1,8,0:0:0:0:
448,192,76808,1,0,0:0:0:0:
64,192,76808,1,0,0:0:0:0:
320,192,76984,128,0,77334:0:0:0:0:
448,192,77334,1,0,0:0:0:0:
64,192,77685,1,0,0:0:0:0:
448,192,77860,1,0,0:0:0:0:
192,192,78036,1,8,0:0:0:0:
192,192,78211,1,0,0:0:0:0:
192,192,78386,128,0,78737:0:0:0:0:
320,192,78737,1,0,0:0:0:0:
448,192,78912,1,0,0:0:0:0:
320,192,79088,1,8,0:0:0:0:
192,192,79088,1,0,0:0:0:0:
192,192,79263,1,0,0:0:0:0:
64,192,79438,1,0,0:0:0:0:
192,192,79614,1,0,0:0:0:0:
448,192,79614,1,0,0:0:0:0:
320,192,79789,1,8,0:0:0:0:
448,192,79964,1,0,0:0:0:0:
320,192,80140,1,0,0:0:0:0:
64,192,80140,1,0,0:0:0:0:
192,192,80315,1,0,0:0:0:0:
320,192,80490,1,8,0:0:0:0:
192,192,80666,1,0,0:0:0:0:
320,192,80841,1,0,0:0:0:0:
64,192,81016,1,0,0:0:0:0:
448,192,81192,1,8,0:0:0:0:
64,192,81192,128,0,81367:0:0:0:0:
448,192,81367,128,0,81542:0:0:0:0:
192,192,81542,128,0,81893:0:0:0:0:
320,192,81718,1,0,0:0:0:0:
320,192,81893,128,0,82068:0:0:0:0:
64,192,81893,1,8,0:0:0:0:
448,192,82068,128,0,82244:0:0:0:0:
192,192,82244,128,0,82594:0:0:0:0:
320,192,82419,1,0,0:0:0:0:
448,192,82594,1,8,0:0:0:0:
64,192,82594,128,0,82770:0:0:0:0:
192,192,82770,128,0,82945:0:0:0:0:
320,192,82945,128,0,83120:0:0:0:0:
448,192,83120,128,0,83296:0:0:0:0:
320,192,83296,128,0,83471:0:0:0:0:
64,192,83296,1,8,0:0:0:0:
192,192,83471,128,0,83646:0:0:0:0:
64,192,83646,128,0,83822:0:0:0:0:
192,192,83822,1,0,0:0:0:0:
448,192,83997,1,8,0:0:0:0:
320,192,83997,128,0,84348:0:0:0:0:
64,192,84348,1,0,0:0:0:0:
192,192,84523,1,0,0:0:0:0:
448,192,84523,1,0,0:0:0:0:
320,192,84698,1,8,0:0:0:0:
448,192,84874,1,0,0:0:0:0:
192,192,84874,1,0,0:0:0:0:
320,192,85049,1,0,0:0:0:0:
192,192,85224,1,0,0:0:0:0:
64,192,85400,1,8,0:0:0:0:
192,192,85575,1,0,0:0:0:0:
320,192,85750,1,0,0:0:0:0:
192,192,85926,1,0,0:0:0:0:
448,192,86101,1,8,0:0:0:0:
64,192,86277,1,0,0:0:0:0:
448,192,86452,128,0,86627:0:0:0:0:
192,192,86803,128,0,86978:0:0:0:0:
64,192,86803,1,8,0:0:0:0:
320,192,86978,128,0,87153:0:0:0:0:
192,192,87153,128,0,87504:0:0:0:0:
448,192,87329,1,0,0:0:0:0:
320,192,87504,128,0,87679:0:0:0:0:
64,192,87504,1,8,0:0:0:0:
448,192,87679,128,0,87855:0:0:0:0:
64,192,87855,128,0,88205:0:0:0:0:
320,192,88030,1,0,0:0:0:0:
192,192,88205,128,0,88381:0:0:0:0:
448,192,88205,1,8,0:0:0:0:
320,192,88381,128,0,88556:0:0:0:0:
448,192,88556,128,0,88731:0:0:0:0:
320,192,88731,128,0,88907:0:0:0:0:
64,192,88731,1,0,0:0:0:0:
192,192,88907,128,0,89082:0:0:0:0:
448,192,88907,1,8,0:0:0:0:
64,192,89082,128,0,89257:0:0:0:0:
192,192,89257,128,0,89608:0:0:0:0:
320,192,89433,1,0,0:0:0:0:
448,192,89608,1,8,0:0:0:0:
448,192,89959,1,0,0:0:0:0:
320,192,90134,1,0,0:0:0:0:
192,192,90309,1,0,0:0:0:0:
64,192,90485,1,0,0:0:0:0:
192,192,90660,1,0,0:0:0:0:
320,192,90835,1,0,0:0:0:0:
448,192,91011,1,0,0:0:0:0:
320,192,91186,1,0,0:0:0:0:
192,192,91361,1,0,0:0:0:0:
64,192,91537,1,0,0:0:0:0:
192,192,91712,1,0,0:0:0:0:
320,192,91887,1,0,0:0:0:0:
448,192,92063,1,0,0:0:0:0:
320,192,92238,1,0,0:0:0:0:
192,192,92413,1,0,0:0:0:0:
64,192,92589,1,0,0:0:0:0:
192,192,92764,1,0,0:0:0:0:
320,192,92939,1,0,0:0:0:0:
192,192,93115,1,0,0:0:0:0:
320,192,93290,1,0,0:0:0:0:
192,192,93465,1,0,0:0:0:0:
320,192,93641,1,0,0:0:0:0:
192,192,93816,1,0,0:0:0:0:
320,192,93991,1,0,0:0:0:0:
64,192,94167,1,0,0:0:0:0:
448,192,94342,1,0,0:0:0:0:
64,192,94517,1,0,0:0:0:0:
448,192,94693,1,0,0:0:0:0:
64,192,94868,1,0,0:0:0:0:
448,192,95043,1,0,0:0:0:0:
64,192,95219,1,0,0:0:0:0:
448,192,95394,1,0,0:0:0:0:
64,192,95569,1,0,0:0:0:0:
192,192,95745,1,0,0:0:0:0:
320,192,95920,1,0,0:0:0:0:
448,192,96095,1,0,0:0:0:0:
320,192,96271,1,0,0:0:0:0:
192,192,96446,1,0,0:0:0:0:
64,192,96621,1,0,0:0:0:0:
192,192,96797,1,0,0:0:0:0:
320,192,96972,1,0,0:0:0:0:
448,192,97147,1,0,0:0:0:0:
320,192,97323,1,0,0:0:0:0:
192,192,97498,1,0,0:0:0:0:
64,192,97673,1,0,0:0:0:0:
192,192,97849,1,0,0:0:0:0:
320,192,98024,1,0,0:0:0:0:
448,192,98199,1,0,0:0:0:0:
320,192,98375,1,0,0:0:0:0:
192,192,98550,1,0,0:0:0:0:
320,192,98725,1,0,0:0:0:0:
192,192,98901,1,0,0:0:0:0:
320,192,99076,1,0,0:0:0:0:
192,192,99251,1,0,0:0:0:0:
320,192,99427,1,0,0:0:0:0:
192,192,99602,1,0,0:0:0:0:
448,192,99777,1,0,0:0:0:0:
64,192,99953,1,0,0:0:0:0:
448,192,100128,1,0,0:0:0:0:
64,192,100303,1,0,0:0:0:0:
448,192,100479,1,0,0:0:0:0:
64,192,100654,1,0,0:0:0:0:
448,192,100829,1,0,0:0:0:0:
64,192,101005,1,0,0:0:0:0:
