osu file format v14

[General]
AudioFilename: audio.mp3
AudioLeadIn: 0
PreviewTime: 115491
Countdown: 0
SampleSet: Soft
StackLeniency: 0.2
Mode: 0
LetterboxInBreaks: 0
WidescreenStoryboard: 0

[Editor]
Bookmarks: 10076,28899,38311,57134,75958,92428,94781,134781,153605
DistanceSpacing: 1.8
BeatDivisor: 8
GridSize: 16
TimelineZoom: 1.7

[Metadata]
Title:NIGHT SWIMMING
TitleUnicode:夜を泳いでた
Artist:HARU NEMURI
ArtistUnicode:春ねむり
Creator:Liiraye
Version:WONDER WONDER
Source:
Tags:striderin piroshki HootOwlStar Okoratu haru to shura HOS Specific Recordings pop electronic Japanese 春と修羅 yoru o oyoideta
BeatmapID:2300641
BeatmapSetID:1101254

[Difficulty]
HPDrainRate:5
CircleSize:4.5
OverallDifficulty:8
ApproachRate:9
SliderMultiplier:1.8
SliderTickRate:1

[Events]
//Background and Video events
0,0,"bege.jpg",0,0
//Break Periods
//Storyboard Layer 0 (Background)
//Storyboard Layer 1 (Fail)
//Storyboard Layer 2 (Pass)
//Storyboard Layer 3 (Foreground)
//Storyboard Layer 4 (Overlay)
//Storyboard Sound Samples

[TimingPoints]
344,588.235294117647,4,2,5,30,1,0
9756,-100,4,2,5,50,0,0
14363,-100,4,2,5,5,0,0
14461,-100,4,2,5,50,0,0
22010,-100,4,2,5,5,0,0
22108,-100,4,2,5,50,0,0
27598,-100,4,2,5,5,0,0
27696,-100,4,2,5,50,0,0
27893,-100,4,2,5,5,0,0
27991,-100,4,2,5,50,0,0
28187,-100,4,2,5,5,0,0
28285,-200,4,2,5,50,0,0
28579,-66.6666666666667,4,2,5,50,0,0
56814,-66.6666666666667,4,2,5,50,0,1
75638,-66.6666666666667,4,2,5,45,0,0
115638,-50,4,2,5,60,0,1
153285,-50,4,2,5,50,0,0

[Colours]
Combo1 : 131,222,197
Combo2 : 130,168,145
Combo3 : 157,197,200
Combo4 : 157,165,236

[HitObjects]
73,228,344,5,2,0:0:0:0:
73,228,638,1,0,0:0:0:0:
73,228,785,2,0,P|89:269|116:305,1,90
127,135,1226,5,0,0:0:0:0:
127,135,1520,1,0,0:0:0:0:
127,135,1667,2,0,P|146:95|176:62,1,90
197,250,2108,5,0,0:0:0:0:
197,250,2402,1,0,0:0:0:0:
197,250,2549,2,0,P|219:287|252:318,1,90
284,109,2991,5,0,0:0:0:0:
284,109,3285,1,0,0:0:0:0:
284,109,3432,2,0,P|310:73|345:45,1,90
388,268,3873,5,0,0:0:0:0:
388,268,4167,1,0,0:0:0:0:
388,268,4314,2,0,P|417:301|454:325,1,90
500,160,4755,5,0,0:0:0:0:
500,160,5049,5,2,0:0:0:0:
500,160,5343,1,0,0:0:0:0:
500,160,5490,2,0,P|484:119|457:83,1,90
446,253,5931,5,0,0:0:0:0:
446,253,6225,1,0,0:0:0:0:
446,253,6372,2,0,P|427:293|397:326,1,90
376,138,6813,5,0,0:0:0:0:
376,138,7107,1,0,0:0:0:0:
376,138,7254,2,0,P|354:101|321:70,1,90
289,279,7696,5,0,0:0:0:0:
289,279,7990,1,0,0:0:0:0:
289,279,8137,2,0,P|263:315|228:343,1,90
185,120,8578,5,0,0:0:0:0:
185,120,8872,1,0,0:0:0:0:
185,120,9019,2,0,P|156:87|119:63,1,90
73,228,9460,5,0,0:0:0:0:
73,228,9755,5,2,0:0:0:0:
137,246,9902,1,0,0:0:0:0:
194,210,10049,1,0,0:0:0:0:
314,240,10196,1,0,0:0:0:0:
314,240,10343,2,0,P|332:202|317:149,1,90,2|0,0:0|0:0,0:0:0:0:
242,41,10785,1,2,0:0:0:0:
242,41,11520,5,0,0:0:0:0:
249,54,11814,1,0,0:0:0:0:
63,77,12108,5,2,0:0:0:0:
127,52,12255,1,2,0:0:0:0:
188,82,12402,1,0,0:0:0:0:
138,193,12549,1,0,0:0:0:0:
138,193,12696,2,0,P|169:229|170:276,1,90,2|0,0:0|0:0,0:0:0:0:
63,365,13138,1,2,0:0:0:0:
63,365,14167,2,0,P|84:358|131:354,1,60
188,311,14461,6,0,P|178:290|171:269,2,45,2|0|0,0:0|0:0|0:0,0:0:0:0:
287,250,14902,1,0,0:0:0:0:
287,250,15049,2,0,P|307:217|298:161,1,90,2|0,0:0|0:0,0:0:0:0:
173,129,15491,1,2,0:0:0:0:
173,129,15932,1,0,0:0:0:0:
173,129,16226,1,2,0:0:0:0:
237,147,16373,1,0,0:0:0:0:
261,209,16520,2,0,P|251:230|243:251,1,45,0|0,0:0|0:0,0:0:0:0:
230,371,16814,6,0,P|309:354|356:354,1,90,2|0,0:0|0:0,0:0:0:0:
448,306,17255,1,0,0:0:0:0:
375,276,17402,2,0,P|363:264|347:240,1,45,2|0,0:0|0:0,0:0:0:0:
427,177,17696,2,0,P|434:155|439:134,1,45
330,93,17991,2,0,P|320:46|305:5,1,90,2|0,0:0|0:0,0:0:0:0:
306,7,18432,1,2,0:0:0:0:
306,7,19167,6,0,P|316:28|330:49,2,45,2|0|0,0:0|0:0|0:0,0:0:0:0:
207,98,19608,1,0,0:0:0:0:
207,98,19755,2,0,P|156:113|108:136,1,90,2|0,0:0|0:0,0:0:0:0:
42,23,20196,1,2,0:0:0:0:
42,23,20785,1,0,0:0:0:0:
108,31,20932,1,2,0:0:0:0:
141,89,21079,1,0,0:0:0:0:
250,95,21226,2,0,P|270:85|291:76,1,45
353,222,21520,5,2,0:0:0:0:
267,280,21667,1,0,0:0:0:0:
267,280,21814,2,0,P|259:258|238:216,1,60,2|0,0:0|0:0,0:0:0:0:
181,174,22108,2,0,P|159:178|129:179,1,45,2|0,0:0|0:0,0:0:0:0:
39,128,22402,2,0,P|48:88|50:61,1,45
70,262,22696,1,2,0:0:0:0:
70,262,22843,2,0,P|61:302|59:329,1,45,2|0,0:0|0:0,0:0:0:0:
185,347,23138,1,0,0:0:0:0:
185,347,23285,2,0,P|252:324|327:322,1,135,2|0,0:0|0:0,0:0:0:0:
315,320,23873,6,0,P|304:300|299:278,1,45,2|0,0:0|0:0,0:0:0:0:
386,209,24167,1,0,0:0:0:0:
249,143,24314,1,0,0:0:0:0:
249,143,24461,2,0,P|231:158|213:171,1,45,2|0,0:0|0:0,0:0:0:0:
16,208,24755,2,0,P|38:210|64:218,1,45,2|0,0:0|0:0,0:0:0:0:
93,114,25049,2,0,P|77:94|56:59,2,45,2|0|0,0:0|0:0|0:0,0:0:0:0:
206,89,25491,1,0,0:0:0:0:
264,56,25638,1,0,0:0:0:0:
330,68,25785,2,0,P|299:111|305:164,1,90,2|0,0:0|0:0,0:0:0:0:
380,243,26226,6,0,P|425:230|449:228,2,45,2|0|0,0:0|0:0|0:0,0:0:0:0:
301,320,26667,1,0,0:0:0:0:
301,320,26814,2,0,P|279:312|258:304,1,45,2|0,0:0|0:0,0:0:0:0:
165,227,27108,1,0,0:0:0:0:
98,364,27255,1,0,0:0:0:0:
98,364,27402,2,0,P|119:356|157:347,1,60,2|0,0:0|0:0,0:0:0:0:
190,282,27696,2,0,P|171:248|163:213,1,60,2|0,0:0|0:0,0:0:0:0:
214,164,27991,2,0,P|224:122|224:91,1,60,2|0,0:0|0:0,0:0:0:0:
179,43,28285,6,0,L|157:39,1,22.5
267,39,28579,5,12,0:3:0:0:
267,39,28726,2,0,P|300:48|339:69,1,67.5000025749208
467,111,29020,2,0,P|434:120|395:141,1,67.5000025749208,8|4,0:3|0:3,0:0:0:0:
387,23,29314,1,0,0:0:0:0:
387,23,29461,2,0,P|425:66|403:135,1,135.000005149842,8|4,0:3|0:3,0:0:0:0:
285,203,29902,2,0,P|254:189|135:171,1,135.000005149842,8|0,0:3|0:0,0:0:0:0:
230,74,30343,2,0,P|238:36|244:-5,1,67.5000025749208,12|0,0:3|0:0,0:0:0:0:
285,203,30638,2,0,P|277:241|271:282,1,67.5000025749208,8|0,0:3|0:0,0:0:0:0:
373,350,30932,5,12,0:3:0:0:
373,350,31079,2,0,P|403:335|435:325,1,67.5000025749208
272,269,31373,2,0,P|240:258|210:242,1,67.5000025749208,8|4,0:3|0:3,0:0:0:0:
127,320,31667,1,0,0:0:0:0:
127,320,31814,2,0,P|190:303|209:242,1,135.000005149842,8|4,0:3|0:3,0:0:0:0:
319,154,32255,2,0,P|324:225|333:308,1,135.000005149842,8|0,0:3|0:0,0:0:0:0:
210,242,32696,2,0,P|162:235|99:238,1,67.5000025749208,12|0,0:3|0:0,0:0:0:0:
319,154,32991,2,0,P|367:147|430:150,1,67.5000025749208,8|0,0:3|0:0,0:0:0:0:
217,81,33285,5,12,0:3:0:0:
217,81,33432,2,0,P|198:15|201:-19,1,67.5000025749208
36,33,33726,2,0,P|69:43|102:42,1,67.5000025749208,8|4,0:3|0:3,0:0:0:0:
40,141,34020,1,0,0:0:0:0:
40,141,34167,2,0,P|47:77|102:42,1,135.000005149842,8|4,0:3|0:3,0:0:0:0:
181,158,34608,2,0,P|192:224|209:289,1,135.000005149842,8|0,0:3|0:0,0:0:0:0:
87,344,35049,2,0,P|54:335|6:329,1,67.5000025749208,12|0,0:3|0:0,0:0:0:0:
210,290,35343,2,0,P|243:281|291:275,1,67.5000025749208,8|0,0:3|0:0,0:0:0:0:
397,232,35638,5,12,0:3:0:0:
397,232,35785,2,0,P|380:275|375:313,1,67.5000025749208
485,177,36079,2,0,P|471:146|464:113,1,67.5000025749208,8|4,0:3|0:3,0:0:0:0:
357,88,36373,1,0,0:0:0:0:
357,88,36520,2,0,P|403:133|464:113,1,135.000005149842,8|4,0:3|0:3,0:0:0:0:
245,105,36961,2,0,P|214:165|186:226,1,135.000005149842,8|0,0:3|0:0,0:0:0:0:
77,150,37402,2,0,P|68:117|57:85,1,67.5000025749208,12|0,0:3|0:0,0:0:0:0:
187,227,37696,1,8,0:3:0:0:
114,312,37843,5,0,0:0:0:0:
114,312,37991,2,0,P|68:302|36:301,2,67.5000025749208,12|0|2,0:3|0:0|0:0,0:0:0:0:
246,286,38432,1,8,0:3:0:0:
246,286,38579,2,0,P|249:320|258:353,1,67.5000025749208,4|0,0:3|0:0,0:0:0:0:
411,328,38873,1,8,0:3:0:0:
425,321,39020,1,0,0:0:0:0:
339,225,39167,2,0,P|308:210|263:202,1,67.5000025749208,4|8,0:3|0:3,0:0:0:0:
426,178,39461,1,0,0:0:0:0:
426,178,39608,2,0,P|397:98|344:40,1,135.000005149842,2|0,0:0|0:0,0:0:0:0:
164,35,40049,5,8,0:3:0:0:
164,35,40196,2,0,P|143:113|108:169,1,135.000005149842,2|0,0:0|0:0,0:0:0:0:
195,211,40638,1,0,0:0:0:0:
255,181,40785,1,8,0:3:0:0:
320,197,40932,1,4,0:3:0:0:
353,255,41079,2,0,P|320:313|304:379,1,135.000005149842,2|0,0:0|0:0,0:0:0:0:
475,283,41520,2,0,P|448:238|439:208,2,67.5000025749208,4|8|0,0:3|0:3|0:0,0:0:0:0:
476,128,41961,1,0,0:0:0:0:
476,128,42108,2,0,P|441:123|408:121,1,67.5000025749208,12|0,0:3|0:0,0:0:0:0:
230,198,42402,2,0,P|263:192|296:183,1,67.5000025749208,8|0,0:3|0:0,0:0:0:0:
296,184,42696,6,0,P|286:246|286:268,1,67.5000025749208,12|0,0:3|0:0,0:0:0:0:
126,190,42991,2,0,P|115:124|108:87,1,67.5000025749208,2|8,0:0|0:3,0:0:0:0:
223,84,43285,2,0,P|295:68|384:38,2,135.000005149842,4|8|4,0:3|0:3|0:3,0:0:0:0:
128,22,44020,1,8,0:3:0:0:
60,19,44167,1,2,0:0:0:0:
20,73,44314,1,2,0:0:0:0:
32,139,44461,2,0,P|57:175|70:206,1,67.5000025749208,12|0,0:3|0:0,0:0:0:0:
44,291,44755,5,8,0:3:0:0:
203,218,44902,2,0,P|294:197|352:199,1,135.000005149842,2|0,0:0|0:0,0:0:0:0:
302,311,45343,1,0,0:0:0:0:
302,311,45491,2,0,P|291:352|284:391,1,67.5000025749208,8|4,0:3|0:3,0:0:0:0:
126,265,45785,2,0,P|133:306|143:345,1,67.5000025749208,2|8,0:0|0:3,0:0:0:0:
242,203,46079,1,2,0:0:0:0:
256,137,46226,1,4,0:3:0:0:
229,74,46373,1,8,0:3:0:0:
168,43,46520,2,0,P|92:54|23:43,1,135.000005149842,2|12,0:0|0:3,0:0:0:0:
35,47,46961,1,0,0:0:0:0:
145,153,47108,6,0,P|162:201|170:253,1,67.5000025749208,8|0,0:3|0:0,0:0:0:0:
268,95,47402,2,0,P|349:110|435:155,1,135.000005149842,12|0,0:3|0:0,0:0:0:0:
397,130,47843,1,8,0:3:0:0:
494,221,47991,2,0,P|459:269|436:348,1,135.000005149842,4|8,0:3|0:3,0:0:0:0:
216,317,48432,2,0,P|244:258|315:272,1,135.000005149842,2|8,0:0|0:3,0:0:0:0:
192,150,48873,1,2,0:0:0:0:
124,153,49020,1,2,0:0:0:0:
80,205,49167,2,0,P|101:270|110:336,1,135.000005149842,12|8,0:3|0:3,0:0:0:0:
20,362,49608,5,0,0:0:0:0:
208,384,49755,2,0,P|214:350|216:292,2,67.5000025749208,12|0|0,0:3|0:0|0:0,0:0:0:0:
303,268,50196,1,8,0:3:0:0:
303,268,50343,2,0,P|342:281|372:283,2,67.5000025749208,4|0|8,0:3|0:0|0:3,0:0:0:0:
202,188,50785,1,0,0:0:0:0:
192,177,50932,1,4,0:3:0:0:
273,118,51079,1,8,0:3:0:0:
124,62,51226,2,0,P|93:47|60:38,1,67.5000025749208,2|2,0:0|0:0,0:0:0:0:
273,118,51520,2,0,P|303:103|336:94,1,67.5000025749208,12|0,0:3|0:0,0:0:0:0:
248,269,51814,5,8,0:3:0:0:
197,354,51961,1,0,0:0:0:0:
81,266,52108,2,0,P|50:251|17:242,1,67.5000025749208,2|0,0:0|0:0,0:0:0:0:
197,354,52402,2,0,B|269:364|255:328|327:329,1,135.000005149842,8|8,0:3|0:3,0:0:0:0:
452,293,52843,1,0,0:0:0:0:
452,293,52991,2,0,P|465:329|490:364,1,67.5000025749208,2|0,0:0|0:0,0:0:0:0:
473,172,53285,5,2,0:0:0:0:
414,205,53432,1,2,0:0:0:0:
347,193,53579,1,2,0:0:0:0:
308,137,53726,1,0,0:0:0:0:
323,71,53873,1,8,0:3:0:0:
207,138,54020,1,4,0:3:0:0:
200,151,54167,1,4,0:3:0:0:
281,206,54314,2,0,P|314:198|347:192,1,67.5000025749208,8|0,0:3|0:0,0:0:0:0:
375,325,54608,5,2,0:0:0:0:
375,325,54755,2,0,P|358:360|350:395,1,67.5000025749208,2|0,0:0|0:0,0:0:0:0:
212,309,55049,1,8,0:3:0:0:
147,289,55196,1,2,0:0:0:0:
82,307,55343,1,2,0:0:0:0:
148,198,55491,5,0,0:0:0:0:
198,242,55638,1,2,0:0:0:0:
147,289,55785,1,2,0:0:0:0:
97,241,55932,1,4,0:3:0:0:
97,241,56226,1,8,0:0:0:0:
97,241,56814,6,0,P|158:220|318:209,1,202.500007724762,12|8,0:3|0:3,0:0:0:0:
294,206,57403,2,0,P|257:149|234:86,1,135.000005149842,8|8,0:0|0:3,0:0:0:0:
474,64,57844,1,0,0:0:0:0:
474,64,57991,2,0,P|455:94|443:124,1,67.5000025749208,4|8,0:3|0:3,0:0:0:0:
300,97,58285,2,0,P|266:90|233:86,1,67.5000025749208,2|0,0:0|0:0,0:0:0:0:
130,205,58579,2,0,P|155:253|174:341,2,135.000005149842,8|8|4,0:0|0:3|0:3,0:0:0:0:
130,205,59608,5,8,0:3:0:0:
130,205,59755,2,0,P|199:262|271:287,1,135.000005149842,8|8,0:0|0:3,0:0:0:0:
240,279,60196,1,0,0:0:0:0:
391,319,60343,2,0,P|342:330|305:347,1,67.5000025749208,4|8,0:3|0:3,0:0:0:0:
237,186,60638,2,0,P|271:189|304:197,1,67.5000025749208,2|0,0:0|0:0,0:0:0:0:
397,93,60932,2,0,P|362:56|329:33,1,67.5000025749208,8|0,0:0|0:0,0:0:0:0:
441,232,61226,2,0,P|480:213|517:204,1,67.5000025749208,8|0,0:3|0:0,0:0:0:0:
244,283,61520,6,0,P|185:248|34:209,1,202.500007724762,4|8,0:3|0:3,0:0:0:0:
57,210,62108,2,0,P|102:186|181:99,1,135.000005149842,8|8,0:0|0:3,0:0:0:0:
94,46,62549,1,0,0:0:0:0:
94,46,62696,2,0,P|57:39|23:22,1,67.5000025749208,4|8,0:3|0:3,0:0:0:0:
237,41,62991,2,0,P|292:26|329:30,1,67.5000025749208,2|0,0:0|0:0,0:0:0:0:
334,194,63285,2,0,P|325:161|320:127,1,67.5000025749208,8|0,0:0|0:0,0:0:0:0:
465,50,63579,2,0,P|456:82|451:116,1,67.5000025749208,8|0,0:3|0:0,0:0:0:0:
410,259,63873,5,4,0:3:0:0:
320,127,64020,1,2,0:0:0:0:
224,258,64167,1,2,0:0:0:0:
323,227,64314,5,2,0:0:0:0:
219,151,64461,1,10,0:0:0:0:
390,82,64608,1,2,0:0:0:0:
127,32,64755,2,0,P|92:29|59:21,1,67.5000025749208,8|0,0:3|0:0,0:0:0:0:
219,151,65049,2,0,P|252:149|284:140,1,67.5000025749208,4|8,0:3|0:3,0:0:0:0:
105,261,65343,2,0,P|99:292|91:325,1,67.5000025749208,2|0,0:0|0:0,0:0:0:0:
125,99,65638,2,0,P|126:63|126:29,1,67.5000025749208,8|0,0:0|0:0,0:0:0:0:
218,204,65932,1,8,0:3:0:0:
218,204,66226,6,0,P|313:170|410:142,1,202.500007724762,12|8,0:3|0:3,0:0:0:0:
410,141,66814,2,0,P|340:102|280:52,1,135.000005149842,8|8,0:0|0:3,0:0:0:0:
336,234,67255,1,0,0:0:0:0:
336,234,67402,2,0,P|323:265|314:297,1,67.5000025749208,4|8,0:3|0:3,0:0:0:0:
212,355,67696,2,0,P|173:341|95:325,1,67.5000025749208,2|0,0:0|0:0,0:0:0:0:
383,381,67991,2,0,P|442:349|504:323,2,135.000005149842,8|8|4,0:0|0:3|0:3,0:0:0:0:
383,381,69020,5,8,0:3:0:0:
383,381,69167,2,0,P|367:323|360:248,1,135.000005149842,8|8,0:0|0:3,0:0:0:0:
218,228,69608,1,0,0:0:0:0:
218,228,69755,2,0,P|189:210|158:195,1,67.5000025749208,4|8,0:3|0:3,0:0:0:0:
285,72,70049,2,0,P|301:101|314:132,1,67.5000025749208,2|0,0:0|0:0,0:0:0:0:
437,186,70343,2,0,P|443:152|447:119,1,67.5000025749208,8|0,0:0|0:0,0:0:0:0:
319,246,70638,2,0,P|330:283|341:310,1,67.5000025749208,8|0,0:3|0:0,0:0:0:0:
473,372,70932,6,0,P|374:350|273:344,1,202.500007724762,12|8,0:3|0:3,0:0:0:0:
274,344,71520,2,0,P|226:260|202:176,1,135.000005149842,8|8,0:0|0:3,0:0:0:0:
99,268,71961,1,0,0:0:0:0:
99,268,72108,2,0,P|37:294|-4:303,1,67.5000025749208,4|8,0:3|0:3,0:0:0:0:
213,224,72402,2,0,P|243:210|272:193,1,67.5000025749208,2|0,0:0|0:0,0:0:0:0:
272,192,72696,2,0,P|263:238|258:274,1,67.5000025749208,8|0,0:0|0:0,0:0:0:0:
130,168,72991,2,0,P|124:134|116:101,1,67.5000025749208,8|0,0:3|0:0,0:0:0:0:
219,39,73285,5,4,0:3:0:0:
284,24,73432,1,2,0:0:0:0:
350,35,73579,1,2,0:0:0:0:
403,76,73726,1,2,0:0:0:0:
468,192,73873,5,10,0:0:0:0:
403,177,74020,1,2,0:0:0:0:
337,188,74167,1,2,0:0:0:0:
284,229,74314,1,2,0:0:0:0:
352,264,74461,5,6,0:0:0:0:
267,154,74608,1,2,0:0:0:0:
210,355,74755,1,2,0:0:0:0:
275,370,74902,1,2,0:0:0:0:
340,384,75049,2,0,P|395:358|479:329,1,135.000005149842,8|8,0:0|0:0,0:0:0:0:
253,305,75638,5,12,0:3:0:0:
244,239,75785,1,2,0:0:0:0:
235,173,75932,1,2,0:0:0:0:
344,111,76079,1,8,0:3:0:0:
344,111,76226,2,0,P|409:135|390:206,1,135.000005149842,4|8,0:3|0:3,0:0:0:0:
387,287,76667,2,0,P|319:291|253:306,1,135.000005149842,2|8,0:0|0:3,0:0:0:0:
254,306,77403,1,8,0:3:0:0:
258,238,77550,1,2,0:0:0:0:
221,181,77697,1,8,0:3:0:0:
155,163,77844,1,2,0:0:0:0:
15,50,77991,5,12,0:3:0:0:
115,32,78138,1,2,0:0:0:0:
115,32,78285,2,0,P|87:104|71:181,1,135.000005149842,2|4,0:0|0:3,0:0:0:0:
0,254,78726,1,2,0:0:0:0:
3,237,78873,1,8,0:3:0:0:
61,270,79020,1,2,0:0:0:0:
125,251,79167,1,4,0:3:0:0:
178,134,79314,1,8,0:3:0:0:
178,134,79755,2,0,P|195:204|207:290,1,135.000005149842,12|8,0:3|0:3,0:0:0:0:
343,347,80197,1,2,0:0:0:0:
343,347,80344,6,0,P|421:344|426:274,1,135.000005149842,12|2,0:3|0:0,0:0:0:0:
435,299,80785,1,8,0:3:0:0:
382,199,80932,2,0,B|388:135|418:143|424:72,1,135.000005149842,4|8,0:3|0:3,0:0:0:0:
289,87,81373,1,2,0:0:0:0:
281,98,81520,1,4,0:3:0:0:
213,97,81667,1,8,0:3:0:0:
178,39,81814,1,2,0:0:0:0:
178,39,82108,1,12,0:3:0:0:
73,214,82255,1,2,0:0:0:0:
138,196,82402,1,8,0:3:0:0:
138,196,82697,6,0,P|118:162|101:112,2,67.5000025749208,4|0|0,0:3|0:0|0:0,0:0:0:0:
229,293,83138,2,0,P|267:251|341:271,1,135.000005149842,8|0,0:3|0:0,0:0:0:0:
116,339,83579,2,0,B|64:342|19:372|19:372|55:335|64:285,2,202.500007724762,8|8|8,0:3|0:3|0:3,0:0:0:0:
251,175,84755,1,8,0:3:0:0:
251,175,85050,6,0,P|228:122|222:58,2,67.5000025749208,12|0|2,0:3|0:0|0:0,0:0:0:0:
234,282,85491,1,8,0:3:0:0:
234,282,85638,2,0,P|296:306|338:247,1,135.000005149842,4|8,0:3|0:3,0:0:0:0:
467,204,86079,2,0,P|478:136|496:71,1,135.000005149842,2|8,0:0|0:3,0:0:0:0:
497,73,86667,1,2,0:0:0:0:
497,73,86814,1,12,0:3:0:0:
431,61,86961,1,2,0:0:0:0:
366,76,87108,1,8,0:3:0:0:
321,126,87255,1,2,0:0:0:0:
209,106,87403,6,0,P|188:64|180:15,1,67.5000025749208,12|0,0:3|0:0,0:0:0:0:
321,126,87697,2,0,P|311:158|304:191,1,67.5000025749208,2|8,0:0|0:3,0:0:0:0:
434,213,87991,1,4,0:3:0:0:
434,213,88138,1,0,0:0:0:0:
373,336,88285,1,8,0:3:0:0:
373,336,88432,2,0,P|303:315|259:384,1,135.000005149842,2|8,0:0|0:3,0:0:0:0:
127,345,88873,2,0,P|117:302|102:266,1,67.5000025749208,2|0,0:0|0:0,0:0:0:0:
51,144,89167,1,12,0:3:0:0:
51,144,89314,1,2,0:0:0:0:
227,154,89461,2,0,P|217:187|210:221,1,67.5000025749208,8|0,0:3|0:0,0:0:0:0:
51,144,89755,5,12,0:3:0:0:
119,146,89902,1,2,0:0:0:0:
162,94,90049,1,2,0:0:0:0:
144,29,90197,1,8,0:3:0:0:
132,40,90343,5,4,0:3:0:0:
194,67,90491,1,2,0:0:0:0:
260,57,90638,1,8,0:3:0:0:
325,41,90785,1,2,0:0:0:0:
388,62,90932,1,4,0:3:0:0:
422,120,91079,1,8,0:3:0:0:
412,186,91226,1,2,0:0:0:0:
355,223,91373,2,0,P|325:205|295:192,2,67.5000025749208,2|12|2,0:0|0:3|0:0,0:0:0:0:
118,331,91814,2,0,P|164:318|214:316,1,67.5000025749208,8|0,0:3|0:0,0:0:0:0:
104,172,92108,5,8,0:0:0:0:
104,172,92255,1,8,0:0:0:0:
104,172,92403,2,0,P|61:163|21:146,2,67.5000025749208,8|0|8,0:0|0:0|0:0,0:0:0:0:
234,79,92844,1,0,0:0:0:0:
369,246,92991,1,8,0:0:0:0:
369,246,93138,1,8,0:0:0:0:
423,183,93285,2,0,P|417:149|414:116,1,67.5000025749208,4|8,0:3|0:0,0:0:0:0:
244,13,93579,2,0,P|241:46|235:79,1,67.5000025749208,4|0,0:3|0:0,0:0:0:0:
293,227,93873,1,8,0:0:0:0:
293,227,94020,1,8,0:0:0:0:
293,227,94167,1,8,0:0:0:0:
293,227,94314,1,8,0:0:0:0:
382,341,94461,5,8,0:0:0:0:
405,263,94608,1,8,0:0:0:0:
252,362,94755,2,0,P|190:336|142:330,1,67.5000025749208,8|8,0:0|0:0,0:0:0:0:
128,159,95050,1,8,0:0:0:0:
167,231,95197,1,2,0:0:0:0:
250,70,95344,1,8,0:0:0:0:
233,149,95491,1,2,0:0:0:0:
126,37,95638,1,2,0:0:0:0:
58,39,95785,1,4,0:3:0:0:
19,94,95932,1,4,0:3:0:0:
24,161,96079,2,0,P|46:207|75:337,1,135.000005149842,4|4,0:3|0:3,0:0:0:0:
199,224,96520,2,0,P|229:239|262:247,1,67.5000025749208,8|4,0:0|0:3,0:0:0:0:
482,364,96814,5,8,0:0:0:0:
393,258,96961,1,8,0:0:0:0:
350,328,97108,2,0,P|309:343|259:349,1,67.5000025749208,8|8,0:0|0:0,0:0:0:0:
136,332,97403,2,0,P|177:337|229:354,1,67.5000025749208,8|2,0:0|0:0,0:0:0:0:
352,191,97697,1,8,0:0:0:0:
277,224,97844,2,0,P|281:156|272:89,1,135.000005149842,4|4,0:3|0:3,0:0:0:0:
413,290,98285,2,0,P|455:218|488:109,1,135.000005149842,4|8,0:3|0:0,0:0:0:0:
473,169,98726,1,4,0:3:0:0:
478,306,98873,2,0,P|424:292|365:281,1,67.5000025749208,8|4,0:0|0:3,0:0:0:0:
158,304,99167,5,8,0:0:0:0:
162,163,99314,1,8,0:0:0:0:
275,247,99461,1,8,0:0:0:0:
362,137,99608,1,8,0:0:0:0:
360,150,99755,1,8,0:0:0:0:
347,230,99903,2,0,P|317:221|266:133,1,135.000005149842,2|4,0:0|0:3,0:0:0:0:
173,0,100344,1,0,0:0:0:0:
116,35,100491,1,8,0:0:0:0:
95,98,100638,2,0,P|62:88|29:81,1,67.5000025749208,4|0,0:3|0:0,0:0:0:0:
190,223,100932,2,0,P|268:197|335:182,1,135.000005149842,8|8,0:0|0:0,0:0:0:0:
320,185,101373,1,0,0:0:0:0:
251,87,101520,6,0,P|244:53|242:20,1,67.5000025749208,8|0,0:0|0:0,0:0:0:0:
413,153,101814,1,8,0:0:0:0:
387,229,101961,1,8,0:0:0:0:
499,316,102108,1,8,0:0:0:0:
437,287,102255,1,0,0:0:0:0:
371,303,102403,1,8,0:0:0:0:
331,357,102550,1,4,0:3:0:0:
244,290,102696,2,0,P|236:257|227:224,1,67.5000025749208,0|8,0:0|0:0,0:0:0:0:
58,325,102991,1,4,0:3:0:0:
125,339,103138,1,0,0:0:0:0:
122,353,103285,1,8,0:0:0:0:
105,233,103432,1,4,0:3:0:0:
105,233,103579,2,0,P|98:192|97:129,1,67.5000025749208,8|4,0:0|0:3,0:0:0:0:
204,66,103873,5,8,0:0:0:0:
229,142,104020,1,8,0:0:0:0:
77,18,104167,2,0,P|26:42|-41:42,1,67.5000025749208,8|8,0:0|0:0,0:0:0:0:
31,243,104461,2,0,P|98:252|164:267,1,135.000005149842,8|8,0:0|0:0,0:0:0:0:
320,324,104903,1,4,0:3:0:0:
320,324,105050,2,0,P|302:294|288:263,2,67.5000025749208,2|8|4,0:0|0:0|0:3,0:0:0:0:
368,158,105491,1,0,0:0:0:0:
368,158,105638,2,0,P|393:124|413:69,1,67.5000025749208,8|4,0:0|0:3,0:0:0:0:
475,269,105932,2,0,P|450:303|430:358,1,67.5000025749208,8|4,0:0|0:3,0:0:0:0:
239,182,106226,5,8,0:0:0:0:
311,94,106373,1,8,0:0:0:0:
408,232,106520,1,8,0:0:0:0:
477,68,106667,1,8,0:0:0:0:
477,68,106814,2,0,P|450:15|442:-21,1,67.5000025749208,8|0,0:0|0:0,0:0:0:0:
407,232,107108,2,0,P|425:203|437:171,1,67.5000025749208,8|4,0:0|0:3,0:0:0:0:
276,203,107403,5,10,0:0:0:0:
184,181,107550,1,10,0:0:0:0:
120,110,107697,1,10,0:0:0:0:
120,15,107844,1,10,0:0:0:0:
288,104,107991,5,2,0:0:0:0:
294,138,108138,1,2,0:0:0:0:
289,171,108285,1,2,0:0:0:0:
276,203,108432,1,2,0:0:0:0:
394,201,108579,5,8,0:0:0:0:
317,291,108726,1,8,0:0:0:0:
413,369,108873,1,8,0:0:0:0:
413,369,109020,2,0,P|461:354|502:350,1,67.5000025749208,8|8,0:0|0:0,0:0:0:0:
496,272,109314,1,0,0:0:0:0:
243,335,109461,1,8,0:0:0:0:
243,335,109608,2,0,P|182:306|116:288,1,135.000005149842,4|4,0:3|0:3,0:0:0:0:
249,60,110050,1,8,0:0:0:0:
249,60,110197,2,0,P|232:125|228:192,1,135.000005149842,0|4,0:0|0:3,0:0:0:0:
83,188,110638,2,0,P|51:200|18:206,1,67.5000025749208,8|4,0:0|0:3,0:0:0:0:
146,355,110932,5,8,0:0:0:0:
239,264,111079,1,8,0:0:0:0:
344,332,111226,2,0,P|375:317|407:307,1,67.5000025749208,8|0,0:0|0:0,0:0:0:0:
399,146,111520,1,8,0:0:0:0:
399,146,111667,2,0,P|380:86|380:32,2,67.5000025749208,0|8|4,0:0|0:0|0:3,0:0:0:0:
257,198,112108,5,10,0:0:0:0:
165,173,112255,1,10,0:0:0:0:
88,228,112402,1,10,0:0:0:0:
82,322,112549,1,10,0:0:0:0:
260,293,112696,5,2,0:0:0:0:
275,261,112843,1,2,0:0:0:0:
275,226,112990,1,2,0:0:0:0:
257,198,113137,1,2,0:0:0:0:
256,192,113285,12,8,115050,0:2:0:0:
394,185,115638,6,0,P|286:265|200:369,1,270,4|0,0:3|0:0,0:0:0:0:
41,156,116226,2,0,P|129:144|226:119,1,180,8|0,0:0|0:0,0:0:0:0:
410,81,116667,1,0,0:0:0:0:
410,81,116814,2,0,P|383:147|377:221,1,90,4|0,0:3|0:0,0:0:0:0:
214,337,117108,2,0,P|187:271|181:197,1,90,8|0,0:0|0:0,0:0:0:0:
53,53,117403,2,0,P|152:109|231:126,2,180,4|0|4,0:3|0:0|0:3,0:0:0:0:
53,53,118432,5,0,0:0:0:0:
53,53,118579,2,0,P|143:39|319:41,1,180,8|0,0:0|0:0,0:0:0:0:
231,35,119020,1,0,0:0:0:0:
310,261,119167,2,0,P|280:307|260:353,1,90,4|0,0:3|0:0,0:0:0:0:
56,253,119461,2,0,P|141:220|200:206,1,90,8|0,0:0|0:0,0:0:0:0:
185,78,119755,2,0,P|137:64|68:53,1,90,8|0,0:0|0:0,0:0:0:0:
373,151,120050,2,0,P|412:172|449:198,1,90
398,374,120344,6,0,P|270:330|136:315,1,270,4|0,0:3|0:0,0:0:0:0:
253,188,120932,2,0,P|277:102|294:13,1,180,8|0,0:0|0:0,0:0:0:0:
146,67,121373,1,0,0:0:0:0:
146,67,121520,2,0,P|103:82|60:94,1,90,4|0,0:3|0:0,0:0:0:0:
394,145,121814,2,0,P|435:162|478:173,1,90,8|0,0:0|0:0,0:0:0:0:
351,362,122108,2,0,P|337:320|326:276,1,90,4|0,0:3|0:0,0:0:0:0:
149,309,122403,2,0,P|165:267|184:226,1,90
394,145,122697,5,4,0:3:0:0:
272,184,122844,1,2,0:0:0:0:
366,270,122991,1,2,0:0:0:0:
190,220,123138,5,2,0:0:0:0:
451,240,123285,1,10,0:0:0:0:
272,184,123432,1,2,0:0:0:0:
351,362,123579,2,0,P|395:360|440:365,1,90,2|0,0:0|0:0,0:0:0:0:
190,220,123873,2,0,P|148:242|108:255,1,90,4|0,0:3|0:0,0:0:0:0:
381,117,124167,2,0,P|388:72|400:29,1,90,8|0,0:0|0:0,0:0:0:0:
170,132,124461,2,0,P|183:177|190:220,1,90,8|0,0:0|0:0,0:0:0:0:
440,337,124755,1,0,0:0:0:0:
440,337,125050,6,0,P|284:348|140:378,1,270,4|0,0:3|0:0,0:0:0:0:
182,142,125638,2,0,P|272:135|360:116,1,180,8|0,0:0|0:0,0:0:0:0:
173,369,126079,1,0,0:0:0:0:
173,369,126226,2,0,P|165:326|143:258,1,90,4|0,0:3|0:0,0:0:0:0:
360,116,126520,2,0,P|368:159|390:227,1,90,8|0,0:0|0:0,0:0:0:0:
166,197,126814,2,0,P|61:160|-27:143,2,180,4|0|4,0:3|0:0|0:3,0:0:0:0:
166,197,127844,5,0,0:0:0:0:
166,197,127991,2,0,P|177:115|203:2,1,180,8|0,0:0|0:0,0:0:0:0:
198,20,128432,1,0,0:0:0:0:
350,57,128579,2,0,P|417:38|472:31,1,90,4|0,0:3|0:0,0:0:0:0:
512,215,128873,2,0,P|466:206|422:200,1,90,8|0,0:0|0:0,0:0:0:0:
324,322,129167,2,0,P|363:342|401:367,1,90,8|0,0:0|0:0,0:0:0:0:
109,322,129461,2,0,P|63:299|17:282,1,90
83,56,129755,6,0,P|113:187|109:321,1,270,4|0,0:3|0:0,0:0:0:0:
272,84,130344,2,0,P|254:195|253:335,1,180,8|0,0:0|0:0,0:0:0:0:
381,58,130785,1,0,0:0:0:0:
381,58,130932,2,0,P|429:116|464:143,1,90,4|0,0:3|0:0,0:0:0:0:
178,41,131226,2,0,P|140:66|99:85,1,90,8|0,0:0|0:0,0:0:0:0:
327,177,131520,2,0,P|342:239|369:300,1,90,4|0,0:3|0:0,0:0:0:0:
180,225,131814,2,0,P|155:289|122:341,1,90
254,350,132108,5,4,0:3:0:0:
323,368,132255,1,2,0:0:0:0:
394,354,132403,1,2,0:0:0:0:
448,306,132550,1,2,0:0:0:0:
471,173,132697,5,10,0:0:0:0:
402,155,132844,1,2,0:0:0:0:
331,169,132992,1,2,0:0:0:0:
277,217,133139,1,2,0:0:0:0:
344,240,133285,5,6,0:0:0:0:
264,147,133432,1,2,0:0:0:0:
209,195,133580,1,2,0:0:0:0:
206,31,133727,1,2,0:0:0:0:
206,31,133873,2,0,P|259:46|319:44,2,90,8|8|0,0:0|0:0|0:0,0:0:0:0:
50,185,134314,1,8,0:0:0:0:
50,185,134461,6,0,P|99:259|119:394,1,180,4|0,0:3|0:0,0:0:0:0:
120,346,134902,1,0,0:0:0:0:
231,314,135050,2,0,P|273:331|318:335,1,90,4|0,0:3|0:0,0:0:0:0:
489,97,135344,2,0,P|425:170|332:205,1,180,8|4,0:0|0:3,0:0:0:0:
351,203,135785,1,0,0:0:0:0:
211,52,135932,1,2,0:0:0:0:
159,102,136079,1,2,0:0:0:0:
110,154,136226,1,4,0:3:0:0:
110,154,136373,2,0,P|129:201|159:355,1,180,8|0,0:0|0:0,0:0:0:0:
263,381,136814,6,0,P|288:319|327:268,1,90,4|0,0:3|0:0,0:0:0:0:
8,214,137108,2,0,P|30:252|45:295,1,90,2|0,0:0|0:0,0:0:0:0:
313,96,137403,1,4,0:3:0:0:
242,80,137550,1,2,0:0:0:0:
171,64,137697,2,0,P|202:106|246:235,1,180,8|4,0:0|0:3,0:0:0:0:
369,308,138138,1,2,0:0:0:0:
392,239,138285,1,2,0:0:0:0:
414,173,138432,2,0,P|362:178|236:231,1,180,8|8,0:0|0:0,0:0:0:0:
96,258,138873,2,0,P|108:298|120:363,1,90
163,131,139167,5,4,0:3:0:0:
163,131,139461,2,0,P|215:138|285:136,1,90,8|0,0:0|0:0,0:0:0:0:
439,261,139755,2,0,P|277:295|198:322,1,180,8|2,0:0|0:0,0:0:0:0:
263,299,140197,1,0,0:0:0:0:
358,130,140344,2,0,P|373:82|383:19,1,90,4|0,0:3|0:0,0:0:0:0:
157,113,140638,1,2,0:0:0:0:
263,299,140785,1,2,0:0:0:0:
302,218,140932,2,0,P|195:220|148:231,1,90,4|0,0:3|0:0,0:0:0:0:
473,115,141226,1,8,0:0:0:0:
390,78,141373,1,10,0:0:0:0:
447,147,141520,6,0,P|464:190|477:237,2,90,4|2|0,0:3|0:0|0:0,0:0:0:0:
230,20,141961,1,8,0:0:0:0:
230,20,142108,2,0,P|217:63|200:104,1,90,4|0,0:3|0:0,0:0:0:0:
200,105,142403,1,8,0:0:0:0:
200,105,142550,2,0,P|102:135|-7:184,1,180,2|0,0:0|0:0,0:0:0:0:
151,359,142991,1,2,0:0:0:0:
187,267,143138,1,2,0:0:0:0:
190,354,143285,2,0,P|273:319|360:294,1,180,8|0,0:0|0:0,0:0:0:0:
273,64,143726,1,0,0:0:0:0:
273,64,143873,5,4,0:3:0:0:
219,148,144020,1,2,0:0:0:0:
363,114,144167,1,2,0:0:0:0:
129,98,144314,1,2,0:0:0:0:
272,264,144461,2,0,P|314:250|359:241,1,90,8|0,0:0|0:0,0:0:0:0:
132,328,144755,2,0,P|89:313|45:305,1,90,2|0,0:0|0:0,0:0:0:0:
215,80,145050,1,4,0:3:0:0:
97,82,145197,2,0,P|131:142|184:287,1,180,2|0,0:0|0:0,0:0:0:0:
323,231,145638,1,8,0:0:0:0:
323,231,145785,2,0,P|304:271|292:315,1,90,2|0,0:0|0:0,0:0:0:0:
85,326,146079,1,0,0:0:0:0:
158,70,146226,6,0,B|258:65|339:35,1,180,4|0,0:3|0:0,0:0:0:0:
147,208,146667,1,2,0:0:0:0:
147,208,146814,2,0,P|192:217|236:221,1,90,8|0,0:0|0:0,0:0:0:0:
410,172,147108,1,2,0:0:0:0:
319,257,147255,1,2,0:0:0:0:
278,114,147403,1,4,0:3:0:0:
457,316,147550,1,2,0:0:0:0:
188,338,147697,2,0,P|97:314|-43:312,1,180,8|8,0:0|0:0,0:0:0:0:
12,308,148138,1,2,0:0:0:0:
130,67,148285,2,0,P|149:126|176:188,1,90,8|0,0:0|0:0,0:0:0:0:
429,291,148579,5,4,0:3:0:0:
402,55,148726,2,0,P|364:80|321:93,1,90,2|0,0:0|0:0,0:0:0:0:
181,232,149020,1,2,0:0:0:0:
340,221,149167,1,4,0:3:0:0:
261,361,149314,1,2,0:0:0:0:
58,211,149461,2,0,B|53:318|101:282|96:384,1,180,8|8,0:0|0:0,0:0:0:0:
410,98,149903,1,2,0:0:0:0:
410,98,150050,2,0,B|308:103|344:55|237:60,1,180,8|8,0:0|0:0,0:0:0:0:
238,60,150491,1,0,0:0:0:0:
169,320,150638,1,2,0:0:0:0:
94,165,150785,1,2,0:0:0:0:
310,230,150932,6,0,P|331:269|348:312,1,90,4|0,0:3|0:0,0:0:0:0:
94,165,151226,2,0,P|59:193|19:214,1,90,4|0,0:3|0:0,0:0:0:0:
282,25,151520,2,0,P|415:22|526:49,1,180,8|2,0:0|0:0,0:0:0:0:
179,216,151961,2,0,B|148:314|123:265|98:374,1,180,8|8,0:0|0:0,0:0:0:0:
25,155,152403,1,0,0:0:0:0:
332,107,152550,2,0,B|432:87|401:131|509:103,1,180,8|8,0:0|0:0,0:0:0:0:
453,283,152991,1,2,0:0:0:0:
284,19,153138,1,8,0:0:0:0:
228,365,153285,1,4,0:0:0:0:
