osu file format v14

[General]
AudioFilename: audio.mp3
AudioLeadIn: 0
PreviewTime: 115491
Countdown: 0
SampleSet: Soft
StackLeniency: 0.3
Mode: 0
LetterboxInBreaks: 0
WidescreenStoryboard: 1

[Editor]
Bookmarks: 10075,28899,38311,57134,75958,92428,94781,134781,153605
DistanceSpacing: 0.9
BeatDivisor: 8
GridSize: 32
TimelineZoom: 2.5

[Metadata]
Title:NIGHT SWIMMING
TitleUnicode:夜を泳いでた
Artist:HARU NEMURI
ArtistUnicode:春ねむり
Creator:Liiraye
Version:PIROSHKI'S HARD
Source:
Tags:striderin piroshki HootOwlStar Okoratu haru to shura HOS Specific Recordings pop electronic Japanese 春と修羅 yoru o oyoideta
BeatmapID:2340936
BeatmapSetID:1101254

[Difficulty]
HPDrainRate:5
CircleSize:4.4
OverallDifficulty:6
ApproachRate:8
SliderMultiplier:1.3
SliderTickRate:2

[Events]
//Background and Video events
0,0,"bege.jpg",0,0
//Break Periods
//Storyboard Layer 0 (Background)
//Storyboard Layer 1 (Fail)
//Storyboard Layer 2 (Pass)
//Storyboard Layer 3 (Foreground)
//Storyboard Layer 4 (Overlay)
//Storyboard Sound Samples

[TimingPoints]
344,588.235294117647,4,2,5,40,1,0
344,-142.857142857143,4,2,5,40,0,0
9755,-100,4,2,5,60,0,0
14314,-100,4,2,5,60,0,0
14461,-100,4,2,5,60,0,0
28579,-76.9230769230769,4,2,5,60,0,0
32402,-76.9230769230769,4,2,5,60,0,0
32549,-76.9230769230769,4,2,5,60,0,0
37108,-76.9230769230769,4,2,5,60,0,0
37255,-76.9230769230769,4,2,5,60,0,0
40343,-76.9230769230769,4,2,5,60,0,0
40491,-76.9230769230769,4,2,5,60,0,0
41373,-76.9230769230769,4,2,5,60,0,0
48579,-76.9230769230769,4,2,5,60,0,0
48873,-76.9230769230769,4,2,5,60,0,0
56814,-62.5,4,2,5,60,0,1
57108,-62.5,4,2,5,60,0,1
57255,-62.5,4,2,5,60,0,1
59314,-62.5,4,2,5,60,0,1
59608,-62.5,4,2,5,60,0,1
61814,-62.5,4,2,5,60,0,1
61961,-62.5,4,2,5,60,0,1
66520,-62.5,4,2,5,60,0,1
66667,-62.5,4,2,5,60,0,1
68726,-62.5,4,2,5,60,0,1
69020,-62.5,4,2,5,60,0,1
71226,-62.5,4,2,5,60,0,1
71373,-62.5,4,2,5,60,0,1
75638,-62.5,4,2,5,60,0,0
78432,-62.5,4,2,5,60,0,0
78579,-62.5,4,2,5,60,0,0
79902,-62.5,4,2,5,60,0,0
80049,-62.5,4,2,5,60,0,0
81961,-62.5,4,2,5,60,0,0
82108,-62.5,4,2,5,60,0,0
84167,-62.5,4,2,5,60,0,0
84461,-62.5,4,2,5,60,0,0
86667,-62.5,4,2,5,60,0,0
86814,-62.5,4,2,5,60,0,0
88579,-62.5,4,2,5,60,0,0
88726,-62.5,4,2,5,60,0,0
94461,-58.8235294117647,4,2,5,60,0,0
96226,-58.8235294117647,4,2,5,60,0,0
96373,-58.8235294117647,4,2,5,60,0,0
101079,-58.8235294117647,4,2,5,60,0,0
101226,-58.8235294117647,4,2,5,60,0,0
104608,-58.8235294117647,4,2,5,60,0,0
104755,-58.8235294117647,4,2,5,60,0,0
107255,-58.8235294117647,4,2,5,60,0,0
107402,-58.8235294117647,4,2,5,60,0,0
110343,-58.8235294117647,4,2,5,60,0,0
110491,-58.8235294117647,4,2,5,60,0,0
115638,-52.6315789473684,4,2,5,60,0,1
115932,-52.6315789473684,4,2,5,60,0,1
116079,-52.6315789473684,4,2,5,60,0,1
118138,-52.6315789473684,4,2,5,60,0,1
118432,-52.6315789473684,4,2,5,60,0,1
120637,-52.6315789473684,4,2,5,60,0,1
120785,-52.6315789473684,4,2,5,60,0,1
125343,-52.6315789473684,4,2,5,60,0,1
125491,-52.6315789473684,4,2,5,60,0,1
127549,-52.6315789473684,4,2,5,60,0,1
127843,-52.6315789473684,4,2,5,60,0,1
130049,-52.6315789473684,4,2,5,60,0,1
130196,-52.6315789473684,4,2,5,60,0,1
135490,-52.6315789473684,4,2,5,60,0,1
135638,-52.6315789473684,4,2,5,60,0,1
136520,-52.6315789473684,4,2,5,60,0,1
136814,-52.6315789473684,4,2,5,60,0,1
138579,-52.6315789473684,4,2,5,60,0,1
138726,-52.6315789473684,4,2,5,60,0,1
142696,-52.6315789473684,4,2,5,60,0,1
142843,-52.6315789473684,4,2,5,60,0,1
145343,-52.6315789473684,4,2,5,60,0,1
145491,-52.6315789473684,4,2,5,60,0,1
147843,-52.6315789473684,4,2,5,60,0,1
147991,-52.6315789473684,4,2,5,60,0,1
153285,-52.6315789473684,4,2,5,60,0,0

[Colours]
Combo1 : 131,222,197
Combo2 : 130,168,145
Combo3 : 157,197,200
Combo4 : 157,165,236

[HitObjects]
253,0,344,5,2,0:0:0:0:
313,89,638,1,0,0:0:0:0:
313,89,785,2,0,L|268:80,1,45.4999986114502
256,71,1226,2,0,L|212:85,1,45.4999986114502
197,83,1667,2,0,L|167:117,1,45.4999986114502
151,122,2108,2,0,L|142:166,1,45.4999986114502
130,178,2549,2,0,L|144:221,1,45.4999986114502
139,236,2991,2,0,L|173:265,1,45.4999986114502
175,281,3432,2,0,L|219:289,1,45.4999986114502
228,301,3873,2,0,L|271:286,1,45.4999986114502
283,291,4314,2,0,L|312:256,1,45.4999986114502
310,245,4755,1,0,0:0:0:0:
410,236,5049,5,2,0:0:0:0:
512,225,5343,1,0,0:0:0:0:
505,215,5491,2,0,L|459:208,1,45.4999986114502
448,205,5932,2,0,L|402:198,1,45.4999986114502
391,196,6373,2,0,L|345:189,1,45.4999986114502
334,188,6814,2,0,L|288:181,1,45.4999986114502
277,179,7255,2,0,L|231:172,1,45.4999986114502
220,171,7696,2,0,L|174:164,1,45.4999986114502
163,163,8138,2,0,L|117:156,1,45.4999986114502
106,155,8579,2,0,L|60:148,1,45.4999986114502
49,146,9020,2,0,L|3:139,1,45.4999986114502
3,128,9461,1,0,0:0:0:0:
86,260,9755,5,2,0:0:0:0:
96,278,9902,1,0,0:0:0:0:
103,292,10049,2,0,L|92:368,1,65,0|2,0:0|0:0,0:0:0:0:
220,381,10638,1,0,0:0:0:0:
223,365,10785,1,2,0:0:0:0:
254,165,11520,6,0,L|263:100,1,65
341,18,12108,5,2,0:0:0:0:
350,31,12255,2,0,L|345:63,1,32.5,2|0,0:0|0:0,0:0:0:0:
401,106,12549,1,0,0:0:0:0:
411,118,12696,2,0,L|400:193,1,65,2|0,0:0|0:0,0:0:0:0:
414,192,13138,1,2,0:0:0:0:
510,298,14167,2,0,L|478:305,1,32.5,0|0,0:0|0:0,0:0:0:0:
406,364,14461,5,2,0:0:0:0:
390,358,14608,1,0,0:0:0:0:
374,352,14755,1,0,0:0:0:0:
359,345,14902,1,0,0:0:0:0:
341,338,15049,2,0,L|325:264,1,65,2|0,0:0|0:0,0:0:0:0:
313,265,15491,1,2,0:0:0:0:
176,250,15932,5,0,0:0:0:0:
193,323,16226,1,2,0:0:0:0:
179,331,16373,1,0,0:0:0:0:
164,338,16520,1,0,0:0:0:0:
149,345,16667,1,0,0:0:0:0:
134,353,16814,6,0,L|63:338,1,65,2|0,0:0|0:0,0:0:0:0:
62,328,17255,1,0,0:0:0:0:
49,331,17402,2,0,L|33:267,1,65,2|0,0:0|0:0,0:0:0:0:
42,257,17843,1,0,0:0:0:0:
51,248,17991,1,2,0:0:0:0:
33,156,18285,1,0,0:0:0:0:
29,143,18432,1,2,0:0:0:0:
306,202,19167,5,2,0:0:0:0:
302,215,19314,1,0,0:0:0:0:
298,227,19461,2,0,L|361:213,1,65,0|2,0:0|0:0,0:0:0:0:
489,141,20049,1,0,0:0:0:0:
488,152,20196,1,2,0:0:0:0:
392,0,20785,5,0,0:0:0:0:
402,12,20932,1,2,0:0:0:0:
412,24,21079,2,0,L|407:107,1,65,2|0,0:0|0:0,0:0:0:0:
333,75,21520,1,2,0:0:0:0:
334,62,21667,1,0,0:0:0:0:
335,49,21814,1,0,0:0:0:0:
170,48,22108,5,2,0:0:0:0:
172,64,22255,1,0,0:0:0:0:
172,80,22402,1,0,0:0:0:0:
174,96,22549,1,0,0:0:0:0:
176,112,22696,1,2,0:0:0:0:
167,134,22843,2,0,L|172:208,1,65,2|0,0:0|0:0,0:0:0:0:
182,207,23285,1,2,0:0:0:0:
37,346,23726,5,0,0:0:0:0:
49,335,23873,2,0,L|119:346,1,65,2|0,0:0|0:0,0:0:0:0:
159,286,24314,1,0,0:0:0:0:
173,278,24461,2,0,L|204:284,2,32.5,2|0|0,0:0|0:0|0:0,0:0:0:0:
326,372,25049,5,2,0:0:0:0:
319,354,25196,1,0,0:0:0:0:
315,341,25343,1,0,0:0:0:0:
311,328,25491,1,0,0:0:0:0:
306,313,25638,2,0,L|312:274,1,32.5,2|0,0:0|0:0,0:0:0:0:
344,150,26079,5,0,0:0:0:0:
339,137,26226,2,0,L|345:105,2,32.5,2|0|0,0:0|0:0|0:0,0:0:0:0:
261,91,26667,1,0,0:0:0:0:
247,101,26814,6,0,L|183:87,1,65,2|0,0:0|0:0,0:0:0:0:
172,95,27255,1,0,0:0:0:0:
162,103,27402,1,2,0:0:0:0:
82,84,27696,1,0,0:0:0:0:
1,64,27991,1,2,0:0:0:0:
1,64,28579,6,0,P|10:108|12:148,1,84.4999961318971,12|0,0:3|0:0,0:0:0:0:
9,160,29020,1,8,0:3:0:0:
5,172,29167,2,0,P|13:191|19:211,1,42.2499980659486,4|0,0:3|0:0,0:0:0:0:
0,298,29461,6,0,L|124:323,1,126.749994197846,8|8,0:3|0:3,0:0:0:0:
124,323,30343,2,0,L|130:366,1,42.2499980659486,12|0,0:3|0:0,0:0:0:0:
196,343,30638,2,0,L|202:386,1,42.2499980659486,8|0,0:3|0:0,0:0:0:0:
305,384,30932,6,0,L|316:300,1,84.4999961318971,12|0,0:3|0:0,0:0:0:0:
325,291,31373,1,8,0:3:0:0:
334,282,31520,2,0,L|340:240,1,42.2499980659486,4|0,0:3|0:0,0:0:0:0:
305,149,31814,6,0,P|343:100|403:82,1,126.749994197846,8|8,0:3|0:3,0:0:0:0:
410,92,32402,2,0,P|406:112|396:131,1,42.2499980659486
317,138,32696,2,0,P|295:139|275:136,1,42.2499980659486,12|0,0:3|0:0,0:0:0:0:
226,194,32991,2,0,P|237:211|245:231,1,42.2499980659486,8|0,0:3|0:0,0:0:0:0:
222,323,33285,6,0,L|138:308,1,84.4999961318971,12|0,0:3|0:0,0:0:0:0:
129,317,33726,1,8,0:3:0:0:
119,325,33873,2,0,L|111:280,1,42.2499980659486,4|0,0:3|0:0,0:0:0:0:
20,338,34167,6,0,L|0:212,1,126.749994197846,8|8,0:3|0:3,0:0:0:0:
0,213,35049,2,0,L|40:224,1,42.2499980659486,12|0,0:3|0:0,0:0:0:0:
0,140,35343,2,0,L|40:151,1,42.2499980659486,8|0,0:3|0:0,0:0:0:0:
128,116,35638,6,0,P|104:81|67:61,1,84.4999961318971,12|0,0:3|0:0,0:0:0:0:
58,69,36079,1,8,0:3:0:0:
48,77,36226,2,0,L|114:90,1,42.2499980659486,4|0,0:3|0:0,0:0:0:0:
206,112,36520,6,0,L|330:136,1,126.749994197846,8|8,0:3|0:3,0:0:0:0:
339,145,37108,2,0,P|328:162|319:182,1,42.2499980659486
360,249,37402,2,0,P|380:250|402:247,1,42.2499980659486,12|0,0:3|0:0,0:0:0:0:
443,178,37696,2,0,P|433:159|420:142,1,42.2499980659486,8|0,0:3|0:0,0:0:0:0:
378,54,37991,5,12,0:3:0:0:
340,46,38138,1,0,0:0:0:0:
302,37,38285,1,8,0:3:0:0:
202,92,38579,5,4,0:3:0:0:
187,56,38726,1,2,0:0:0:0:
223,46,38873,1,8,0:3:0:0:
238,82,39020,1,0,0:0:0:0:
270,101,39167,2,0,L|259:196,1,84.4999961318971,4|0,0:3|0:0,0:0:0:0:
268,194,39608,1,8,0:3:0:0:
196,304,39902,5,2,0:0:0:0:
159,293,40049,1,8,0:3:0:0:
121,284,40196,2,0,L|34:307,1,84.4999961318971,2|0,0:0|0:0,0:0:0:0:
28,342,40638,1,2,0:0:0:0:
63,354,40785,1,8,0:3:0:0:
98,367,40932,1,4,0:3:0:0:
134,377,41079,2,0,L|224:346,1,84.4999961318971,8|2,0:3|0:0,0:0:0:0:
287,322,41520,2,0,L|370:332,1,84.4999961318971,4|0,0:3|0:0,0:0:0:0:
380,341,41961,2,0,B|399:302|399:302|385:263,1,84.4999961318971,8|8,0:3|0:3,0:0:0:0:
356,153,42549,5,2,0:0:0:0:
346,134,42696,2,0,L|351:92,2,42.2499980659486,12|0|0,0:3|0:0|0:0,0:0:0:0:
428,30,43285,2,0,L|418:112,2,84.4999961318971,4|8|4,0:3|0:3|0:3,0:0:0:0:
403,44,44020,1,8,0:3:0:0:
382,49,44167,1,2,0:0:0:0:
361,55,44314,1,2,0:0:0:0:
340,62,44461,1,12,0:3:0:0:
176,24,44755,5,8,0:3:0:0:
178,45,44902,2,0,L|248:49,1,42.2499980659486,2|12,0:0|0:3,0:0:0:0:
262,105,45196,5,0,0:0:0:0:
264,127,45343,1,2,0:0:0:0:
276,137,45491,2,0,L|163:146,1,84.4999961318971,8|0,0:3|0:0,0:0:0:0:
176,159,45932,1,8,0:3:0:0:
161,174,46079,1,2,0:0:0:0:
164,194,46226,2,0,L|172:235,2,42.2499980659486,4|8|2,0:3|0:3|0:0,0:0:0:0:
76,152,46814,1,12,0:3:0:0:
32,322,47108,5,8,0:3:0:0:
115,368,47402,2,0,L|206:358,1,84.4999961318971,12|2,0:3|0:0,0:0:0:0:
207,349,47843,1,8,0:3:0:0:
215,339,47991,1,4,0:3:0:0:
335,345,48285,2,0,L|396:351,1,42.2499980659486,8|0,0:3|0:0,0:0:0:0:
406,276,48579,2,0,L|321:268,1,84.4999961318971,4|2,0:3|0:0,0:0:0:0:
316,256,49020,1,2,0:0:0:0:
310,244,49167,1,12,0:3:0:0:
455,197,49461,5,8,0:3:0:0:
449,209,49608,1,0,0:0:0:0:
444,220,49755,2,0,L|428:171,1,42.2499980659486,12|0,0:3|0:0,0:0:0:0:
407,111,50049,2,0,L|391:62,1,42.2499980659486,2|8,0:0|0:3,0:0:0:0:
329,22,50343,6,0,P|313:60|277:81,1,84.4999961318971,4|8,0:3|0:3,0:0:0:0:
265,79,50785,1,0,0:0:0:0:
251,77,50932,2,0,P|249:98|251:119,1,42.2499980659486,4|8,0:3|0:3,0:0:0:0:
243,128,51226,1,2,0:0:0:0:
234,137,51373,1,2,0:0:0:0:
96,111,51814,6,0,L|54:102,1,42.2499980659486,8|2,0:3|0:0,0:0:0:0:
64,26,52108,1,2,0:0:0:0:
71,29,52255,1,2,0:0:0:0:
79,31,52402,1,8,0:3:0:0:
70,182,52696,5,8,0:3:0:0:
62,180,52843,1,0,0:0:0:0:
53,178,52991,2,0,L|62:219,1,42.2499980659486,2|0,0:0|0:0,0:0:0:0:
84,287,53285,2,0,L|93:328,1,42.2499980659486,2|0,0:0|0:0,0:0:0:0:
106,331,53579,1,2,0:0:0:0:
118,334,53726,1,2,0:0:0:0:
130,337,53873,1,8,0:3:0:0:
172,320,54020,5,4,0:3:0:0:
181,324,54167,2,0,L|175:367,1,42.2499980659486,4|8,0:3|0:3,0:0:0:0:
198,173,54608,1,0,0:0:0:0:
204,184,54755,2,0,L|287:168,1,84.4999961318971,2|8,0:0|0:3,0:0:0:0:
293,157,55196,1,0,0:0:0:0:
299,146,55343,2,0,L|344:153,1,42.2499980659486,2|2,0:0|0:0,0:0:0:0:
412,167,55638,2,0,L|457:174,1,42.2499980659486,2|0,0:0|0:0,0:0:0:0:
464,167,55932,1,4,0:3:0:0:
383,75,56226,1,8,0:0:0:0:
383,75,56814,6,0,P|341:108|295:125,1,104,12|0,0:3|0:0,0:0:0:0:
252,194,57255,1,8,0:3:0:0:
252,194,57402,2,0,P|204:175|162:143,1,104,8|8,0:0|0:3,0:0:0:0:
77,46,57991,6,0,P|60:65|46:87,1,52,4|8,0:3|0:3,0:0:0:0:
37,165,58285,2,0,P|46:189|57:212,1,52,2|0,0:0|0:0,0:0:0:0:
39,287,58579,2,0,L|139:313,1,104,8|8,0:0|0:3,0:0:0:0:
251,376,59167,6,0,L|266:273,1,104,4|0,0:3|0:0,0:0:0:0:
276,268,59608,1,8,0:3:0:0:
284,262,59755,1,8,0:0:0:0:
265,113,60049,5,8,0:3:0:0:
265,113,60196,1,2,0:0:0:0:
261,79,60343,1,4,0:3:0:0:
296,75,60491,1,8,0:3:0:0:
299,110,60638,1,2,0:0:0:0:
429,137,60932,2,0,L|422:24,1,104,8|8,0:0|0:3,0:0:0:0:
341,236,61520,6,0,P|374:275|419:301,1,104,4|0,0:3|0:0,0:0:0:0:
504,283,61961,1,8,0:3:0:0:
503,283,62108,2,0,P|455:302|419:339,1,104,8|8,0:0|0:3,0:0:0:0:
303,327,62696,2,0,P|295:353|292:377,1,52,4|8,0:3|0:3,0:0:0:0:
219,377,62991,2,0,P|216:351|209:327,1,52,2|0,0:0|0:0,0:0:0:0:
254,259,63285,2,0,P|225:215|187:180,1,104,8|8,0:0|0:3,0:0:0:0:
104,133,63873,5,4,0:3:0:0:
57,139,64020,1,2,0:0:0:0:
11,147,64167,1,2,0:0:0:0:
24,130,64314,1,2,0:0:0:0:
44,125,64461,1,10,0:0:0:0:
64,121,64608,1,2,0:0:0:0:
84,116,64755,1,8,0:3:0:0:
206,70,65049,6,0,L|188:172,1,104,4|2,0:3|0:0,0:0:0:0:
172,256,65491,1,0,0:0:0:0:
172,256,65638,2,0,L|189:358,1,104,8|8,0:0|0:3,0:0:0:0:
305,369,66226,6,0,P|337:328|384:305,1,104,12|0,0:3|0:0,0:0:0:0:
408,229,66667,1,8,0:3:0:0:
408,229,66814,2,0,P|458:240|501:269,1,104,8|8,0:0|0:3,0:0:0:0:
325,239,67402,6,0,P|308:218|290:201,1,52,4|8,0:3|0:3,0:0:0:0:
219,170,67696,2,0,P|192:174|169:180,1,52,2|0,0:0|0:0,0:0:0:0:
94,204,67991,2,0,P|55:170|35:122,1,104,8|8,0:0|0:3,0:0:0:0:
125,8,68579,6,0,L|227:25,1,104,4|0,0:3|0:0,0:0:0:0:
231,35,69020,1,8,0:3:0:0:
235,44,69167,1,8,0:0:0:0:
439,110,69461,5,8,0:3:0:0:
439,110,69608,1,2,0:0:0:0:
432,77,69755,1,4,0:3:0:0:
399,82,69902,1,8,0:3:0:0:
406,115,70049,1,2,0:0:0:0:
493,214,70343,2,0,L|507:317,1,104,8|8,0:0|0:3,0:0:0:0:
387,384,70932,6,0,P|350:347|302:328,1,104,12|0,0:3|0:0,0:0:0:0:
244,279,71373,1,8,0:3:0:0:
243,279,71520,2,0,P|193:294|153:327,1,104,8|8,0:0|0:3,0:0:0:0:
6,235,72108,6,0,L|56:246,1,52,4|8,0:3|0:3,0:0:0:0:
42,173,72402,2,0,L|92:184,1,52,2|0,0:0|0:0,0:0:0:0:
78,111,72696,2,0,L|179:133,1,104,8|8,0:0|0:3,0:0:0:0:
273,195,73285,5,4,0:3:0:0:
301,183,73432,1,2,0:0:0:0:
330,173,73579,1,2,0:0:0:0:
359,163,73726,1,2,0:0:0:0:
388,155,73873,2,0,L|438:166,2,52,10|2|2,0:0|0:0|0:0,0:0:0:0:
512,69,74461,5,6,0:0:0:0:
476,61,74608,1,2,0:0:0:0:
440,53,74755,1,2,0:0:0:0:
404,44,74902,1,2,0:0:0:0:
368,36,75049,1,8,0:0:0:0:
285,56,75343,1,8,0:0:0:0:
199,75,75638,6,0,L|128:62,2,52,12|0|2,0:3|0:0|0:0,0:0:0:0:
168,159,76226,2,0,L|51:176,1,104,4|8,0:3|0:3,0:0:0:0:
56,186,76667,1,2,0:0:0:0:
168,369,77402,5,12,0:3:0:0:
163,354,77549,1,0,0:0:0:0:
157,339,77696,1,8,0:3:0:0:
168,328,77843,1,0,0:0:0:0:
180,318,77991,6,0,L|306:337,1,104,12|2,0:3|0:0,0:0:0:0:
360,346,78432,1,8,0:3:0:0:
360,346,78579,2,0,L|416:355,1,52,4|2,0:3|0:0,0:0:0:0:
423,344,78873,1,8,0:3:0:0:
435,334,79020,1,2,0:0:0:0:
447,324,79167,2,0,L|442:270,1,52,4|0,0:3|0:0,0:0:0:0:
429,111,79755,2,0,L|424:57,2,52,12|0|8,0:3|0:0|0:3,0:0:0:0:
512,247,80343,6,0,L|409:230,1,104,12|2,0:3|0:0,0:0:0:0:
309,255,80785,1,8,0:3:0:0:
318,258,80932,2,0,P|341:213|337:162,1,104,4|8,0:3|0:3,0:0:0:0:
273,121,81373,1,2,0:0:0:0:
259,129,81520,2,0,L|194:111,1,52,4|8,0:3|0:3,0:0:0:0:
131,137,81814,1,2,0:0:0:0:
110,132,81961,1,0,0:0:0:0:
89,128,82108,2,0,L|96:76,2,52,12|0|8,0:3|0:0|0:3,0:0:0:0:
113,267,82696,5,4,0:3:0:0:
128,249,82843,2,0,L|112:375,1,104,0|8,0:0|0:3,0:0:0:0:
232,157,83579,2,0,L|205:362,1,156,8|8,0:3|0:3,0:0:0:0:
348,84,84461,1,8,0:3:0:0:
348,84,84755,1,8,0:3:0:0:
507,8,85049,6,0,L|439:17,2,52,12|0|2,0:3|0:0|0:0,0:0:0:0:
512,127,85638,2,0,L|406:141,1,104,4|8,0:3|0:3,0:0:0:0:
395,157,86079,1,2,0:0:0:0:
292,341,86667,5,0,0:0:0:0:
308,309,86814,1,12,0:3:0:0:
328,314,86961,1,0,0:3:0:0:
347,319,87108,1,8,0:3:0:0:
366,324,87255,1,0,0:0:0:0:
386,329,87402,6,0,L|363:257,1,52,12|0,0:3|0:0,0:0:0:0:
350,214,87696,2,0,L|303:190,1,52,2|8,0:0|0:3,0:0:0:0:
221,213,87991,1,4,0:3:0:0:
217,233,88138,1,2,0:0:0:0:
214,252,88285,2,0,L|110:257,1,104,8|4,0:3|0:3,0:0:0:0:
97,270,88726,1,8,0:3:0:0:
87,282,88873,1,2,0:0:0:0:
18,176,89167,1,12,0:3:0:0:
34,186,89314,2,0,L|24:237,1,52,2|8,0:0|0:3,0:0:0:0:
123,31,89755,5,12,0:3:0:0:
119,51,89902,1,2,0:0:0:0:
115,71,90049,1,2,0:0:0:0:
111,91,90196,1,8,0:3:0:0:
107,111,90343,6,0,L|174:90,3,52,4|2|8|2,0:3|0:0|0:3|0:0,0:0:0:0:
234,76,90932,2,0,L|282:94,1,52,4|8,0:3|0:3,0:0:0:0:
362,121,91226,1,2,0:0:0:0:
372,117,91373,1,2,0:0:0:0:
382,112,91520,1,12,0:3:0:0:
393,107,91667,1,2,0:0:0:0:
485,299,91961,1,0,0:0:0:0:
485,299,92108,5,8,0:0:0:0:
447,270,92255,1,8,0:0:0:0:
400,270,92402,1,8,0:0:0:0:
364,300,92549,1,0,0:0:0:0:
352,345,92696,2,0,L|301:331,1,52,8|0,0:0|0:0,0:0:0:0:
227,379,92991,1,8,0:0:0:0:
227,379,93138,1,8,0:0:0:0:
227,379,93285,6,0,L|215:328,1,52,4|8,0:3|0:0,0:0:0:0:
238,257,93579,2,0,L|286:238,1,52,4|0,0:3|0:0,0:0:0:0:
326,175,93873,5,8,0:0:0:0:
305,133,94020,1,8,0:0:0:0:
263,110,94167,1,8,0:0:0:0:
216,110,94314,1,8,0:0:0:0:
178,136,94461,6,0,P|168:106|164:77,1,55.2500010538101,8|8,0:0|0:0,0:0:0:0:
83,68,94755,2,0,P|90:123|109:175,1,110.50000210762,8|8,0:0|0:0,0:0:0:0:
205,200,95196,1,0,0:0:0:0:
245,190,95343,5,4,0:3:0:0:
227,231,95491,1,8,0:0:0:0:
227,275,95638,2,0,P|252:280|279:291,1,55.2500010538101,0|4,0:0|0:3,0:0:0:0:
360,297,95932,1,0,0:0:0:0:
360,297,96079,2,0,P|374:318|385:345,1,55.2500010538101,4|0,0:3|0:0,0:0:0:0:
467,366,96373,2,0,P|487:347|510:331,1,55.2500010538101,4|8,0:3|0:0,0:0:0:0:
444,277,96667,5,4,0:3:0:0:
458,228,96814,2,0,L|468:173,1,55.2500010538101,8|8,0:0|0:0,0:0:0:0:
416,105,97108,1,8,0:0:0:0:
399,56,97255,1,8,0:0:0:0:
451,40,97402,1,8,0:0:0:0:
467,89,97549,1,2,0:0:0:0:
287,74,97843,5,4,0:3:0:0:
192,21,98138,1,8,0:0:0:0:
192,21,98285,2,0,P|209:74|197:127,1,110.50000210762,4|8,0:3|0:0,0:0:0:0:
156,224,98873,5,8,0:0:0:0:
109,207,99020,1,4,0:3:0:0:
62,189,99167,2,0,P|50:214|42:240,1,55.2500010538101,8|8,0:0|0:0,0:0:0:0:
0,301,99461,2,0,P|15:323|34:343,1,55.2500010538101,8|8,0:0|0:0,0:0:0:0:
109,365,99755,1,8,0:0:0:0:
109,365,99902,2,0,P|151:327|203:310,1,110.50000210762,2|4,0:0|0:3,0:0:0:0:
279,327,100343,5,0,0:0:0:0:
279,327,100491,1,8,0:0:0:0:
279,327,100638,2,0,L|273:381,1,55.2500010538101,4|0,0:3|0:0,0:0:0:0:
348,384,100932,2,0,L|353:329,1,55.2500010538101,8|0,0:0|0:0,0:0:0:0:
428,242,101226,2,0,L|319:265,1,110.50000210762,8|8,0:0|0:0,0:0:0:0:
189,149,101814,5,8,0:0:0:0:
228,111,101961,1,8,0:0:0:0:
283,106,102108,1,8,0:0:0:0:
332,129,102255,1,0,0:0:0:0:
362,176,102402,6,0,L|416:165,1,55.2500010538101,8|4,0:0|0:3,0:0:0:0:
442,88,102696,2,0,L|333:108,1,110.50000210762,2|4,0:0|0:3,0:0:0:0:
320,98,103138,1,0,0:0:0:0:
307,87,103285,1,8,0:0:0:0:
104,134,103579,2,0,L|50:147,1,55.2500010538101,8|4,0:0|0:3,0:0:0:0:
0,75,103873,6,0,L|108:97,1,110.50000210762,8|8,0:0|0:0,0:0:0:0:
178,73,104314,1,8,0:0:0:0:
178,73,104461,2,0,P|195:94|207:119,1,55.2500010538101,8|0,0:0|0:0,0:0:0:0:
156,180,104755,1,8,0:0:0:0:
142,233,104902,1,4,0:3:0:0:
126,285,105049,2,0,L|135:339,1,55.2500010538101,0|8,0:0|0:0,0:0:0:0:
67,352,105343,2,0,L|57:297,1,55.2500010538101,4|0,0:3|0:0,0:0:0:0:
199,299,105638,6,0,L|305:328,1,110.50000210762,8|8,0:0|0:0,0:0:0:0:
450,372,106226,2,0,L|508:358,1,55.2500010538101,8|8,0:0|0:0,0:0:0:0:
456,275,106520,2,0,L|514:289,1,55.2500010538101,8|8,0:0|0:0,0:0:0:0:
505,206,106814,1,8,0:0:0:0:
460,173,106961,1,0,0:0:0:0:
405,180,107108,2,0,L|351:192,1,55.2500010538101,8|0,0:0|0:0,0:0:0:0:
263,205,107402,5,10,0:0:0:0:
216,175,107549,1,10,0:0:0:0:
199,122,107696,1,10,0:0:0:0:
216,69,107843,1,10,0:0:0:0:
264,41,107991,1,10,0:0:0:0:
268,227,108285,5,2,0:0:0:0:
268,227,108432,1,2,0:0:0:0:
268,227,108579,2,0,L|262:281,1,55.2500010538101,8|8,0:0|0:0,0:0:0:0:
336,324,108873,1,8,0:0:0:0:
336,324,109020,2,0,L|346:211,1,110.50000210762,8|0,0:0|0:0,0:0:0:0:
397,152,109461,1,0,0:0:0:0:
430,157,109608,1,2,0:0:0:0:
296,31,109902,5,4,0:3:0:0:
243,47,110049,1,8,0:0:0:0:
190,64,110196,2,0,L|185:8,2,55.2500010538101,2|0|4,0:0|0:0|0:3,0:0:0:0:
29,92,110785,1,4,0:3:0:0:
29,92,110932,5,8,0:0:0:0:
49,143,111079,1,8,0:0:0:0:
33,196,111226,2,0,P|58:182|84:173,1,55.2500010538101,8|0,0:0|0:0,0:0:0:0:
150,132,111520,2,0,P|173:146|194:164,1,55.2500010538101,8|0,0:0|0:0,0:0:0:0:
203,242,111814,1,8,0:0:0:0:
188,295,111961,1,4,0:3:0:0:
171,348,112108,2,0,P|196:335|223:327,1,55.2500010538101,10|10,0:0|0:0,0:0:0:0:
306,352,112402,1,10,0:0:0:0:
306,352,112549,1,10,0:0:0:0:
306,352,112696,2,0,P|330:364|357:372,3,55.2500010538101,2|2|2|2,0:0|0:0|0:0|0:0,0:0:0:0:
256,192,113285,12,8,115049,0:2:0:0:
231,0,115638,6,0,P|258:64|256:120,1,123.499996702194,4|0,0:3|0:0,0:0:0:0:
295,190,116079,1,0,0:0:0:0:
294,189,116226,2,0,P|258:238|205:268,1,123.499996702194,8|0,0:0|0:0,0:0:0:0:
50,353,116814,2,0,P|38:324|32:294,1,61.7499983510972,4|0,0:3|0:0,0:0:0:0:
101,277,117108,2,0,P|112:305|118:335,1,61.7499983510972,8|0,0:0|0:0,0:0:0:0:
50,228,117402,2,0,L|69:105,1,123.499996702194,4|0,0:3|0:0,0:0:0:0:
254,8,117991,6,0,B|245:61|245:61|246:73|246:73|236:130,1,123.499996702194,4|0,0:3|0:0,0:0:0:0:
230,132,118432,1,0,0:0:0:0:
224,134,118579,1,8,0:0:0:0:
386,352,118873,5,2,0:0:0:0:
386,352,119020,1,0,0:0:0:0:
379,301,119167,1,4,0:3:0:0:
428,294,119314,1,0,0:0:0:0:
434,343,119461,1,8,0:0:0:0:
224,332,119755,2,0,L|237:207,1,123.499996702194,8|0,0:0|0:0,0:0:0:0:
327,13,120343,6,0,P|388:33|429:78,1,123.499996702194,4|0,0:3|0:0,0:0:0:0:
495,126,120785,1,0,0:0:0:0:
495,126,120932,2,0,P|486:186|449:234,1,123.499996702194,8|0,0:0|0:0,0:0:0:0:
300,176,121520,6,0,P|278:154|251:139,1,61.7499983510972,4|0,0:3|0:0,0:0:0:0:
252,61,121814,2,0,P|222:68|195:84,1,61.7499983510972,8|0,0:0|0:0,0:0:0:0:
179,157,122108,2,0,L|199:278,1,123.499996702194,4|0,0:3|0:0,0:0:0:0:
31,375,122696,5,4,0:3:0:0:
0,344,122843,1,2,0:0:0:0:
20,305,122991,1,2,0:0:0:0:
62,311,123138,1,2,0:0:0:0:
104,318,123285,1,10,0:0:0:0:
146,324,123432,1,2,0:0:0:0:
188,329,123579,2,0,L|179:267,1,61.7499983510972,2|0,0:0|0:0,0:0:0:0:
257,203,123873,5,4,0:3:0:0:
367,242,124167,1,8,0:0:0:0:
475,280,124461,1,8,0:0:0:0:
475,280,125049,6,0,P|419:307|380:353,1,123.499996702194,4|0,0:3|0:0,0:0:0:0:
299,373,125491,1,0,0:0:0:0:
299,373,125638,2,0,P|247:339|187:329,1,123.499996702194,8|0,0:0|0:0,0:0:0:0:
30,367,126226,6,0,P|25:336|17:306,1,61.7499983510972,4|0,0:3|0:0,0:0:0:0:
94,288,126520,2,0,P|98:318|106:348,1,61.7499983510972,8|0,0:0|0:0,0:0:0:0:
166,201,126814,2,0,L|45:229,1,123.499996702194,4|0,0:3|0:0,0:0:0:0:
51,48,127402,6,0,B|105:57|105:57|115:63|115:63|174:73,1,123.499996702194,4|0,0:3|0:0,0:0:0:0:
176,68,127843,1,0,0:0:0:0:
181,64,127991,1,8,0:0:0:0:
386,33,128285,5,2,0:0:0:0:
386,33,128432,1,0,0:0:0:0:
430,46,128579,1,4,0:3:0:0:
419,91,128726,1,0,0:0:0:0:
373,81,128873,1,8,0:0:0:0:
267,58,129167,2,0,L|145:77,1,123.499996702194,8|0,0:0|0:0,0:0:0:0:
76,260,129755,6,0,P|139:263|195:294,1,123.499996702194,4|0,0:3|0:0,0:0:0:0:
277,254,130196,1,0,0:0:0:0:
277,254,130343,2,0,P|317:300|332:359,1,123.499996702194,8|0,0:0|0:0,0:0:0:0:
484,309,130932,2,0,P|492:279|506:251,1,61.7499983510972,4|0,0:3|0:0,0:0:0:0:
437,214,131226,2,0,P|459:192|484:175,1,61.7499983510972,8|0,0:0|0:0,0:0:0:0:
392,121,131520,2,0,P|451:103|512:99,1,123.499996702194,4|0,0:3|0:0,0:0:0:0:
337,189,132108,5,4,0:3:0:0:
319,142,132256,1,2,0:0:0:0:
274,119,132403,1,2,0:0:0:0:
226,133,132550,1,2,0:0:0:0:
203,176,132697,1,10,0:0:0:0:
214,224,132844,1,2,0:0:0:0:
254,252,132991,1,2,0:0:0:0:
361,314,133285,6,0,L|427:305,2,61.7499983510972,6|2|2,0:0|0:0|0:0,0:0:0:0:
328,298,133726,1,0,0:0:0:0:
298,373,133873,5,8,0:0:0:0:
298,373,134020,2,0,P|265:346|252:319,1,61.7499983510972,8|0,0:0|0:0,0:0:0:0:
166,325,134314,1,8,0:0:0:0:
127,356,134461,6,0,P|94:303|45:267,1,123.499996702194,4|0,0:3|0:0,0:0:0:0:
9,198,134902,2,0,P|55:157|111:128,1,123.499996702194,2|0,0:0|0:0,0:0:0:0:
192,126,135343,2,0,L|267:144,1,61.7499983510972,8|0,0:0|0:0,0:0:0:0:
341,217,135638,1,4,0:3:0:0:
355,169,135785,1,0,0:0:0:0:
397,143,135932,1,2,0:0:0:0:
446,147,136079,1,2,0:0:0:0:
481,179,136226,2,0,P|461:237|458:298,1,123.499996702194,4|0,0:3|0:0,0:0:0:0:
345,384,136814,6,0,P|322:362|304:337,1,61.7499983510972,4|0,0:3|0:0,0:0:0:0:
233,309,137108,2,0,P|210:331|192:356,1,61.7499983510972,2|0,0:0|0:0,0:0:0:0:
216,231,137402,2,0,P|164:264|126:312,1,123.499996702194,4|8,0:3|0:0,0:0:0:0:
3,125,137991,6,0,P|33:135|60:150,1,61.7499983510972,4|2,0:3|0:0,0:0:0:0:
130,116,138285,1,2,0:0:0:0:
130,116,138432,2,0,P|153:180|158:209,1,61.7499983510972,8|0,0:0|0:0,0:0:0:0:
148,180,138726,1,8,0:0:0:0:
217,10,139020,5,0,0:0:0:0:
217,10,139167,2,0,P|262:50|320:71,1,123.499996702194,4|8,0:3|0:0,0:0:0:0:
353,153,139608,1,0,0:0:0:0:
353,152,139755,2,0,P|406:122|453:82,1,123.499996702194,8|2,0:0|0:0,0:0:0:0:
269,143,140343,6,0,P|271:173|280:203,1,61.7499983510972,4|0,0:3|0:0,0:0:0:0:
360,267,140638,1,2,0:0:0:0:
404,246,140785,1,2,0:0:0:0:
450,257,140932,2,0,P|465:229|474:200,1,61.7499983510972,4|0,0:3|0:0,0:0:0:0:
360,267,141226,2,0,P|369:296|383:323,1,61.7499983510972,8|10,0:0|0:0,0:0:0:0:
272,371,141520,5,4,0:3:0:0:
272,371,141667,2,0,L|281:225,1,123.499996702194,2|8,0:0|0:0,0:0:0:0:
267,234,142108,1,4,0:3:0:0:
74,273,142402,1,8,0:0:0:0:
74,273,142549,2,0,L|77:334,1,61.7499983510972,2|4,0:0|0:3,0:0:0:0:
154,348,142843,5,0,0:0:0:0:
164,300,142991,1,2,0:0:0:0:
143,253,143138,1,2,0:0:0:0:
154,202,143286,1,8,0:0:0:0:
158,205,143726,5,0,0:0:0:0:
158,205,143873,2,0,P|140:178|118:157,1,61.7499983510972,4|2,0:3|0:0,0:0:0:0:
139,87,144167,2,0,P|169:85|199:76,1,61.7499983510972,2|2,0:0|0:0,0:0:0:0:
253,126,144461,2,0,P|237:152|230:183,1,61.7499983510972,8|0,0:0|0:0,0:0:0:0:
284,229,144755,5,2,0:0:0:0:
324,257,144902,1,2,0:0:0:0:
364,285,145049,2,0,L|500:240,1,123.499996702194,4|0,0:3|0:0,0:0:0:0:
490,155,145491,1,2,0:0:0:0:
490,155,145638,2,0,L|429:143,1,61.7499983510972,8|2,0:0|0:0,0:0:0:0:
297,290,146079,5,2,0:0:0:0:
297,290,146226,2,0,L|175:268,1,123.499996702194,4|0,0:3|0:0,0:0:0:0:
117,208,146667,1,2,0:0:0:0:
71,226,146814,1,8,0:0:0:0:
25,244,146961,1,2,0:0:0:0:
23,363,147255,5,0,0:0:0:0:
23,363,147402,2,0,P|48:344|64:318,1,61.7499983510972,4|2,0:3|0:0,0:0:0:0:
143,309,147696,2,0,L|131:369,1,61.7499983510972,8|0,0:0|0:0,0:0:0:0:
228,340,147991,5,8,0:0:0:0:
249,295,148138,1,2,0:0:0:0:
291,270,148285,1,8,0:0:0:0:
340,270,148432,1,2,0:0:0:0:
381,296,148579,2,0,L|373:357,1,61.7499983510972,4|0,0:3|0:0,0:0:0:0:
484,384,149020,5,2,0:0:0:0:
484,384,149167,2,0,L|492:301,1,61.7499983510972,4|2,0:3|0:0,0:0:0:0:
447,257,149461,2,0,L|461:110,1,123.499996702194,8|8,0:0|0:0,0:0:0:0:
504,74,149902,1,2,0:0:0:0:
503,73,150049,2,0,P|458:33|398:21,1,123.499996702194,8|8,0:0|0:0,0:0:0:0:
401,25,150785,5,2,0:0:0:0:
401,24,150932,2,0,P|377:45|349:57,1,61.7499983510972,4|0,0:3|0:0,0:0:0:0:
261,110,151226,2,0,P|191:98|146:64,1,123.499996702194,4|8,0:3|0:0,0:0:0:0:
277,0,151814,5,2,0:0:0:0:
292,73,151961,2,0,P|275:133|267:194,1,123.499996702194,8|8,0:0|0:0,0:0:0:0:
323,255,152402,1,2,0:0:0:0:
323,255,152549,2,0,P|355:307|367:367,1,123.499996702194,8|8,0:0|0:0,0:0:0:0:
286,359,152991,1,0,0:0:0:0:
286,359,153138,1,8,0:0:0:0:
286,359,153285,1,4,0:0:0:0:
