osu file format v14

[General]
AudioFilename: audio.mp3
AudioLeadIn: 0
PreviewTime: 115491
Countdown: 0
SampleSet: Soft
StackLeniency: 0.3
Mode: 0
LetterboxInBreaks: 0
WidescreenStoryboard: 1

[Editor]
Bookmarks: 10075,28899,38311,57134,75958,92428,94781,134781,153605
DistanceSpacing: 1.3
BeatDivisor: 4
GridSize: 4
TimelineZoom: 1.2

[Metadata]
Title:NIGHT SWIMMING
TitleUnicode:夜を泳いでた
Artist:HARU NEMURI
ArtistUnicode:春ねむり
Creator:Liiraye
Version:OKO'S EASY
Source:
Tags:striderin piroshki HootOwlStar Okoratu haru to shura HOS Specific Recordings pop electronic Japanese 春と修羅 yoru o oyoideta
BeatmapID:2534154
BeatmapSetID:1101254

[Difficulty]
HPDrainRate:2
CircleSize:3.5
OverallDifficulty:2.5
ApproachRate:4
SliderMultiplier:1.4
SliderTickRate:1

[Events]
//Background and Video events
0,0,"bege.jpg",0,0
//Break Periods
//Storyboard Layer 0 (Background)
//Storyboard Layer 1 (Fail)
//Storyboard Layer 2 (Pass)
//Storyboard Layer 3 (Foreground)
//Storyboard Layer 4 (Overlay)
//Storyboard Sound Samples

[TimingPoints]
344,588.235294117647,4,2,5,60,1,0
13285,-100,4,2,5,60,0,0
14167,-100,4,2,5,60,0,0
15638,-100,4,2,5,60,0,0
15932,-100,4,2,5,60,0,0
18873,-100,4,2,5,60,0,0
19167,-100,4,2,5,60,0,0
25932,-100,4,2,5,60,0,0
26226,-100,4,2,5,60,0,0
40343,-100,4,2,5,60,0,0
40931,-100,4,2,5,60,0,0
41226,-100,4,2,5,60,0,0
41520,-100,4,2,5,60,0,0
45049,-100,4,2,5,60,0,0
45490,-100,4,2,5,60,0,0
52549,-100,4,2,5,60,0,0
52696,-100,4,2,5,60,0,0
56814,-100,4,2,5,60,0,1
75638,-100,4,2,5,60,0,0
76814,-100,4,2,5,60,0,0
76961,-100,4,2,5,60,0,0
77108,-100,4,2,5,60,0,0
77402,-100,4,2,5,60,0,0
78432,-100,4,2,5,60,0,0
78579,-100,4,2,5,60,0,0
79461,-100,4,2,5,60,0,0
79755,-100,4,2,5,60,0,0
83285,-100,4,2,5,60,0,0
83579,-100,4,2,5,60,0,0
84167,-100,4,2,5,60,0,0
84461,-100,4,2,5,60,0,0
86226,-100,4,2,5,60,0,0
86814,-100,4,2,5,60,0,0
88579,-100,4,2,5,60,0,0
88873,-100,4,2,5,60,0,0
96226,-100,4,2,5,60,0,0
96667,-100,4,2,5,60,0,0
100049,-100,4,2,5,60,0,0
100196,-100,4,2,5,60,0,0
101373,-100,4,2,5,60,0,0
101520,-100,4,2,5,60,0,0
107255,-100,4,2,5,60,0,0
107549,-100,4,2,5,60,0,0
110343,-100,4,2,5,60,0,0
110784,-100,4,2,5,60,0,0
113432,-100,4,2,5,60,0,0
115049,-100,4,2,5,60,0,0
115638,-100,4,2,5,60,0,1
136520,-100,4,2,5,60,0,1
136814,-100,4,2,5,60,0,1
137328,-100,4,2,5,60,0,1
137402,-100,4,2,5,60,0,1
138579,-100,4,2,5,60,0,1
138726,-100,4,2,5,60,0,1
139314,-100,4,2,5,60,0,1
139461,-100,4,2,5,60,0,1
142696,-100,4,2,5,60,0,1
142990,-100,4,2,5,60,0,1
145343,-100,4,2,5,60,0,1
145638,-100,4,2,5,60,0,1
147843,-100,4,2,5,60,0,1
147991,-100,4,2,5,60,0,1
153285,-100,4,2,5,60,0,0

[Colours]
Combo1 : 131,222,197
Combo2 : 130,168,145
Combo3 : 157,197,200
Combo4 : 157,165,236

[HitObjects]
105,114,344,6,0,L|120:335,4,210,2|0|0|0|0,0:0|0:0|0:0|0:0|0:0,0:0:0:0:
407,114,5049,6,0,L|392:335,4,210,2|0|0|0|0,0:0|0:0|0:0|0:0|0:0,0:0:0:0:
99,308,9755,6,0,P|104:243|222:159,1,210,2|2,0:0|0:0,0:0:0:0:
341,31,11226,1,0,0:0:0:0:
354,120,11520,2,0,L|364:205,1,70,2|0,0:0|0:0,0:0:0:0:
436,242,12108,6,0,L|460:96,1,140,2|0,0:0|0:0,0:0:0:0:
476,14,12991,1,2,0:0:0:0:
294,23,13579,1,0,0:0:0:0:
233,90,13873,1,2,0:0:0:0:
150,51,14167,1,0,0:0:0:0:
102,128,14461,6,0,L|115:350,1,210,2|2,0:0|0:0,0:0:0:0:
293,368,15932,1,0,0:0:0:0:
378,338,16226,2,0,P|394:294|398:260,1,70,2|0,0:0|0:0,0:0:0:0:
307,255,16814,6,0,P|281:197|274:114,1,140,2|0,0:0|0:0,0:0:0:0:
318,42,17696,2,0,P|389:52|459:57,1,140,2|0,0:0|0:0,0:0:0:0:
499,137,18579,1,2,0:0:0:0:
494,227,18873,1,0,0:0:0:0:
431,292,19167,6,0,L|206:281,1,210,2|2,0:0|0:0,0:0:0:0:
46,332,20638,1,0,0:0:0:0:
22,244,20932,2,0,P|26:196|36:166,1,70,2|0,0:0|0:0,0:0:0:0:
92,107,21520,6,0,P|186:143|308:140,1,210,2|2,0:0|0:0,0:0:0:0:
441,36,22991,1,0,0:0:0:0:
470,122,23285,1,2,0:0:0:0:
387,160,23579,1,2,0:0:0:0:
355,74,23873,6,0,P|297:59|139:74,1,210,2|2,0:0|0:0,0:0:0:0:
67,233,25343,2,0,L|71:318,1,70,2|0,0:0|0:0,0:0:0:0:
140,361,25932,1,2,0:0:0:0:
193,287,26226,6,0,P|200:202|197:172,2,105,2|0|2,0:0|0:0|0:0,0:0:0:0:
363,349,27696,1,2,0:0:0:0:
446,312,27991,1,8,0:3:0:0:
403,135,28579,6,0,L|254:146,1,140,0|2,1:0|1:2,0:0:0:0:
194,204,29461,2,0,P|162:149|162:67,1,140,8|2,0:3|0:0,0:0:0:0:
232,18,30343,1,8,1:3:0:0:
303,74,30638,1,10,0:3:0:0:
265,156,30932,5,2,1:2:0:0:
172,327,31520,2,0,L|245:341,1,70,0|8,1:0|0:3,0:0:0:0:
328,323,32108,1,0,1:0:0:0:
318,232,32402,2,0,L|310:155,2,70,2|10|8,0:0|1:3|0:3,0:0:0:0:
397,279,33285,6,0,P|451:208|441:80,2,210,8|8|8,1:3|0:3|1:3,0:0:0:0:
336,210,35343,1,8,0:3:0:0:
250,197,35638,6,0,P|237:268|235:312,1,105,0|8,1:0|0:3,0:0:0:0:
246,344,36226,2,0,L|167:354,1,70,2|8,1:2|0:3,0:0:0:0:
86,363,36814,1,0,1:0:0:0:
48,280,37108,1,2,0:0:0:0:
62,190,37402,1,10,1:3:0:0:
128,127,37696,1,8,0:3:0:0:
206,174,37991,6,0,L|350:192,1,140,2|8,1:2|1:3,0:0:0:0:
395,115,38873,1,10,0:3:0:0:
467,274,39461,1,2,0:0:0:0:
394,329,39755,1,10,1:3:0:0:
313,286,40049,1,8,0:3:0:0:
242,343,40343,6,0,P|193:350|124:347,2,105,0|8|8,1:0|0:3|0:3,0:0:0:0:
189,268,41520,2,0,L|183:187,1,70,0|2,1:0|0:0,0:0:0:0:
96,172,42108,2,0,L|92:95,1,70,8|8,1:3|0:3,0:0:0:0:
181,82,42696,6,0,P|243:100|291:98,1,105,2|8,1:2|0:3,0:0:0:0:
314,66,43285,2,0,L|397:59,1,70,0|8,1:0|0:3,0:0:0:0:
475,223,44167,1,2,0:0:0:0:
448,309,44461,1,10,1:3:0:0:
359,289,44755,1,8,0:3:0:0:
283,338,45049,6,0,P|235:351|166:344,2,105,2|8|8,1:2|0:3|0:3,0:0:0:0:
252,251,46226,2,0,L|244:176,1,70,0|2,1:0|0:0,0:0:0:0:
191,107,46814,1,10,1:3:0:0:
100,112,47108,1,8,0:3:0:0:
51,189,47402,6,0,L|32:320,1,105,2|8,1:2|0:3,0:0:0:0:
46,337,47991,2,0,L|132:328,1,70,2|8,1:2|0:3,0:0:0:0:
183,269,48579,2,0,L|346:284,1,140,0|10,1:2|1:3,0:0:0:0:
402,325,49461,1,8,0:3:0:0:
462,257,49755,6,0,P|486:176|479:143,2,105,2|8|8,1:2|0:3|0:3,0:0:0:0:
399,190,50932,2,0,L|302:179,1,70,0|2,1:2|0:0,0:0:0:0:
240,161,51520,1,10,1:3:0:0:
182,90,51814,1,8,0:3:0:0:
91,88,52108,1,2,0:0:0:0:
256,192,52255,12,2,55343,0:0:0:0:
84,233,56814,5,2,1:2:0:0:
31,59,57402,1,8,0:0:0:0:
207,13,57991,1,0,1:0:0:0:
255,89,58285,2,0,L|247:251,1,140,2|8,0:0|0:3,0:0:0:0:
333,259,59167,6,0,L|341:100,1,140,2|8,1:2|1:2,0:0:0:0:
349,28,60049,1,8,0:3:0:0:
432,64,60343,2,0,L|425:151,1,70,2|8,1:2|0:3,0:0:0:0:
416,224,60932,1,8,0:0:0:0:
255,309,61520,5,2,1:2:0:0:
256,127,62108,1,8,0:0:0:0:
77,90,62696,1,0,1:2:0:0:
62,180,62991,2,0,B|71:339|71:338,1,140,2|8,0:0|0:3,0:0:0:0:
157,344,63873,6,0,L|151:253,1,70,0|2,1:0|0:0,0:0:0:0:
215,208,64461,2,0,L|209:117,1,70,8|8,0:0|0:3,0:0:0:0:
269,68,65049,1,2,1:2:0:0:
358,54,65343,1,8,0:3:0:0:
448,41,65638,1,8,0:0:0:0:
449,222,66226,5,2,1:2:0:0:
278,159,66814,1,8,0:0:0:0:
176,309,67402,1,0,1:2:0:0:
266,320,67696,2,0,L|432:333,1,140,2|8,0:0|0:3,0:0:0:0:
447,250,68579,6,0,L|329:240,1,105,2|8,1:2|0:3,0:0:0:0:
308,210,69167,2,0,L|223:204,1,70,8|8,0:0|0:3,0:0:0:0:
189,282,69755,1,2,1:2:0:0:
105,318,70049,1,8,0:3:0:0:
21,354,70343,1,8,0:0:0:0:
18,171,70932,5,2,1:2:0:0:
144,40,71520,1,8,0:0:0:0:
317,94,72108,1,0,1:2:0:0:
361,173,72402,2,0,L|348:318,1,140,2|8,0:0|0:3,0:0:0:0:
262,342,73285,6,0,L|270:254,1,70,2|0,1:2|0:0,0:0:0:0:
209,202,73873,2,0,L|217:114,1,70,8|8,0:0|0:3,0:0:0:0:
126,112,74461,2,0,L|118:200,1,70,2|8,1:2|2:3,0:0:0:0:
106,271,75049,1,8,0:0:0:0:
265,183,75638,6,0,P|336:197|344:337,2,210,2|8|8,1:2|0:3|1:3,0:0:0:0:
179,212,77696,1,8,0:3:0:0:
131,134,77991,6,0,P|122:78|171:0,1,140,2|0,1:2|1:0,0:0:0:0:
240,51,78873,2,0,L|383:55,1,140,8|2,0:3|0:0,0:0:0:0:
460,96,79755,1,8,1:3:0:0:
421,178,80049,1,8,0:3:0:0:
418,268,80343,6,0,P|340:259|202:273,2,210,2|8|8,1:2|0:3|1:3,0:0:0:0:
494,218,82402,1,8,0:3:0:0:
459,133,82696,6,0,P|396:100|321:103,1,140,0|2,1:0|1:2,0:0:0:0:
245,138,83579,2,0,P|193:152|101:143,1,140,8|2,0:3|0:0,0:0:0:0:
29,98,84461,1,8,1:3:0:0:
45,279,85049,6,0,L|51:368,1,70,0|2,1:0|0:0,0:0:0:0:
135,379,85638,1,2,1:3:0:0:
189,305,85932,2,0,P|241:269|404:263,1,210,8|8,0:3|1:3,0:0:0:0:
468,288,87108,1,8,0:3:0:0:
465,197,87402,6,0,P|461:118|476:42,1,140,0|0,1:0|1:0,0:0:0:0:
388,19,88285,1,8,0:3:0:0:
333,92,88579,2,0,P|337:171|322:247,1,140,0|0,1:0|1:0,0:0:0:0:
253,284,89461,1,8,0:3:0:0:
181,227,89755,6,0,P|176:157|187:88,2,140,0|0|8,1:0|1:0|1:3,0:0:0:0:
255,373,91520,1,0,1:2:0:0:
355,221,92108,6,0,L|456:235,1,70,8|8,1:2|0:2,0:0:0:0:
506,270,92696,2,0,P|506:207|505:144,2,105,0|8|8,1:0|1:2|1:2,0:0:0:0:
465,352,93873,1,8,1:2:0:0:
382,312,94167,1,8,0:3:0:0:
393,221,94461,2,0,L|404:138,1,70,8|8,1:2|0:0,0:0:0:0:
338,87,95049,2,0,L|222:93,2,105,0|8|8,1:0|0:0|0:0,0:0:0:0:
398,18,96226,1,8,1:2:0:0:
216,21,96814,6,0,L|118:26,1,70,4|8,1:2|0:0,0:0:0:0:
94,99,97402,2,0,P|100:163|101:219,2,105,10|8|8,1:2|1:2|1:2,0:0:0:0:
182,119,98579,2,0,P|222:147|238:177,1,70,8|8,1:2|0:3,0:0:0:0:
265,249,99167,6,0,P|247:291|245:324,1,70,8|8,1:2|1:2,0:0:0:0:
330,343,99755,2,0,L|446:341,1,105,0|10,1:0|0:0,0:0:0:0:
478,353,100343,2,0,P|484:301|500:255,1,70,0|8,1:0|1:2,0:0:0:0:
460,197,100932,1,8,1:2:0:0:
468,106,101226,1,8,1:3:0:0:
395,51,101520,1,10,1:2:0:0:
267,180,102108,6,0,P|261:234|260:289,1,105,2|8,1:2|0:0,0:0:0:0:
243,327,102696,2,0,L|147:321,1,70,0|8,1:0|0:3,0:0:0:0:
85,348,103285,1,8,1:2:0:0:
35,271,103579,1,8,0:3:0:0:
75,189,103873,6,0,P|91:123|91:91,1,70,8|8,1:2|0:0,0:0:0:0:
169,75,104461,2,0,L|284:70,2,105,2|8|8,1:2|1:2|1:2,0:0:0:0:
93,23,105638,2,0,L|6:30,1,70,8|8,1:2|0:3,0:0:0:0:
17,119,106226,5,8,1:2:0:0:
76,187,106520,1,8,1:3:0:0:
164,166,106814,2,0,P|226:159|278:163,1,105,8|4,1:2|1:3,0:0:0:0:
295,198,107402,2,0,L|392:202,1,70,8|8,1:2|0:0,0:0:0:0:
438,254,107991,1,6,1:2:0:0:
486,78,108579,6,0,P|460:40|420:26,1,70,8|8,1:2|1:2,0:0:0:0:
349,42,109167,2,0,L|231:49,2,105,8|10|8,1:2|1:3|1:2,0:0:0:0:
397,118,110343,1,8,1:2:0:0:
333,183,110638,1,8,1:3:0:0:
248,148,110932,6,0,P|205:140|167:142,1,70,8|8,1:2|1:2,0:0:0:0:
101,188,111520,2,0,L|108:312,1,105,10|12,1:3|1:3,0:0:0:0:
120,336,112108,2,0,P|162:322|197:323,1,70,10|8,1:2|0:3,0:0:0:0:
255,261,112696,2,0,P|294:280|318:306,1,70,8|8,1:2|0:3,0:0:0:0:
256,88,115049,5,12,0:0:0:0:
108,192,115638,5,2,1:2:0:0:
256,296,116226,1,8,0:0:0:0:
404,192,116814,1,0,1:2:0:0:
451,269,117108,2,0,P|442:327|366:357,1,140,2|8,0:0|0:3,0:0:0:0:
285,334,117991,2,0,L|140:338,1,140,0|8,1:0|0:0,0:0:0:0:
54,349,118873,1,8,0:3:0:0:
46,258,119167,2,0,L|41:180,1,70,2|2,1:2|0:3,0:0:0:0:
32,97,119755,1,8,0:0:0:0:
204,38,120343,5,2,1:2:0:0:
378,89,120932,1,8,0:0:0:0:
319,261,121520,1,0,1:0:0:0:
339,349,121814,2,0,L|505:325,1,140,2|8,0:0|0:3,0:0:0:0:
468,239,122696,6,0,P|473:187|483:137,1,70,0|2,1:0|0:0,0:0:0:0:
495,80,123285,2,0,L|405:88,1,70,10|8,0:0|0:3,0:0:0:0:
338,59,123873,1,0,1:0:0:0:
313,146,124167,1,8,0:3:0:0:
291,234,124461,1,8,0:0:0:0:
204,73,125049,5,2,1:2:0:0:
70,197,125638,1,8,0:0:0:0:
186,336,126226,1,0,1:0:0:0:
262,286,126520,2,0,L|251:144,1,140,2|10,0:0|0:3,0:0:0:0:
165,115,127402,6,0,L|176:257,1,140,2|8,1:2|0:0,0:0:0:0:
191,344,128285,1,8,0:3:0:0:
270,299,128579,2,0,P|309:293|363:301,1,70,0|8,1:0|0:3,0:0:0:0:
422,331,129167,1,8,1:2:0:0:
468,155,129755,5,2,1:2:0:0:
308,68,130343,1,8,0:0:0:0:
202,216,130932,1,0,1:0:0:0:
172,129,131226,2,0,L|15:143,1,140,2|10,0:0|0:3,0:0:0:0:
41,231,132108,6,0,L|136:222,1,70,0|2,1:0|0:0,0:0:0:0:
189,270,132696,2,0,L|284:261,1,70,8|8,0:2|0:3,0:0:0:0:
336,311,133285,2,0,L|431:302,1,70,0|8,1:0|0:3,0:0:0:0:
490,338,133873,1,8,0:0:0:0:
479,156,134461,6,0,L|471:32,2,105,12|8|8,0:0|0:0|0:3,0:0:0:0:
416,222,135638,1,0,1:0:0:0:
337,176,135932,1,8,0:3:0:0:
252,208,136226,1,8,0:0:0:0:
127,340,136814,6,0,P|39:348|32:346,1,70,2|0,1:2|1:0,0:0:0:0:
30,265,137402,2,0,P|38:208|41:180,1,70,8|8,0:0|0:3,0:0:0:0:
43,104,137991,1,0,1:0:0:0:
131,126,138285,2,0,P|203:132|285:134,1,140,2|0,0:0|0:0,0:0:0:0:
359,112,139167,5,2,1:2:0:0:
387,198,139461,1,0,1:0:0:0:
358,284,139755,2,0,L|271:273,1,70,8|10,0:0|0:3,0:0:0:0:
199,294,140343,2,0,L|207:214,1,70,0|2,1:0|0:0,0:0:0:0:
216,133,140932,1,8,0:0:0:0:
62,35,141520,6,0,P|44:78|40:156,1,105,0|2,1:0|0:0,0:0:0:0:
64,172,142108,2,0,L|66:263,1,70,8|8,0:0|0:3,0:0:0:0:
49,331,142696,2,0,P|113:315|196:341,1,140,0|10,1:0|0:0,0:0:0:0:
270,305,143579,1,2,0:0:0:0:
348,359,143873,6,0,P|344:312|363:217,1,140,0|8,1:0|0:0,0:0:0:0:
445,186,144755,1,8,0:3:0:0:
402,105,145049,2,0,P|355:101|260:120,2,140,0|8|0,1:0|0:0|1:0,0:0:0:0:
436,189,146520,5,8,0:3:0:0:
365,246,146814,2,0,L|276:241,1,70,8|0,1:2|1:0,0:0:0:0:
214,283,147402,1,8,1:3:0:0:
148,112,147991,1,8,1:2:0:0:
214,49,148285,1,8,0:3:0:0:
301,72,148579,6,0,L|282:219,1,140,0|8,1:0|0:0,0:0:0:0:
263,299,149461,2,0,L|169:304,1,70,2|0,0:0|1:3,0:0:0:0:
110,341,150049,1,2,0:0:0:0:
78,255,150343,1,8,0:0:0:0:
187,109,150932,6,0,L|265:119,1,70,0|8,1:2|0:3,0:0:0:0:
344,95,151520,2,0,L|439:108,1,70,8|8,1:2|0:3,0:0:0:0:
445,136,151961,2,0,L|450:230,1,70,2|8,0:0|0:3,0:0:0:0:
483,290,152549,1,2,0:0:0:0:
402,331,152843,1,8,0:2:0:0:
