osu file format v14

[General]
AudioFilename: audio.mp3
AudioLeadIn: 0
PreviewTime: 115491
Countdown: 0
SampleSet: Soft
StackLeniency: 0.3
Mode: 0
LetterboxInBreaks: 0
WidescreenStoryboard: 1

[Editor]
Bookmarks: 10075,28899,38311,57134,75958,92428,94781,134781,153605
DistanceSpacing: 1.4
BeatDivisor: 8
GridSize: 4
TimelineZoom: 1.2

[Metadata]
Title:NIGHT SWIMMING
TitleUnicode:夜を泳いでた
Artist:HARU NEMURI
ArtistUnicode:春ねむり
Creator:Liiraye
Version:HOS' NORMAL
Source:
Tags:striderin piroshki HootOwlStar Okoratu haru to shura HOS Specific Recordings pop electronic Japanese 春と修羅 yoru o oyoideta
BeatmapID:2373553
BeatmapSetID:1101254

[Difficulty]
HPDrainRate:3
CircleSize:4
OverallDifficulty:4
ApproachRate:5.5
SliderMultiplier:1.7
SliderTickRate:1

[Events]
//Background and Video events
0,0,"bege.jpg",0,0
//Break Periods
//Storyboard Layer 0 (Background)
//Storyboard Layer 1 (Fail)
//Storyboard Layer 2 (Pass)
//Storyboard Layer 3 (Foreground)
//Storyboard Layer 4 (Overlay)
//Storyboard Sound Samples

[TimingPoints]
344,588.235294117647,4,2,5,60,1,0
13285,-100,4,2,5,60,0,0
14167,-100,4,2,5,60,0,0
15638,-100,4,2,5,60,0,0
15932,-100,4,2,5,60,0,0
18873,-100,4,2,5,60,0,0
19167,-100,4,2,5,60,0,0
25932,-100,4,2,5,60,0,0
26226,-100,4,2,5,60,0,0
40343,-100,4,2,5,60,0,0
40931,-100,4,2,5,60,0,0
41226,-100,4,2,5,60,0,0
41520,-100,4,2,5,60,0,0
45049,-100,4,2,5,60,0,0
45490,-100,4,2,5,60,0,0
52549,-100,4,2,5,60,0,0
52696,-100,4,2,5,60,0,0
56814,-100,4,2,5,60,0,1
75638,-100,4,2,5,60,0,0
76814,-100,4,2,5,60,0,0
76961,-100,4,2,5,60,0,0
77108,-100,4,2,5,60,0,0
77402,-100,4,2,5,60,0,0
78432,-100,4,2,5,60,0,0
78579,-100,4,2,5,60,0,0
79461,-100,4,2,5,60,0,0
79755,-100,4,2,5,60,0,0
83285,-100,4,2,5,60,0,0
83579,-100,4,2,5,60,0,0
84167,-100,4,2,5,60,0,0
84461,-100,4,2,5,60,0,0
86226,-100,4,2,5,60,0,0
86814,-100,4,2,5,60,0,0
88579,-100,4,2,5,60,0,0
88873,-100,4,2,5,60,0,0
96226,-100,4,2,5,60,0,0
96667,-100,4,2,5,60,0,0
100049,-100,4,2,5,60,0,0
100196,-100,4,2,5,60,0,0
101373,-100,4,2,5,60,0,0
101520,-100,4,2,5,60,0,0
107255,-100,4,2,5,60,0,0
107549,-100,4,2,5,60,0,0
110343,-100,4,2,5,60,0,0
110784,-100,4,2,5,60,0,0
113432,-100,4,2,5,60,0,0
115049,-100,4,2,5,60,0,0
115638,-100,4,2,5,60,0,1
136520,-100,4,2,5,60,0,1
136814,-100,4,2,5,60,0,1
137328,-100,4,2,5,60,0,1
137402,-100,4,2,5,60,0,1
138579,-100,4,2,5,60,0,1
138726,-100,4,2,5,60,0,1
139314,-100,4,2,5,60,0,1
139461,-100,4,2,5,60,0,1
142696,-100,4,2,5,60,0,1
142990,-100,4,2,5,60,0,1
145343,-100,4,2,5,60,0,1
145638,-100,4,2,5,60,0,1
147843,-100,4,2,5,60,0,1
147991,-100,4,2,5,60,0,1
153285,-100,4,2,5,60,0,0

[Colours]
Combo1 : 131,222,197
Combo2 : 130,168,145
Combo3 : 157,197,200
Combo4 : 157,165,236

[HitObjects]
190,336,344,6,0,P|250:325|287:374,10,127.5,2|0|0|0|0|0|0|0|0|0|0,0:0|0:0|0:0|0:0|0:0|0:0|0:0|0:0|0:0|0:0|0:0,0:0:0:0:
96,296,5049,2,0,P|60:344|0:334,10,127.5,2|0|0|0|0|0|0|0|0|0|0,0:0|0:0|0:0|0:0|0:0|0:0|0:0|0:0|0:0|0:0|0:0,0:0:0:0:
192,336,9755,6,0,L|281:328,1,85,2|0,0:0|0:0,0:0:0:0:
363,275,10343,2,0,P|412:313|412:374,2,127.5,2|2|0,0:0|0:0|0:0,0:0:0:0:
432,200,11520,2,0,P|472:180|500:140,1,85
448,60,12108,6,0,L|455:18,2,42.5,2|2|0,0:0|0:0|0:0,0:0:0:0:
360,112,12696,2,0,P|316:76|232:76,1,127.5,2|2,0:0|0:0,0:0:0:0:
232,52,13285,2,0,P|212:104|208:140,2,85
140,4,14167,1,0,0:0:0:0:
52,52,14461,6,0,P|76:112|88:184,1,127.5,2|0,0:0|0:0,0:0:0:0:
112,184,15049,1,2,0:0:0:0:
44,260,15343,2,0,L|2:254,2,42.5,0|2|0,0:0|0:0|0:0,0:0:0:0:
104,340,15932,2,0,L|188:328,1,85
276,376,16520,1,0,0:0:0:0:
372,340,16814,6,0,P|356:300|328:268,1,85,2|0,0:0|0:0,0:0:0:0:
416,220,17402,2,0,P|432:180|460:148,1,85,2|0,0:0|0:0,0:0:0:0:
512,60,17991,2,0,L|424:52,1,85,2|0,0:0|0:0,0:0:0:0:
404,60,18432,2,0,B|364:28|364:28|284:44,1,127.5
192,12,19167,6,0,L|200:100,1,85,2|0,0:0|0:0,0:0:0:0:
100,104,19755,2,0,P|67:77|25:73,1,85,2|0,0:0|0:0,0:0:0:0:
3,87,20196,2,0,L|18:213,1,127.5,2|0,0:0|0:0,0:0:0:0:
40,312,20932,2,0,P|8:324|-8:336,2,42.5,2|0|0,0:0|0:0|0:0,0:0:0:0:
139,336,21520,6,0,P|129:354|124:375,2,42.5
228,284,22108,2,0,B|256:312|256:312|352:292,1,127.5,2|0,0:0|0:0,0:0:0:0:
360,312,22696,2,0,B|396:292|396:292|444:304,1,85
512,376,23285,1,2,0:0:0:0:
468,176,23873,6,0,P|464:114|512:75,1,127.5,2|0,0:0|0:0,0:0:0:0:
492,60,24461,2,0,L|396:48,1,85,2|0,0:0|0:0,0:0:0:0:
312,16,25049,2,0,P|276:60|204:44,1,127.5,2|0,0:0|0:0,0:0:0:0:
188,56,25638,2,0,L|194:13,2,42.5
96,100,26226,6,0,P|128:136|140:176,1,85,2|0,0:0|0:0,0:0:0:0:
52,224,26814,2,0,P|12:236|12:320,1,127.5,2|0,0:0|0:0,0:0:0:0:
0,336,27402,1,2,0:0:0:0:
100,356,27696,1,0,0:0:0:0:
200,376,27991,1,2,0:0:0:0:
404,356,28579,6,0,B|392:296|392:296|416:256|416:256|404:188,1,170,12|4,0:3|0:3,0:0:0:0:
400,92,29461,2,0,B|424:60|424:60|512:72,2,127.5,8|8|12,0:3|0:3|0:3,0:0:0:0:
312,40,30638,1,8,0:3:0:0:
224,92,30932,6,0,B|180:80|168:32|168:32|140:72|84:72,1,170,12|4,0:3|0:3,0:0:0:0:
0,104,31814,2,0,P|24:132|40:188,1,85,8|4,0:3|0:3,0:0:0:0:
60,192,32255,2,0,P|57:228|28:279,1,85,8|0,0:3|0:0,0:0:0:0:
12,280,32696,1,12,0:3:0:0:
48,376,32991,1,8,0:3:0:0:
144,340,33285,6,0,B|176:304|176:304|268:320,1,127.5,12|8,0:3|0:3,0:0:0:0:
272,300,33873,1,4,0:3:0:0:
367,267,34167,2,0,P|411:312|409:373,2,127.5,8|8|12,0:3|0:3|0:3,0:0:0:0:
291,199,35343,1,8,0:3:0:0:
389,166,35638,6,0,P|450:168|494:124,1,127.5,12|8,0:3|0:3,0:0:0:0:
484,104,36226,1,4,0:3:0:0:
408,36,36520,2,0,L|320:44,1,85,8|4,0:3|0:3,0:0:0:0:
304,28,36961,2,0,L|216:36,1,85,8|0,0:3|0:0,0:0:0:0:
200,20,37402,1,12,0:3:0:0:
156,112,37696,1,8,0:3:0:0:
59,79,37991,6,0,P|45:40|17:8,2,85,12|0|4,0:3|0:0|0:3,0:0:0:0:
156,112,38873,1,8,0:3:0:0:
92,192,39167,2,0,P|52:206|20:234,1,85,4|0,0:3|0:0,0:0:0:0:
4,216,39608,2,0,L|28:356,1,127.5,2|8,0:0|0:3,0:0:0:0:
124,376,40343,6,0,B|148:336|148:336|276:352,1,170,12|4,0:3|0:3,0:0:0:0:
344,284,41226,1,8,0:3:0:0:
387,376,41520,2,0,P|428:365|460:337,1,85,4|0,0:3|0:0,0:0:0:0:
484,348,41961,2,0,P|495:303|483:260,1,85,2|0,0:0|0:0,0:0:0:0:
507,250,42402,1,8,0:3:0:0:
460,160,42696,6,0,B|404:148|404:148|360:168|360:168|292:156,1,170,12|4,0:3|0:3,0:0:0:0:
224,228,43579,1,8,0:3:0:0:
316,276,43873,2,0,L|364:268,2,42.5,4|8|0,0:3|0:3|0:0,0:0:0:0:
268,364,44461,2,0,L|172:348,1,85,12|8,0:3|0:3,0:0:0:0:
84,376,45049,6,0,B|56:340|56:340|76:240,1,127.5,12|8,0:3|0:3,0:0:0:0:
80,236,45638,2,0,P|44:208|0:200,1,85,4|8,0:3|0:3,0:0:0:0:
36,104,46226,2,0,P|78:86|107:52,1,85,4|0,0:3|0:0,0:0:0:0:
172,131,46814,2,0,P|165:176|180:218,1,85,12|8,0:3|0:3,0:0:0:0:
140,308,47402,5,12,0:3:0:0:
218,373,47696,1,0,0:0:0:0:
303,318,47991,2,0,L|392:308,1,85,4|8,0:3|0:3,0:0:0:0:
400,328,48432,2,0,L|489:318,1,85,2|8,0:0|0:3,0:0:0:0:
497,338,48873,1,0,0:0:0:0:
512,236,49167,2,0,B|488:204|488:204|500:156,1,85,12|8,0:3|0:3,0:0:0:0:
420,96,49755,6,0,P|360:96|320:44,1,127.5,12|8,0:3|0:3,0:0:0:0:
304,28,50343,1,4,0:3:0:0:
204,56,50638,2,0,L|76:44,1,127.5,8|8,0:3|0:3,0:0:0:0:
55,56,51226,2,0,P|49:35|39:17,2,42.5,0|0|12,0:0|0:0|0:3,0:0:0:0:
108,144,51814,2,0,P|101:164|92:183,1,42.5,8|0,0:3|0:0,0:0:0:0:
108,204,52108,6,0,P|36:204|12:256,1,127.5,2|0,0:0|0:0,0:0:0:0:
0,268,52696,1,8,0:3:0:0:
68,344,52991,2,0,B|150:312|150:376|232:344,1,170,2|2,0:0|0:0,0:0:0:0:
308,272,53873,2,0,P|336:296|356:344,1,85,8|0,0:3|0:0,0:0:0:0:
448,376,54461,6,0,L|456:236,1,127.5,2|0,0:0|0:0,0:0:0:0:
476,236,55049,1,8,0:3:0:0:
512,140,55343,2,0,B|484:108|484:108|384:124,1,127.5,2|0,0:0|0:0,0:0:0:0:
380,108,55932,1,4,0:3:0:0:
428,16,56226,1,8,0:0:0:0:
232,76,56814,6,0,P|196:40|120:40,1,127.5,12|8,0:3|0:3,0:0:0:0:
100,31,57402,2,0,P|73:64|71:106,1,85,8|8,0:0|0:3,0:0:0:0:
76,208,57991,2,0,P|43:234|1:236,2,85,4|2|8,0:3|0:0|0:0,0:0:0:0:
161,153,58873,1,8,0:3:0:0:
165,255,59167,6,0,P|208:284|208:364,1,127.5,4|8,0:3|0:3,0:0:0:0:
236,364,59755,2,0,L|320:352,1,85,8|8,0:0|0:3,0:0:0:0:
420,376,60343,1,4,0:3:0:0:
472,288,60638,1,2,0:0:0:0:
404,211,60932,2,0,B|396:172|396:172|420:132,1,85,8|8,0:0|0:3,0:0:0:0:
492,60,61520,6,0,B|460:32|460:32|376:44,1,127.5,4|8,0:3|0:3,0:0:0:0:
360,23,62108,2,0,P|328:51|287:56,1,85,8|8,0:0|0:3,0:0:0:0:
188,80,62696,2,0,P|183:38|155:7,2,85,4|2|8,0:3|0:0|0:0,0:0:0:0:
257,154,63579,1,8,0:3:0:0:
158,176,63873,6,0,L|24:156,1,127.5,4|2,0:3|0:0,0:0:0:0:
40,180,64461,2,0,P|12:211|7:252,1,85,10|8,0:0|0:3,0:0:0:0:
0,356,65049,1,4,0:3:0:0:
92,310,65343,1,2,0:0:0:0:
168,376,65638,2,0,L|257:362,1,85,8|8,0:0|0:3,0:0:0:0:
352,376,66226,6,0,B|376:340|376:340|352:256,1,127.5,12|8,0:3|0:3,0:0:0:0:
364,236,66814,2,0,P|396:209|438:206,1,85,8|8,0:0|0:3,0:0:0:0:
508,132,67402,2,2,P|481:99|478:57,2,85,4|2|8,0:3|0:0|0:0,0:0:0:0:
438,206,68285,1,8,0:3:0:0:
368,132,68579,6,0,B|324:124|324:124|292:140|292:140|240:132,1,127.5,4|8,0:3|0:3,0:0:0:0:
228,152,69167,2,0,L|236:68,1,85,8|8,0:0|0:3,0:0:0:0:
138,29,69755,1,4,0:3:0:0:
73,110,70049,1,2,0:0:0:0:
127,195,70343,2,0,B|92:220|92:220|48:208,1,85,8|8,0:0|0:3,0:0:0:0:
0,300,70932,6,0,B|28:328|28:328|124:312,1,127.5,12|8,0:3|0:3,0:0:0:0:
136,324,71520,2,0,P|176:336|200:372,1,85,8|8,0:0|0:3,0:0:0:0:
292,324,72108,2,0,P|332:312|356:276,2,85,4|2|8,0:3|0:0|0:0,0:0:0:0:
224,248,72991,1,8,0:3:0:0:
292,172,73285,6,0,B|378:140|378:204|464:172,1,170,4|8,0:3|0:0,0:0:0:0:
512,88,74167,1,2,0:0:0:0:
440,16,74461,2,0,P|398:12|362:34,1,85,6|2,0:0|0:0,0:0:0:0:
264,16,75049,1,8,0:0:0:0:
215,104,75343,1,8,0:0:0:0:
283,177,75638,6,0,P|344:164|388:224,1,127.5,12|8,0:3|0:3,0:0:0:0:
404,192,76226,2,0,L|392:276,1,85,4|8,0:3|0:3,0:0:0:0:
472,336,76814,2,0,P|490:326|516:320,2,42.5,4|8|0,0:3|0:3|0:0,0:0:0:0:
380,375,77402,2,0,L|296:363,1,85,12|8,0:3|0:3,0:0:0:0:
196,376,77991,6,0,B|168:344|168:344|84:360,1,127.5,12|8,0:3|0:3,0:0:0:0:
64,376,78579,2,0,L|52:292,1,85,4|8,0:3|0:3,0:0:0:0:
40,192,79167,2,0,P|19:186|0:176,2,42.5,4|8|0,0:3|0:3|0:0,0:0:0:0:
130,150,79755,1,12,0:3:0:0:
197,222,80049,1,8,0:3:0:0:
149,307,80343,6,0,P|104:316|72:340,2,85,12|0|4,0:3|0:0|0:3,0:0:0:0:
197,222,81226,1,8,0:3:0:0:
272,288,81520,2,0,P|264:312|260:332,2,42.5,4|8|0,0:3|0:3|0:0,0:0:0:0:
360,336,82108,2,0,P|366:356|371:376,2,42.5,12|0|8,0:3|0:0|0:3,0:0:0:0:
357,235,82696,6,0,B|404:228|404:228|436:244|436:244|484:236,1,127.5,4|8,0:3|0:3,0:0:0:0:
496,256,83285,1,4,0:3:0:0:
512,156,83579,2,0,B|488:120|488:120|512:28,1,127.5,8|8,0:3|0:3,0:0:0:0:
496,16,84167,1,0,0:0:0:0:
400,56,84461,2,0,B|364:32|364:32|316:44,1,85,12|8,0:3|0:3,0:0:0:0:
228,8,85049,6,0,P|212:44|208:92,1,85,12|0,0:3|0:0,0:0:0:0:
124,148,85638,2,0,P|72:100|8:120,1,127.5,4|0,0:3|0:0,0:0:0:0:
0,124,86226,2,0,P|16:160|20:208,1,85,4|0,0:3|0:0,0:0:0:0:
40,304,86814,2,0,P|16:316|0:320,2,42.5,12|0|8,0:3|0:3|0:3,0:0:0:0:
120,240,87402,6,0,B|168:248|168:248|196:232|196:232|256:244,1,127.5,12|8,0:3|0:3,0:0:0:0:
256,260,87991,2,0,B|236:304|236:304|250:347,1,85,4|8,0:3|0:3,0:0:0:0:
340,376,88579,2,0,L|432:360,1,85,4|0,0:3|0:0,0:0:0:0:
468,272,89167,2,0,L|514:280,2,42.5,12|0|8,0:3|0:0|0:3,0:0:0:0:
378,227,89755,6,0,P|368:172|424:120,1,127.5,12|8,0:3|0:3,0:0:0:0:
432,104,90343,2,0,B|476:112|476:112|507:87,2,85,4|8|4,0:3|0:3|0:3,0:0:0:0:
392,8,91226,1,0,0:0:0:0:
296,48,91520,2,0,L|303:89,2,42.5,12|0|8,0:3|0:0|0:3,0:0:0:0:
196,48,92108,6,0,L|203:6,2,42.5,8|8|8,0:0|0:0|0:0,0:0:0:0:
172,148,92696,2,0,P|144:128|92:128,1,85,8|8,0:0|0:0,0:0:0:0:
80,148,93138,2,0,P|46:153|9:190,1,85,8|8,0:0|0:0,0:0:0:0:
14,213,93579,1,4,0:3:0:0:
24,316,93873,2,0,P|88:320|120:264,1,127.5,8|8,0:0|0:0,0:0:0:0:
136,292,94461,6,0,P|177:290|213:313,1,85,8|8,0:0|0:0,0:0:0:0:
296,372,95049,2,0,L|384:360,1,85,8|4,0:0|0:3,0:0:0:0:
400,376,95491,2,0,L|488:364,1,85,8|4,0:0|0:3,0:0:0:0:
504,380,95932,1,4,0:3:0:0:
512,280,96226,2,0,B|480:248|480:248|496:160,1,127.5,8|4,0:0|0:3,0:0:0:0:
512,148,96814,6,0,L|500:60,1,85,8|8,0:0|0:0,0:0:0:0:
416,8,97402,2,0,B|396:36|396:36|340:24,1,85,8|8,0:0|0:0,0:0:0:0:
328,40,97843,2,0,B|308:12|308:12|252:24,1,85,4|4,0:3|0:3,0:0:0:0:
240,8,98285,1,4,0:3:0:0:
160,72,98579,2,0,P|112:28|48:52,1,127.5,8|4,0:0|0:3,0:0:0:0:
36,28,99167,6,0,P|48:76|52:124,1,85,8|8,0:0|0:0,0:0:0:0:
8,204,99755,2,0,P|50:208|91:219,1,85,8|0,0:0|0:0,0:0:0:0:
108,240,100196,2,0,P|150:235|191:224,1,85,4|8,0:3|0:0,0:0:0:0:
208,204,100638,1,4,0:3:0:0:
292,260,100932,2,0,B|268:296|268:296|284:392,1,127.5,8|0,0:0|0:0,0:0:0:0:
300,364,101520,6,0,P|342:368|383:379,1,85,8|8,0:0|0:0,0:0:0:0:
480,344,102108,2,0,P|475:301|464:260,1,85,8|8,0:0|0:0,0:0:0:0:
484,244,102549,2,0,P|488:201|499:160,1,85,4|8,0:3|0:0,0:0:0:0:
480,144,102991,1,4,0:3:0:0:
416,64,103285,2,0,P|356:76|316:16,1,127.5,8|4,0:0|0:3,0:0:0:0:
296,20,103873,6,0,L|212:28,1,85,8|8,0:0|0:0,0:0:0:0:
112,8,104461,2,0,P|88:36|76:88,1,85,8|8,0:0|0:0,0:0:0:0:
52,92,104902,2,0,P|54:128|83:174,1,85,4|8,0:3|0:0,0:0:0:0:
68,193,105343,1,4,0:3:0:0:
12,280,105638,2,0,P|72:292|100:348,1,127.5,8|4,0:0|0:3,0:0:0:0:
120,364,106226,6,0,P|162:360|208:340,1,85,8|8,0:0|0:0,0:0:0:0:
300,376,106814,2,0,L|288:280,1,85,8|8,0:0|0:0,0:0:0:0:
308,276,107255,2,0,L|296:180,1,85,4|10,0:3|0:0,0:0:0:0:
316,176,107696,1,4,0:3:0:0:
412,212,107991,2,0,P|476:212|504:144,1,127.5,10|2,0:0|0:0,0:0:0:0:
512,136,108579,6,0,P|492:96|492:52,1,85,8|8,0:0|0:0,0:0:0:0:
404,8,109167,2,0,L|320:20,1,85,8|8,0:0|0:0,0:0:0:0:
300,8,109608,2,0,L|216:20,1,85,4|4,0:3|0:3,0:0:0:0:
196,8,110049,1,8,0:0:0:0:
108,56,110343,2,0,B|76:88|76:88|92:172,1,127.5,10|4,0:0|0:3,0:0:0:0:
80,192,110932,6,0,P|40:176|-4:172,2,85,8|8|8,0:0|0:0|0:0,0:0:0:0:
40,284,111814,1,8,0:0:0:0:
112,356,112108,2,0,P|176:356|204:300,1,127.5,10|10,0:0|0:0,0:0:0:0:
220,284,112696,2,0,P|284:284|312:340,1,127.5,2|2,0:0|0:0,0:0:0:0:
328,356,113285,5,0,0:0:0:0:
256,192,113432,12,8,115049,0:2:0:0:
328,356,115638,6,0,L|456:372,1,127.5,4|0,0:3|0:0,0:0:0:0:
471,351,116226,2,0,P|482:311|511:280,1,85,8|0,0:0|0:0,0:0:0:0:
460,192,116814,2,0,P|452:156|420:120,2,85,4|8|4,0:3|0:0|0:3,0:0:0:0:
371,243,117696,1,0,0:0:0:0:
284,192,117991,6,0,P|225:200|184:136,1,127.5,4|0,0:3|0:0,0:0:0:0:
164,164,118579,2,0,P|170:122|187:83,1,85,8|0,0:0|0:0,0:0:0:0:
117,13,119167,1,0,0:0:0:0:
26,57,119461,1,8,0:0:0:0:
40,157,119756,2,0,P|57:195|63:237,1,85,8|0,0:0|0:0,0:0:0:0:
28,332,120343,6,0,L|156:316,1,127.5,4|0,0:3|0:0,0:0:0:0:
168,296,120932,2,0,P|200:304|240:344,1,85,8|0,0:0|0:0,0:0:0:0:
332,296,121520,2,0,P|348:324|348:380,2,85,4|8|4,0:3|0:0|0:3,0:0:0:0:
260,224,122402,1,0,0:0:0:0:
356,192,122696,6,0,B|388:220|388:220|484:204,1,127.5,4|2,0:3|0:0,0:0:0:0:
492,220,123285,2,0,P|490:177|509:140,1,85,2|8,0:0|0:0,0:0:0:0:
512,40,123873,1,4,0:3:0:0:
417,6,124168,1,8,0:0:0:0:
355,85,124461,2,0,P|317:66|275:67,1,85,8|0,0:0|0:0,0:0:0:0:
192,8,125049,6,0,P|168:48|88:40,1,127.5,4|0,0:3|0:0,0:0:0:0:
76,64,125638,2,0,L|88:148,1,85,8|0,0:0|0:0,0:0:0:0:
84,252,126226,2,0,P|48:236|-4:232,2,85,4|8|4,0:3|0:0|0:3,0:0:0:0:
175,203,127108,1,0,0:0:0:0:
256,264,127402,6,0,P|216:296|216:368,1,127.5,4|0,0:3|0:0,0:0:0:0:
240,376,127991,2,0,L|324:364,1,85,8|0,0:0|0:0,0:0:0:0:
424,376,128579,1,4,0:3:0:0:
465,284,128873,1,8,0:0:0:0:
390,216,129167,2,0,L|305:204,1,85,8|0,0:0|0:0,0:0:0:0:
256,292,129755,6,0,P|232:328|148:312,1,127.5,4|0,0:3|0:0,0:0:0:0:
140,300,130343,2,0,P|100:308|72:348,1,85,8|0,0:0|0:0,0:0:0:0:
4,268,130931,2,0,P|17:229|-3:185,1,85,4|8,0:3|0:0,0:0:0:0:
99,166,131520,2,0,P|125:196|174:200,1,85,4|0,0:3|0:0,0:0:0:0:
252,148,132108,6,0,B|228:116|228:116|248:20,1,127.5,4|2,0:3|0:0,0:0:0:0:
268,44,132696,2,0,B|312:32|312:32|344:54,1,85,10|2,0:0|0:0,0:0:0:0:
436,12,133285,1,6,0:0:0:0:
504,86,133579,1,10,0:0:0:0:
454,173,133873,2,0,L|464:220,1,42.5,8|8,0:0|0:0,0:0:0:0:
448,236,134167,2,0,L|458:283,1,42.5,0|8,0:0|0:0,0:0:0:0:
442,299,134461,6,0,B|360:263|360:335|278:299,1,170,4|4,0:3|0:3,0:0:0:0:
212,376,135343,1,8,0:0:0:0:
112,352,135638,2,0,P|104:284|156:248,1,127.5,4|0,0:3|0:0,0:0:0:0:
124,236,136226,2,0,P|80:212|44:208,1,85,4|0,0:3|0:0,0:0:0:0:
8,112,136814,6,0,P|58:76|115:99,1,127.5,4|0,0:3|0:0,0:0:0:0:
132,116,137402,2,0,P|140:68|160:36,1,85,4|8,0:3|0:0,0:0:0:0:
256,64,137991,2,0,B|284:88|284:88|388:72,1,127.5,4|8,0:3|0:0,0:0:0:0:
388,52,138579,2,0,L|380:10,2,42.5,0|8|0,0:0|0:0|0:0,0:0:0:0:
484,92,139167,6,0,L|476:133,1,42.5,4|0,0:3|0:0,0:0:0:0:
492,156,139461,1,8,0:0:0:0:
412,216,139755,1,8,0:0:0:0:
444,310,140049,2,0,L|451:351,1,42.5,2|0,0:0|0:0,0:0:0:0:
436,374,140343,2,0,B|404:344|404:344|320:360,1,127.5,4|2,0:3|0:0,0:0:0:0:
300,348,140932,2,0,B|260:364|260:364|220:340,1,85,4|8,0:3|0:0,0:0:0:0:
132,300,141520,6,0,P|108:334|104:376,2,85,4|0|4,0:3|0:0|0:3,0:0:0:0:
214,241,142402,1,8,0:0:0:0:
121,199,142696,2,0,P|79:194|44:171,1,85,4|2,0:3|0:0,0:0:0:0:
0,80,143285,2,0,P|28:44|112:44,1,127.5,8|0,0:0|0:0,0:0:0:0:
124,24,143873,6,0,P|131:65|158:97,1,85,4|2,0:3|0:0,0:0:0:0:
256,132,144461,2,0,P|272:68|336:36,1,127.5,8|0,0:0|0:0,0:0:0:0:
312,16,145049,2,0,L|396:32,1,85,4|0,0:3|0:0,0:0:0:0:
468,104,145638,2,0,L|510:96,2,42.5,8|2|0,0:0|0:0|0:0,0:0:0:0:
368,130,146226,6,0,L|384:214,1,85,4|0,0:3|0:0,0:0:0:0:
456,285,146814,2,0,L|498:277,2,42.5,8|0|2,0:0|0:0|0:0,0:0:0:0:
356,311,147402,2,0,P|296:312|276:368,1,127.5,4|0,0:3|0:0,0:0:0:0:
256,356,147991,2,0,P|208:344|180:320,1,85,8|8,0:0|0:0,0:0:0:0:
80,332,148579,6,0,P|68:352|64:376,2,42.5,4|0|0,0:3|0:0|0:0,0:0:0:0:
15,251,149167,2,0,P|11:231|0:213,1,42.5,4|2,0:3|0:0,0:0:0:0:
16,192,149461,1,8,0:0:0:0:
116,212,149755,2,0,P|160:208|192:180,1,85,8|8,0:0|0:0,0:0:0:0:
164,84,150343,2,0,L|296:100,1,127.5,8|2,0:0|0:0,0:0:0:0:
316,104,150932,6,0,P|289:71|286:29,1,85,4|4,0:3|0:3,0:0:0:0:
384,0,151520,2,0,P|410:32|413:74,1,85,8|2,0:0|0:0,0:0:0:0:
432,92,151961,1,8,0:0:0:0:
501,163,152255,1,8,0:0:0:0:
453,254,152549,1,8,0:0:0:0:
353,235,152843,2,0,L|265:245,1,85,8|8,0:0|0:0,0:0:0:0:
256,224,153285,5,4,0:0:0:0:
