osu file format v14

[General]
AudioFilename: audio.mp3
AudioLeadIn: 0
PreviewTime: 70617
Countdown: 0
SampleSet: Soft
StackLeniency: 0.7
Mode: 0
LetterboxInBreaks: 0
WidescreenStoryboard: 1

[Editor]
DistanceSpacing: 1
BeatDivisor: 4
GridSize: 32
TimelineZoom: 2.4

[Metadata]
Title:NARASHITE
TitleUnicode:鳴らして
Artist:HARU NEMURI
ArtistUnicode:春ねむり
Creator:toybot
Version:Normal
Source:
Tags:frostwich synderes zhuxiaoyan gorou wanpachi lecana vikala noise japanese pop rock j-rock jrock j-pop jpop haru to shura 春と修羅
BeatmapID:4478101
BeatmapSetID:2129095

[Difficulty]
HPDrainRate:3
CircleSize:3
OverallDifficulty:4
ApproachRate:6
SliderMultiplier:1.1
SliderTickRate:1

[Events]
//Background and Video events
0,0,"FKKdDu1aAAIgqX5.jpg",0,0
//Break Periods
2,90817,104567
//Storyboard Layer 0 (Background)
//Storyboard Layer 1 (Fail)
//Storyboard Layer 2 (Pass)
//Storyboard Layer 3 (Foreground)
//Storyboard Layer 4 (Overlay)
//Storyboard Sound Samples

[TimingPoints]
617,312.5,4,2,1,60,1,0
5617,-100,4,2,1,65,0,0
9992,-100,4,2,1,72,0,0
10617,-100,4,2,1,70,0,0
29992,-100,4,2,3,70,0,0
30460,-100,4,2,1,55,0,0
30617,-100,4,2,1,65,0,0
30929,-100,4,2,1,65,0,0
38273,-100,4,2,1,70,0,0
38429,-100,4,2,1,65,0,0
39992,-100,4,2,1,67,0,0
40617,-100,4,2,1,70,0,0
50617,-100,4,2,1,75,0,0
69679,-100,4,2,1,80,0,0
70929,-100,4,2,1,80,0,0
72648,-100,4,2,1,80,0,0
72804,-100,4,2,1,80,0,0
72960,-100,4,2,1,80,0,0
73429,-100,4,2,1,80,0,0
75148,-100,4,2,1,80,0,0
75304,-100,4,2,1,80,0,0
76242,-100,4,2,1,80,0,0
76554,-100,4,2,1,80,0,0
77648,-100,4,2,1,80,0,0
77804,-100,4,2,1,80,0,0
77960,-100,4,2,1,80,0,0
78429,-100,4,2,1,80,0,0
80617,-100,4,2,1,80,0,0
80929,-100,4,2,1,80,0,0
83117,-100,4,2,1,80,0,0
83429,-100,4,2,1,80,0,0
87648,-100,4,2,1,80,0,0
87804,-100,4,2,1,80,0,0
88117,-100,4,2,1,80,0,0
88429,-100,4,2,1,80,0,0
90617,-100,4,2,1,70,0,0
105617,-100,4,2,1,62,0,0
115617,-100,4,2,1,50,0,0
117179,-100,4,2,1,70,0,0
117804,-100,4,2,2,50,0,0
118117,-100,4,2,1,50,0,0
119679,-100,4,2,1,70,0,0
120617,-100,4,2,1,50,0,0
124992,-100,4,2,1,70,0,0
125460,-100,4,2,1,60,0,0
125617,-100,4,2,1,90,0,0
125851,-100,4,2,61,90,0,0
126867,-100,4,2,61,80,0,0
128117,-100,4,2,61,90,0,0
129367,-100,4,2,61,80,0,0
130617,-100,4,2,61,90,0,0
131867,-100,4,2,61,80,0,0
132492,-100,4,2,1,80,0,0
133117,-100,4,2,61,90,0,0
134367,-100,4,2,2,80,0,0
134992,-100,4,2,61,80,0,0
135148,-100,4,2,2,80,0,0
135304,-100,4,2,1,80,0,0
135617,-100,4,2,2,85,0,0
137648,-100,4,2,1,85,0,0
137804,-100,4,2,2,85,0,0
137960,-100,4,2,1,85,0,0
138429,-100,4,2,2,85,0,0
140148,-100,4,2,1,85,0,0
140304,-100,4,2,2,85,0,0
142648,-100,4,2,1,85,0,0
142804,-100,4,2,2,85,0,0
142960,-100,4,2,1,85,0,0
143429,-100,4,2,2,85,0,0
145617,-100,4,2,1,85,0,0
145929,-100,4,2,2,85,0,0
146242,-100,4,2,2,70,0,0
146554,-100,4,2,2,85,0,0
148117,-100,4,2,1,85,0,0
148429,-100,4,2,2,85,0,0
152648,-100,4,2,1,85,0,0
152804,-100,4,2,2,85,0,0
153117,-100,4,2,1,85,0,0
153429,-100,4,2,2,85,0,0
155617,-100,4,2,1,70,0,0
157179,-100,4,2,1,70,0,0
157492,-100,4,2,1,70,0,0
162179,-100,4,2,1,70,0,0
162492,-100,4,2,1,70,0,0
164679,-100,4,2,1,70,0,0
164992,-100,4,2,1,70,0,0
167179,-100,4,2,1,70,0,0
167492,-100,4,2,1,70,0,0
168429,-100,4,2,1,70,0,0
168741,-100,4,2,1,70,0,0
169679,-100,4,2,1,70,0,0
169992,-100,4,2,1,70,0,0
172179,-100,4,2,1,70,0,0
172492,-100,4,2,1,70,0,0
173429,-100,4,2,1,70,0,0
173741,-100,4,2,1,70,0,0
174679,-100,4,2,1,85,0,0
174992,-100,4,2,1,70,0,0
175629,312.5,4,2,4,75,1,0
176254,-100,4,2,1,75,0,0
179535,-100,4,2,1,60,0,0
180003,-100,4,2,1,75,0,0
194613,-100,4,2,1,60,0,0
195004,-100,4,2,1,80,0,0
195472,-100,4,2,1,85,0,0

[Colours]
Combo1 : 255,255,128
Combo2 : 128,128,192
Combo3 : 0,128,192
Combo4 : 0,128,128

[HitObjects]
44,141,617,6,0,P|37:95|33:32,2,110,4|8|8,1:0|0:0|0:0,0:0:0:0:
153,147,1554,1,0,1:0:0:0:
153,147,1710,2,0,P|149:286|145:336,1,165,8|8,0:0|0:0,0:0:0:0:
255,335,2492,1,8,0:0:0:0:
360,306,2804,1,8,0:0:0:0:
468,324,3117,6,0,P|470:264|474:212,2,110,4|8|8,1:2|0:0|0:0,0:0:0:0:
360,306,4054,1,0,1:0:0:0:
360,306,4210,2,0,P|359:245|352:126,1,165,8|8,0:0|0:0,0:0:0:0:
279,59,4992,1,8,0:0:0:0:
171,79,5304,1,8,0:0:0:0:
147,186,5617,6,0,P|62:174|19:172,2,110,4|8|8,1:0|0:0|0:0,0:0:0:0:
229,267,6554,1,0,1:0:0:0:
229,267,6710,2,0,P|274:277|385:238,1,165,8|8,0:0|0:0,0:0:0:0:
452,153,7492,2,0,P|455:99|465:41,1,110,8|8,0:0|0:0,0:0:0:0:
356,20,8117,6,0,P|353:74|343:132,2,110,4|8|8,1:2|0:0|0:0,0:0:0:0:
250,51,9054,1,0,1:0:0:0:
250,51,9210,2,0,P|195:46|92:100,1,165,8|8,0:0|0:0,0:0:0:0:
28,178,9992,2,0,L|61:233,1,55,8|0,0:0|1:0,0:0:0:0:
38,277,10304,2,0,L|71:332,1,55,8|8,0:0|0:3,0:0:0:0:
44,374,10617,6,0,P|125:363|220:361,1,165,6|2,1:0|3:2,0:0:0:0:
263,365,11242,1,8,0:0:0:0:
346,293,11554,1,2,1:2:0:0:
346,293,11710,2,0,P|362:236|361:123,1,165,8|8,0:0|0:0,0:0:0:0:
283,53,12492,2,0,L|208:64,1,55,10|0,0:0|3:0,0:0:0:0:
182,90,12804,2,0,L|114:81,1,55,10|0,0:0|1:0,0:0:0:0:
72,74,13117,6,0,P|85:147|91:245,1,165,4|2,1:2|3:2,0:0:0:0:
84,292,13742,1,8,0:0:0:0:
190,264,14054,1,2,1:2:0:0:
190,264,14210,2,0,P|252:258|356:308,1,165,8|8,0:0|0:0,0:0:0:0:
433,362,14992,2,0,L|441:298,1,55,10|0,0:0|3:0,0:0:0:0:
473,264,15304,2,0,L|463:201,1,55,10|0,0:0|1:0,0:0:0:0:
467,154,15617,6,0,P|431:162|293:122,1,165,2|2,1:0|3:2,0:0:0:0:
269,95,16242,1,8,0:0:0:0:
187,21,16554,1,2,1:2:0:0:
187,21,16710,2,0,P|114:32|50:109,1,165,8|8,0:0|0:0,0:0:0:0:
46,206,17492,2,0,L|121:195,1,55,10|0,0:0|3:0,0:0:0:0:
149,222,17804,2,0,L|224:211,1,55,10|0,0:0|1:0,0:0:0:0:
254,234,18117,6,0,P|319:221|435:222,1,165,4|2,1:2|3:2,0:0:0:0:
471,230,18742,1,8,0:0:0:0:
487,338,19054,1,2,1:2:0:0:
487,338,19210,2,0,P|404:358|314:328,1,165,8|8,0:0|0:0,0:0:0:0:
223,369,19992,2,0,L|145:357,1,55,10|0,0:0|3:0,0:0:0:0:
132,318,20304,2,0,L|54:306,1,55,10|0,0:0|1:0,0:0:0:0:
39,269,20617,6,0,P|34:220|22:142,1,110,6|8,1:0|0:0,0:0:0:0:
84,166,21085,1,2,3:2:0:0:
84,166,21242,2,0,P|76:114|70:53,1,110,8|2,0:0|1:0,0:0:0:0:
99,10,21710,1,8,0:0:0:0:
202,59,22023,1,2,3:2:0:0:
202,59,22179,1,8,0:0:0:0:
193,167,22492,2,0,P|196:195|199:222,1,55,10|0,0:0|3:0,0:0:0:0:
242,257,22804,2,0,P|269:254|296:251,1,55,10|0,0:0|1:0,0:0:0:0:
331,208,23117,6,0,P|325:159|313:98,1,110,4|8,1:2|0:0,0:0:0:0:
296,47,23585,1,2,3:2:0:0:
296,47,23742,2,0,P|351:58|416:63,1,110,8|2,0:0|1:0,0:0:0:0:
459,60,24210,1,8,0:0:0:0:
494,164,24523,1,2,3:2:0:0:
494,164,24679,1,8,0:0:0:0:
439,258,24992,2,0,P|432:285|430:313,1,55,10|0,0:0|3:0,0:0:0:0:
450,363,25304,2,0,P|423:356|395:354,1,55,10|0,0:0|1:0,0:0:0:0:
340,355,25617,6,0,P|287:354|221:324,1,110,2|8,1:0|0:0,0:0:0:0:
195,295,26085,1,2,3:2:0:0:
195,295,26242,1,8,0:0:0:0:
278,224,26554,1,2,1:0:0:0:
278,224,26710,2,0,P|286:186|269:54,1,165,8|8,0:0|0:0,0:0:0:0:
169,20,27492,2,0,P|141:23|118:37,1,55,10|0,0:0|3:0,0:0:0:0:
95,87,27804,2,0,P|98:114|112:137,1,55,10|0,0:0|1:0,0:0:0:0:
153,174,28117,6,0,P|155:225|130:283,1,110,4|8,1:2|0:0,0:0:0:0:
80,294,28585,1,2,3:2:0:0:
80,294,28742,1,8,0:0:0:0:
159,370,29054,1,2,1:0:0:0:
159,370,29210,2,0,P|216:359|337:360,1,165,8|8,0:0|0:0,0:0:0:0:
432,364,29992,2,0,P|460:337|470:272,2,82.5,0|4|0,1:0|1:3|1:0,0:0:0:0:
397,320,30617,6,0,P|390:273|388:210,1,110,0|8,3:0|0:0,0:0:0:0:
292,156,31242,2,0,P|352:102|432:107,2,165,8|8|8,0:0|0:0|0:0,0:0:0:0:
204,223,32492,1,8,0:0:0:0:
93,210,32804,1,8,0:0:0:0:
43,111,33117,6,0,P|41:68|46:43,2,55,0|0|8,1:0|3:0|0:0,0:0:0:0:
93,210,33742,2,0,P|96:257|12:347,2,165,8|8|8,0:0|0:0|0:0,0:0:0:0:
163,125,34992,1,8,0:0:0:0:
272,137,35304,1,8,0:0:0:0:
324,233,35617,6,0,P|325:294|316:353,1,110,0|8,3:0|0:0,0:0:0:0:
425,368,36242,2,0,P|485:337|515:227,2,165,8|8|8,0:0|0:0|0:0,0:0:0:0:
416,258,37492,1,8,0:0:0:0:
435,149,37804,1,8,0:0:0:0:
400,43,38117,6,0,P|427:21|449:9,2,55,0|0|8,1:0|0:0|0:0,0:0:0:0:
295,78,38742,2,0,P|239:42|141:46,2,165,8|8|8,0:0|0:0|0:0,0:0:0:0:
324,124,39835,1,0,3:0:0:0:
324,124,39992,2,0,L|298:183,1,55,8|2,0:0|3:0,0:0:0:0:
247,184,40304,2,0,L|221:243,1,55,8|0,0:0|1:0,0:0:0:0:
172,250,40617,6,0,P|100:241|55:240,1,110,0|8,3:0|0:0,0:0:0:0:
1,148,41242,2,0,P|3:81|82:16,2,165,8|8|8,0:0|0:0|0:0,0:0:0:0:
107,120,42492,1,8,0:0:0:0:
211,153,42804,6,0,P|236:146|265:143,2,55,8|0|0,0:0|3:0|1:0,0:0:0:0:
184,259,43429,1,8,0:0:0:0:
267,330,43742,2,0,P|216:366|107:343,2,165,8|8|8,0:0|0:0|0:0,0:0:0:0:
377,327,44992,2,0,L|394:255,1,55,8|2,0:0|3:0,0:0:0:0:
436,244,45304,2,0,L|419:172,1,55,8|0,0:0|1:0,0:0:0:0:
381,154,45617,6,0,P|382:105|388:44,1,110,0|8,3:0|0:0,0:0:0:0:
280,67,46242,2,0,P|227:27|116:27,2,165,8|0|8,0:0|3:0|0:0,0:0:0:0:
271,176,47492,1,8,0:0:0:0:
162,191,47804,2,0,P|106:182|93:183,1,55,8|0,0:0|3:0,0:0:0:0:
55,198,48117,6,0,P|45:236|45:310,1,110,0|8,1:0|0:0,0:0:0:0:
137,365,48742,2,0,P|217:352|311:347,1,165,8|8,0:0|0:0,0:0:0:0:
414,364,49523,1,2,3:2:0:0:
414,364,49679,2,0,P|424:326|424:252,1,110,8|8,0:0|0:0,0:0:0:0:
405,203,50148,1,2,3:0:0:0:
429,153,50304,2,0,L|417:77,1,55,8|0,0:0|1:0,0:0:0:0:
426,43,50617,6,0,B|338:26|295:84|195:55,1,220,4|8,3:1|0:0,0:0:0:0:
101,35,51554,1,0,1:0:0:0:
101,35,51710,2,0,P|89:88|92:150,1,110,10|0,0:0|3:0,0:0:0:0:
74,196,52179,2,0,P|143:196|202:214,1,110,10|8,0:0|0:0,0:0:0:0:
267,275,52804,1,8,0:0:0:0:
372,243,53117,6,0,B|395:167|340:106|374:20,1,220,4|8,1:2|0:0,0:0:0:0:
485,16,54054,1,2,3:2:0:0:
485,16,54210,2,0,P|493:79|486:132,1,110,8|2,0:0|3:2,0:0:0:0:
465,175,54679,1,8,0:0:0:0:
489,282,54992,2,0,P|490:313|491:336,1,55,8|8,0:0|3:0,0:0:0:0:
441,357,55304,2,0,P|390:350|365:349,1,55,8|0,0:0|1:0,0:0:0:0:
337,324,55617,6,0,B|253:342|202:285|119:301,1,220,4|8,3:1|0:0,0:0:0:0:
12,281,56554,1,2,1:2:0:0:
12,281,56710,2,0,P|4:215|7:165,1,110,8|2,0:0|3:2,0:0:0:0:
25,119,57179,2,0,L|93:127,1,55,8|0,0:0|1:0,0:0:0:0:
134,134,57492,2,0,P|140:74|126:9,1,110,8|8,0:0|0:0,0:0:0:0:
241,19,58117,5,2,1:0:0:0:
274,123,58429,1,8,0:0:0:0:
242,228,58742,2,0,P|238:281|245:349,1,110,8|2,0:0|3:2,0:0:0:0:
295,351,59210,2,0,B|349:331|397:379|465:355,1,165,8|8,0:0|0:0,0:0:0:0:
498,254,59992,1,8,0:0:0:0:
438,161,60304,1,8,0:0:0:0:
383,170,60460,1,0,1:0:0:0:
328,177,60617,6,0,P|326:109|330:51,2,110,4|8|8,3:1|0:0|0:0,0:0:0:0:
352,284,61554,1,0,1:0:0:0:
352,284,61710,2,0,P|293:286|230:276,1,110,10|0,0:0|3:0,0:0:0:0:
190,261,62179,1,8,0:0:0:0:
82,284,62492,1,8,0:0:0:0:
3,206,62804,2,0,P|2:164|-1:140,1,55,8|0,0:0|3:0,0:0:0:0:
41,113,63117,6,0,P|89:116|155:113,2,110,4|8|8,1:2|0:0|0:0,0:0:0:0:
98,18,64054,1,0,3:0:0:0:
98,18,64210,1,10,0:0:0:0:
204,45,64523,2,0,L|275:40,1,55,0|8,3:0|0:0,0:0:0:0:
307,66,64835,2,0,L|368:60,1,55,0|8,3:0|0:0,0:0:0:0:
411,37,65148,1,2,3:0:0:0:
411,37,65304,1,8,0:0:0:0:
467,131,65617,6,0,P|472:205|469:248,2,110,4|8|8,3:1|0:0|0:0,0:0:0:0:
369,182,66554,1,0,1:0:0:0:
369,182,66710,2,0,P|315:179|240:185,1,110,10|0,0:0|3:0,0:0:0:0:
205,195,67179,1,8,0:0:0:0:
169,299,67492,1,8,0:0:0:0:
255,366,67804,2,0,P|297:365|327:360,1,55,8|0,0:0|3:0,0:0:0:0:
359,339,68117,6,0,P|406:334|478:339,2,110,2|8|8,1:0|0:0|0:0,0:0:0:0:
272,270,69054,1,0,1:0:0:0:
289,217,69210,1,8,0:0:0:0:
307,164,69367,2,0,P|304:115|294:54,1,110,0|8,3:0|0:0,0:0:0:0:
189,23,69992,2,0,L|118:41,1,55,8|8,0:0|3:2,0:0:0:0:
109,84,70304,2,0,L|38:102,1,55,12|0,0:0|3:0,0:0:0:0:
22,141,70617,6,0,P|31:204|36:250,1,110,4|8,1:1|0:0,0:0:0:0:
146,260,71242,2,0,P|227:287|274:296,1,110,2|8,1:0|0:0,0:0:0:0:
332,365,71867,2,0,P|362:332|417:290,1,110,4|8,3:2|0:0,0:0:0:0:
509,237,72492,1,0,1:2:0:0:
497,183,72648,1,2,3:2:0:0:
486,129,72804,2,0,P|456:122|432:115,1,55,8|0,0:0|1:0,0:0:0:0:
391,78,73117,6,0,P|331:73|282:96,1,110,4|8,3:2|0:0,0:0:0:0:
254,136,73585,1,0,3:0:0:0:
254,136,73742,2,0,P|203:156|149:150,1,110,2|8,0:0|0:0,0:0:0:0:
51,99,74367,1,0,1:2:0:0:
23,205,74679,2,0,P|30:278|30:327,1,110,8|0,0:0|1:2,0:0:0:0:
70,352,75148,1,2,0:0:0:0:
123,339,75304,2,0,L|192:347,1,55,8|0,0:0|3:0,0:0:0:0:
228,365,75617,6,0,P|281:358|350:353,1,110,4|8,1:0|0:0,0:0:0:0:
409,270,76242,2,0,P|337:244|289:219,1,110,2|8,1:0|0:0,0:0:0:0:
197,221,76867,2,0,P|211:160|219:89,1,110,4|8,3:2|0:0,0:0:0:0:
298,38,77492,1,0,1:2:0:0:
352,31,77648,1,2,3:0:0:0:
402,52,77804,2,0,P|437:93|444:117,1,55,8|0,0:0|1:0,0:0:0:0:
445,147,78117,6,0,P|406:160|361:213,1,110,4|8,3:2|0:0,0:0:0:0:
280,285,78742,2,0,P|288:349|331:397,2,110,0|8|0,0:0|0:0|1:2,0:0:0:0:
231,258,79523,2,0,P|234:226|230:191,2,55,2|8|0,3:2|0:0|3:0,0:0:0:0:
183,286,79992,1,0,1:2:0:0:
73,293,80304,1,8,0:0:0:0:
18,197,80617,6,0,P|26:130|29:72,1,110,4|8,1:0|0:0,0:0:0:0:
120,26,81242,2,0,P|140:77|157:139,1,110,2|8,1:0|0:0,0:0:0:0:
217,220,81867,2,0,P|278:247|320:256,1,110,4|8,3:2|0:0,0:0:0:0:
359,294,82335,1,0,0:0:0:0:
414,297,82492,2,0,P|458:269|473:205,1,110,0|8,1:2|0:0,0:0:0:0:
450,108,83117,5,4,3:2:0:0:
349,64,83429,2,0,L|287:73,1,55,8|0,0:0|3:0,0:0:0:0:
201,130,83898,2,0,L|139:119,2,55,2|8|2,0:3|0:0|3:3,0:0:0:0:
246,161,84367,2,0,P|269:212|267:273,1,110,4|8,1:2|0:0,0:0:0:0:
225,298,84835,1,0,3:0:0:0:
225,298,84992,2,0,P|150:287|96:286,1,110,0|8,1:2|0:0,0:0:0:0:
7,306,85617,6,0,P|19:244|24:183,1,110,4|8,1:0|0:0,0:0:0:0:
106,125,86242,2,0,P|174:170|206:185,1,110,2|8,1:0|0:0,0:0:0:0:
299,135,86867,2,0,P|290:77|286:20,1,110,4|8,3:2|0:0,0:0:0:0:
395,12,87492,1,0,1:2:0:0:
436,48,87648,1,2,3:0:0:0:
476,84,87804,2,0,L|462:144,1,55,8|0,0:0|1:0,0:0:0:0:
460,192,88117,6,0,P|421:235|359:231,1,110,4|8,3:2|0:0,0:0:0:0:
320,217,88585,1,0,3:0:0:0:
320,217,88742,2,0,P|266:220|231:261,1,110,0|8,0:0|0:0,0:0:0:0:
301,347,89367,2,0,P|335:335|367:333,2,55,0|0|8,1:2|3:0|0:0,0:0:0:0:
192,365,89992,1,2,1:2:0:0:
117,283,90304,1,10,0:0:0:0:
144,176,90617,5,4,1:0:0:0:
466,183,105617,6,0,P|464:130|452:71,1,110,0|10,3:0|0:0,0:0:0:0:
353,26,106242,2,0,P|301:15|195:58,2,165,8|10|8,0:0|0:0|0:0,0:0:0:0:
361,135,107492,1,8,0:0:0:0:
357,244,107804,1,8,0:0:0:0:
356,354,108117,6,0,P|305:349|247:347,1,110,0|8,1:0|0:0,0:0:0:0:
167,270,108742,2,0,P|190:218|189:108,2,165,10|8|10,0:0|0:0|0:0,0:0:0:0:
75,330,109992,1,8,0:0:0:0:
7,243,110304,2,0,L|22:181,1,55,8|2,0:0|1:2,0:0:0:0:
10,135,110617,6,0,P|22:88|35:28,1,110,0|8,3:0|0:0,0:0:0:0:
142,54,111242,2,0,P|215:44|327:33,2,165,8|10|8,0:0|0:0|0:0,0:0:0:0:
98,155,112492,1,8,0:0:0:0:
205,209,112804,1,10,0:0:0:0:
205,209,112960,1,2,3:2:0:0:
205,209,113117,6,0,P|220:261|230:331,1,110,0|8,1:0|0:0,0:0:0:0:
335,342,113742,2,0,P|409:345|502:352,2,165,8|10|10,0:0|0:0|0:0,0:0:0:0:
324,232,114992,2,0,L|342:175,1,55,8|2,0:0|3:2,0:0:0:0:
358,127,115304,1,10,0:0:0:0:
387,20,115617,5,4,0:0:0:0:
93,41,117179,1,0,0:0:0:0:
27,122,117492,2,0,P|42:180|55:242,1,110,2|2,0:0|0:0,0:0:0:0:
66,338,118117,5,4,1:2:0:0:
377,351,119522,1,0,0:0:0:0:
453,271,119835,2,0,P|503:276|530:282,2,55,0|2|0,0:0|0:0|0:0,0:0:0:0:
409,237,120304,1,2,0:3:0:0:
367,134,120617,5,4,0:2:0:0:
367,134,123117,2,0,P|287:30|66:318,1,660,2|0,1:2|0:0,0:0:0:0:
232,333,125460,1,0,1:0:0:0:
232,333,125617,6,0,L|335:347,2,82.5,4|2|2,3:2|1:2|1:3,0:0:0:0:
207,283,126242,2,0,L|117:272,2,82.5,0|2|4,1:0|1:0|1:3,0:0:0:0:
249,248,126867,2,0,P|256:137|241:17,1,220,4|0,0:1|0:0,0:0:0:0:
449,106,128117,6,0,L|464:20,2,82.5,4|0|2,0:0|1:0|1:3,0:0:0:0:
426,156,128742,2,0,L|526:173,2,82.5,0|2|2,1:0|3:0|1:0,0:0:0:0:
375,133,129367,2,0,P|301:118|143:144,1,220,2|0,3:2|0:0,0:0:0:0:
16,304,130617,6,0,L|-4:203,2,82.5,4|0|2,0:0|1:0|1:3,0:0:0:0:
71,299,131242,2,0,L|91:400,2,82.5,0|2|2,1:0|3:0|1:0,0:0:0:0:
112,262,131867,2,0,P|182:246|338:229,1,220,4|2,1:0|0:0,0:0:0:0:
415,27,133117,6,0,L|497:61,2,82.5,4|0|2,1:2|1:0|1:3,0:0:0:0:
377,67,133742,2,0,L|399:152,2,82.5,0|2|2,1:0|3:0|1:0,0:0:0:0:
323,53,134367,1,8,3:0:0:0:
216,25,134679,1,8,0:0:0:0:
113,65,134992,2,0,P|88:115|88:127,1,55,2|0,3:2|3:2,0:0:0:0:
60,160,135304,2,0,P|68:203|86:231,1,55,8|2,0:0|1:0,0:0:0:0:
77,267,135617,6,0,P|138:255|199:252,1,110,6|10,1:2|0:0,0:0:0:0:
274,186,136242,2,0,P|306:226|365:265,1,110,2|10,0:0|0:0,0:0:0:0:
442,194,136867,2,0,P|425:140|421:81,1,110,2|10,3:2|0:0,0:0:0:0:
327,28,137492,1,2,1:2:0:0:
275,47,137648,1,2,3:2:0:0:
222,64,137804,2,0,L|150:54,1,55,10|0,0:0|1:0,0:0:0:0:
115,38,138117,6,0,P|75:77|61:142,1,110,4|10,3:2|0:0,0:0:0:0:
66,182,138585,1,0,3:0:0:0:
66,182,138742,2,0,P|98:235|151:256,1,110,2|10,0:0|0:0,0:0:0:0:
249,238,139367,1,2,1:2:0:0:
306,144,139679,2,0,P|360:149|430:162,1,110,10|2,0:0|1:2,0:0:0:0:
459,190,140148,1,2,0:0:0:0:
480,240,140304,2,0,L|466:303,1,55,10|0,0:0|3:0,0:0:0:0:
468,348,140617,6,0,P|431:333|337:316,1,110,4|10,1:0|0:0,0:0:0:0:
268,260,141242,2,0,P|234:294|165:336,1,110,2|10,0:0|0:0,0:0:0:0:
79,289,141867,2,0,P|62:242|60:178,1,110,2|10,3:2|0:0,0:0:0:0:
132,100,142492,1,2,1:2:0:0:
182,122,142648,1,2,3:0:0:0:
236,122,142804,2,0,P|280:111|302:89,1,55,10|0,0:0|1:0,0:0:0:0:
324,64,143117,6,0,P|388:71|436:98,1,110,4|10,3:2|0:0,0:0:0:0:
383,192,143742,2,0,P|329:218|289:270,2,110,2|10|2,0:0|0:0|1:2,0:0:0:0:
432,214,144523,1,0,3:0:0:0:
464,258,144679,2,0,P|456:307|454:335,1,55,10|0,0:0|3:0,0:0:0:0:
458,367,144992,1,2,1:2:0:0:
353,334,145304,1,10,0:0:0:0:
245,356,145617,6,0,P|181:348|122:334,1,110,4|10,1:0|0:0,0:0:0:0:
56,262,146242,2,0,P|45:193|44:138,1,110,2|10,1:2|0:0,0:0:0:0:
126,80,146867,2,0,P|195:97|245:103,1,110,2|10,3:2|0:0,0:0:0:0:
282,76,147335,1,0,0:0:0:0:
314,31,147492,2,0,P|376:31|426:78,1,110,2|10,1:2|0:0,0:0:0:0:
480,145,148117,5,4,3:2:0:0:
460,253,148429,2,0,L|398:263,1,55,10|0,0:0|3:0,0:0:0:0:
308,210,148898,2,0,L|239:196,2,55,2|10|2,0:3|0:0|3:3,0:0:0:0:
348,171,149367,2,0,P|347:126|338:61,1,110,2|10,1:2|0:0,0:0:0:0:
291,32,149835,1,0,3:0:0:0:
291,32,149992,2,0,P|247:33|185:65,1,110,2|10,1:2|0:0,0:0:0:0:
114,142,150617,6,0,P|109:228|102:273,1,110,4|10,1:0|0:0,0:0:0:0:
46,344,151242,2,0,P|114:355|157:368,1,110,2|10,0:0|0:0,0:0:0:0:
242,301,151867,2,0,P|296:298|358:283,1,110,2|10,3:2|0:0,0:0:0:0:
456,315,152492,1,2,1:2:0:0:
482,266,152648,1,2,3:0:0:0:
507,217,152804,2,0,L|497:159,1,55,10|0,0:0|1:0,0:0:0:0:
485,108,153117,6,0,P|432:84|370:93,1,110,4|10,3:2|0:0,0:0:0:0:
336,120,153585,1,0,3:0:0:0:
336,120,153742,2,0,P|281:123|232:100,1,110,2|10,0:0|0:0,0:0:0:0:
145,33,154367,1,2,1:2:0:0:
96,58,154523,1,0,3:0:0:0:
45,80,154679,2,0,L|37:149,1,55,10|0,0:0|3:0,0:0:0:0:
80,170,154992,2,0,L|72:239,1,55,0|0,1:2|3:0,0:0:0:0:
116,259,155304,2,0,L|108:328,1,55,8|0,0:0|3:0,0:0:0:0:
146,355,155617,6,0,P|80:355|32:363,2,110,4|0|8,0:0|1:0|0:0,0:0:0:0:
248,316,156554,2,0,P|315:334|360:341,2,110,0|2|0,3:0|1:0|3:0,0:0:0:0:
172,235,157492,2,0,P|135:187|97:147,2,110,8|8|4,0:0|0:0|3:2,0:0:0:0:
275,198,158429,2,0,P|326:200|401:197,2,110,0|8|0,3:0|0:0|3:0,0:0:0:0:
204,112,159367,1,4,3:1:0:0:
283,36,159679,1,8,0:0:0:0:
386,73,159992,2,0,P|453:106|494:139,1,110,8|8,0:0|0:0,0:0:0:0:
488,237,160617,6,0,P|473:307|468:361,2,110,2|0|8,1:0|3:0|0:0,0:0:0:0:
384,198,161554,2,0,P|331:163|269:140,2,110,0|4|0,3:0|3:2|1:0,0:0:0:0:
365,306,162492,2,0,P|321:351|271:383,2,110,8|8|4,0:0|0:0|3:2,0:0:0:0:
267,255,163429,2,0,P|206:273|159:301,2,110,0|8|0,3:0|0:0|3:0,0:0:0:0:
288,145,164367,1,0,3:0:0:0:
205,72,164679,1,0,1:0:0:0:
96,90,164992,2,0,P|70:184|68:217,1,110,8|8,0:0|0:0,0:0:0:0:
122,292,165617,6,0,P|93:317|25:349,2,110,4|0|8,1:0|0:0|0:0,0:0:0:0:
231,297,166554,2,0,P|294:270|354:264,2,110,0|4|0,3:0|3:2|1:0,0:0:0:0:
165,207,167492,2,0,P|123:187|68:138,2,110,8|8|4,0:0|0:0|3:2,0:0:0:0:
269,173,168429,2,0,P|322:207|362:254,2,110,0|8|0,3:0|0:0|3:0,0:0:0:0:
213,77,169367,1,4,3:1:0:0:
301,12,169679,1,0,1:0:0:0:
400,59,169992,2,0,P|428:115|443:162,1,110,8|8,0:0|0:0,0:0:0:0:
456,269,170617,6,0,P|487:335|514:374,2,110,6|0|8,1:0|0:0|0:0,0:0:0:0:
351,234,171554,2,0,P|337:176|328:115,2,110,0|4|0,3:0|3:2|1:0,0:0:0:0:
245,267,172492,2,0,P|240:317|222:378,2,110,8|8|4,0:0|0:0|3:2,0:0:0:0:
192,169,173429,2,0,P|211:122|221:61,2,110,0|8|0,1:0|0:0|3:0,0:0:0:0:
106,239,174367,1,4,3:1:0:0:
10,184,174679,1,2,0:3:0:0:
15,73,174992,1,8,0:0:0:0:
115,28,175304,1,8,0:0:0:0:
220,63,175629,6,0,B|295:48|347:116|445:91,1,220,4|8,3:0|0:0,0:0:0:0:
385,306,176879,2,0,P|423:317|483:325,2,82.5,2|2|2,3:0|3:1|3:1,0:0:0:0:
340,273,177504,1,8,0:0:0:0:
230,275,177816,2,0,P|218:327|215:350,1,55,8|0,0:0|3:0,0:0:0:0:
180,367,178129,6,0,P|171:308|129:187,2,165,4|0|0,1:2|1:0|3:0,0:0:0:0:
59,254,179535,2,0,P|57:176|125:119,1,165,2|8,1:1|0:0,0:0:0:0:
225,144,180316,1,8,0:0:0:0:
271,173,180472,1,0,1:0:0:0:
319,200,180629,6,0,P|370:177|397:23,1,220,4|8,3:1|0:0,0:0:0:0:
180,22,181879,2,0,P|126:33|92:41,2,82.5,0|2|2,3:0|3:1|1:1,0:0:0:0:
227,50,182504,1,8,0:0:0:0:
202,157,182816,2,0,P|158:173|132:187,1,55,8|0,0:0|3:0,0:0:0:0:
110,214,183129,6,0,P|107:291|238:335,1,220,4|8,1:2|0:0,0:0:0:0:
268,310,183910,1,2,0:0:0:0:
373,339,184222,1,2,0:0:0:0:
373,339,184379,2,0,P|388:261|422:175,1,165,0|4,3:0|3:0,0:0:0:0:
447,134,185004,2,0,P|416:90|346:75,1,110,8|8,0:0|0:0,0:0:0:0:
313,93,185472,1,0,1:0:0:0:
261,112,185629,6,0,B|183:140|121:78|41:99,1,220,4|8,0:1|0:0,0:0:0:0:
11,315,186879,2,0,P|81:324|235:368,1,220,4|8,3:2|0:0,0:0:0:0:
334,356,187816,1,8,0:0:0:0:
416,282,188129,6,0,P|416:226|280:143,1,220,4|8,1:2|0:0,0:0:0:0:
217,221,189066,1,0,3:0:0:0:
118,170,189379,2,0,P|103:116|105:67,2,82.5,0|0|4,3:0|3:0|3:0,0:0:0:0:
87,215,190004,2,0,P|101:278|105:340,1,110,8|8,0:0|0:0,0:0:0:0:
212,346,190629,6,0,P|274:335|381:322,2,165,4|0|2,3:1|1:0|0:3,0:0:0:0:
208,180,192035,2,0,P|233:114|327:82,1,165,2|8,0:0|0:0,0:0:0:0:
422,107,192816,1,8,0:0:0:0:
449,154,192972,1,0,3:0:0:0:
474,203,193129,6,0,P|455:279|447:324,1,110,4|0,1:2|3:0,0:0:0:0:
403,340,193597,1,0,3:0:0:0:
403,340,193754,2,0,P|346:324|291:316,1,110,8|4,0:0|0:3,0:0:0:0:
197,266,194379,2,0,P|154:271|115:279,2,82.5,0|0|0,3:0|3:0|3:0,0:0:0:0:
235,226,195004,2,0,L|246:173,1,55,8|0,0:0|3:0,0:0:0:0:
216,126,195316,2,0,L|227:73,1,55,8|2,0:0|1:3,0:0:0:0:
