osu file format v14

[General]
AudioFilename: audio.mp3
AudioLeadIn: 0
PreviewTime: 70617
Countdown: 0
SampleSet: Soft
StackLeniency: 0.7
Mode: 0
LetterboxInBreaks: 0
WidescreenStoryboard: 0

[Editor]
DistanceSpacing: 4
BeatDivisor: 4
GridSize: 32
TimelineZoom: 2.4

[Metadata]
Title:NARASHITE
TitleUnicode:鳴らして
Artist:HARU NEMURI
ArtistUnicode:春ねむり
Creator:toybot
Version:DISTORTION
Source:
Tags:frostwich synderes zhuxiaoyan gorou wanpachi lecana vikala noise japanese pop rock j-rock jrock j-pop jpop haru to shura 春と修羅
BeatmapID:4476809
BeatmapSetID:2129095

[Difficulty]
HPDrainRate:6
CircleSize:4.5
OverallDifficulty:9
ApproachRate:9.5
SliderMultiplier:2
SliderTickRate:2

[Events]
//Background and Video events
0,0,"FKKdDu1aAAIgqX5.jpg",0,0
//Break Periods
//Storyboard Layer 0 (Background)
//Storyboard Layer 1 (Fail)
//Storyboard Layer 2 (Pass)
//Storyboard Layer 3 (Foreground)
//Storyboard Layer 4 (Overlay)
//Storyboard Sound Samples

[TimingPoints]
617,312.5,4,2,1,60,1,0
1398,-100,4,2,1,70,0,0
1554,-100,4,2,1,60,0,0
2648,-100,4,2,1,70,0,0
2804,-100,4,2,1,60,0,0
3898,-100,4,2,1,70,0,0
4054,-100,4,2,1,60,0,0
5617,-100,4,2,1,65,0,0
6398,-100,4,2,1,70,0,0
6554,-100,4,2,1,65,0,0
8898,-100,4,2,1,70,0,0
9054,-100,4,2,1,65,0,0
9992,-100,4,2,1,72,0,0
10617,-100,4,2,1,70,0,0
29992,-100,4,2,3,70,0,0
30460,-100,4,2,1,55,0,0
30538,-133.333333333333,4,2,1,55,0,0
30772,-133.333333333333,4,2,1,65,0,0
31398,-133.333333333333,4,2,1,70,0,0
31554,-133.333333333333,4,2,1,65,0,0
33898,-133.333333333333,4,2,1,70,0,0
34054,-133.333333333333,4,2,1,65,0,0
34913,-133.333333333333,4,2,1,70,0,0
34992,-133.333333333333,4,2,1,65,0,0
38038,-133.333333333333,4,2,1,70,0,0
38117,-133.333333333333,4,2,1,65,0,0
38273,-133.333333333333,4,2,1,70,0,0
38429,-133.333333333333,4,2,1,65,0,0
38898,-133.333333333333,4,2,1,70,0,0
39054,-133.333333333333,4,2,1,65,0,0
39992,-133.333333333333,4,2,1,67,0,0
40617,-133.333333333333,4,2,1,70,0,0
50617,-100,4,2,1,75,0,0
51007,-100,4,2,1,70,0,0
51085,-100,4,2,1,75,0,0
51398,-100,4,2,1,70,0,0
51554,-100,4,2,1,75,0,0
51866,-100,4,2,1,70,0,0
52023,-100,4,2,1,75,0,0
53897,-100,4,2,1,70,0,0
54054,-100,4,2,1,75,0,0
54366,-100,4,2,3,75,0,0
54523,-100,4,2,1,75,0,0
56398,-100,4,2,1,70,0,0
56554,-100,4,2,1,75,0,0
56866,-100,4,2,1,70,0,0
57023,-100,4,2,1,75,0,0
58898,-100,4,2,1,70,0,0
59054,-100,4,2,1,75,0,0
61866,-100,4,2,1,70,0,0
62023,-100,4,2,1,75,0,0
68898,-100,4,2,1,70,0,0
69054,-100,4,2,1,75,0,0
69523,-100,4,2,1,80,0,0
90617,-100,4,2,1,70,0,0
95148,-66.6666666666667,4,2,1,70,0,0
95617,-100,4,2,1,75,0,0
96866,-100,4,2,1,70,0,0
97023,-100,4,2,1,75,0,0
99835,-100,4,2,1,70,0,0
99992,-100,4,2,1,75,0,0
101398,-100,4,2,1,70,0,0
101554,-100,4,2,1,75,0,0
101867,-100,4,2,1,70,0,0
102023,-100,4,2,1,75,0,0
103898,-100,4,2,1,70,0,0
104054,-100,4,2,1,75,0,0
104367,-100,4,2,1,70,0,0
104523,-100,4,2,1,75,0,0
104992,-100,4,2,3,75,0,0
105148,-100,4,2,3,70,0,0
105226,-100,4,2,3,75,0,0
105382,-100,4,2,1,75,0,0
105460,-100,4,2,1,65,0,0
105617,-133.333333333333,4,2,1,62,0,0
115617,-400,4,2,1,50,0,0
117023,-400,4,2,1,70,0,0
117804,-400,4,2,2,50,0,0
118117,-400,4,2,1,50,0,0
119523,-400,4,2,1,70,0,0
120617,-400,4,2,1,50,0,0
122023,-400,4,2,1,70,0,0
122960,-400,4,2,1,50,0,0
124992,-400,4,2,1,70,0,0
125460,-400,4,2,1,60,0,0
125617,-66.6666666666667,4,2,1,90,0,1
125851,-66.6666666666667,4,2,61,90,0,1
126867,-66.6666666666667,4,2,61,80,0,0
128117,-66.6666666666667,4,2,61,90,0,1
128663,-66.6666666666667,4,2,61,70,0,1
128742,-66.6666666666667,4,2,61,90,0,1
129367,-133.333333333333,4,2,61,80,0,0
130304,-133.333333333333,4,2,1,80,0,0
130617,-66.6666666666667,4,2,61,90,0,1
131163,-66.6666666666667,4,2,61,70,0,1
131242,-66.6666666666667,4,2,61,90,0,1
131398,-66.6666666666667,4,2,61,70,0,1
131476,-66.6666666666667,4,2,61,90,0,1
131867,-66.6666666666667,4,2,61,80,0,0
133117,-66.6666666666667,4,2,61,90,0,1
133663,-66.6666666666667,4,2,61,70,0,1
133742,-66.6666666666667,4,2,61,90,0,1
133898,-66.6666666666667,4,2,61,70,0,1
133976,-66.6666666666667,4,2,61,90,0,1
134367,-66.6666666666667,4,2,2,80,0,0
134992,-66.6666666666667,4,2,61,80,0,0
135148,-66.6666666666667,4,2,2,80,0,0
135304,-66.6666666666667,4,2,1,80,0,0
135617,-100,4,2,2,85,0,0
135773,-100,4,2,2,70,0,0
135929,-100,4,2,2,85,0,0
136710,-100,4,2,1,85,0,0
136867,-100,4,2,2,85,0,0
137335,-100,4,2,2,70,0,0
137492,-100,4,2,2,85,0,0
137648,-100,4,2,1,85,0,0
137804,-100,4,2,2,85,0,0
137960,-100,4,2,1,85,0,0
138273,-100,4,2,2,85,0,0
140148,-100,4,2,1,85,0,0
140304,-100,4,2,2,85,0,0
140773,-100,4,2,2,70,0,0
140929,-100,4,2,2,85,0,0
141710,-100,4,2,1,85,0,0
141867,-100,4,2,2,85,0,0
142648,-100,4,2,1,85,0,0
142804,-100,4,2,2,85,0,0
142960,-100,4,2,1,85,0,0
143273,-100,4,2,2,85,0,0
144210,-100,4,2,2,70,0,0
144367,-100,4,2,2,85,0,0
145148,-100,4,2,1,85,0,0
145304,-100,4,2,2,85,0,0
145617,-100,4,2,1,85,0,0
145773,-100,4,2,2,85,0,0
146242,-100,4,2,2,70,0,0
146398,-100,4,2,2,85,0,0
146710,-100,4,2,1,85,0,0
146867,-100,4,2,2,85,0,0
147648,-100,4,2,1,85,0,0
147804,-100,4,2,2,85,0,0
147960,-100,4,2,1,85,0,0
148429,-100,4,2,2,85,0,0
150148,-100,4,2,1,85,0,0
150304,-100,4,2,2,85,0,0
150773,-100,4,2,2,70,0,0
150929,-100,4,2,2,85,0,0
152648,-100,4,2,1,85,0,0
152804,-100,4,2,2,85,0,0
153117,-100,4,2,1,85,0,0
153273,-100,4,2,2,85,0,0
155617,-100,4,2,1,70,0,0
175629,312.5,4,2,4,75,1,0
175629,-80,4,2,4,75,0,0
175785,-80,4,2,4,60,0,0
176097,-80,4,2,1,75,0,0
176175,-80,4,2,1,60,0,0
176254,-80,4,2,1,75,0,0
177035,-80,4,2,1,60,0,0
177113,-80,4,2,1,75,0,0
177269,-80,4,2,1,60,0,0
177347,-80,4,2,1,75,0,0
177425,-80,4,2,1,60,0,0
177504,-80,4,2,1,75,0,0
178441,-80,4,2,1,60,0,0
178597,-80,4,2,1,75,0,0
179144,-80,4,2,1,60,0,0
179379,-80,4,2,1,75,0,0
179535,-80,4,2,1,60,0,0
179613,-80,4,2,1,75,0,0
179769,-80,4,2,1,60,0,0
179847,-80,4,2,1,75,0,0
179925,-80,4,2,1,60,0,0
180004,-80,4,2,1,75,0,0
180785,-80,4,2,1,60,0,0
180863,-80,4,2,1,75,0,0
181019,-80,4,2,1,60,0,0
181097,-80,4,2,1,75,0,0
181175,-80,4,2,1,60,0,0
181254,-80,4,2,1,75,0,0
182425,-80,4,2,1,60,0,0
182504,-80,4,2,1,75,0,0
183675,-80,4,2,1,60,0,0
183754,-80,4,2,1,75,0,0
187425,-80,4,2,1,60,0,0
187504,-80,4,2,1,75,0,0
192269,-80,4,2,1,60,0,0
192347,-80,4,2,1,75,0,0
192425,-80,4,2,1,60,0,0
192504,-80,4,2,1,75,0,0
193910,-80,4,2,1,60,0,0
194066,-80,4,2,1,75,0,0
194300,-80,4,2,1,60,0,0
194379,-80,4,2,1,75,0,0
194535,-80,4,2,1,60,0,0
195004,-80,4,2,1,80,0,0
195472,-80,4,2,1,85,0,0

[Colours]
Combo1 : 255,255,128
Combo2 : 128,128,192
Combo3 : 0,128,192
Combo4 : 0,128,128

[HitObjects]
95,293,617,5,4,1:0:0:0:
95,293,773,1,0,3:0:0:0:
292,208,929,5,8,0:0:0:0:
111,174,1085,1,0,3:0:0:0:
284,196,1242,5,8,0:0:0:0:
179,336,1398,1,0,0:0:0:0:
217,60,1554,5,0,1:0:0:0:
217,60,1710,2,0,P|205:157|188:275,1,200,8|0,0:0|3:0,0:0:0:0:
334,299,2179,5,8,0:0:0:0:
172,254,2335,1,0,3:0:0:0:
341,315,2492,5,8,0:0:0:0:
284,196,2648,1,0,0:0:0:0:
344,85,2804,5,8,0:0:0:0:
292,208,2960,1,0,1:0:0:0:
489,366,3117,5,4,1:2:0:0:
489,366,3273,1,0,3:0:0:0:
267,326,3429,5,8,0:0:0:0:
433,258,3585,1,0,3:0:0:0:
253,317,3742,5,8,0:0:0:0:
360,163,3898,1,0,0:0:0:0:
356,365,4054,5,0,1:0:0:0:
356,365,4210,2,0,P|256:347|158:334,1,200,8|0,0:0|3:0,0:0:0:0:
29,364,4679,5,8,0:0:0:0:
170,240,4835,1,0,3:0:0:0:
39,351,4992,5,8,0:0:0:0:
53,169,5148,1,0,3:0:0:0:
153,245,5304,5,8,0:0:0:0:
0,278,5460,1,0,1:0:0:0:
272,77,5617,6,0,P|329:87|336:136,1,100,4|0,1:0|3:0,0:0:0:0:
293,346,5929,1,8,0:0:0:0:
256,172,6085,1,0,3:0:0:0:
307,337,6242,5,8,0:0:0:0:
170,240,6398,1,0,0:0:0:0:
402,250,6554,5,0,1:0:0:0:
411,353,6710,2,0,P|429:250|452:155,1,200,8|0,0:0|3:0,0:0:0:0:
312,238,7179,5,8,0:0:0:0:
464,153,7335,1,0,3:0:0:0:
272,136,7492,5,8,0:0:0:0:
477,146,7648,1,0,3:0:0:0:
297,50,7804,5,8,0:0:0:0:
146,247,7960,1,0,1:0:0:0:
29,123,8117,5,4,1:2:0:0:
29,123,8273,1,0,3:0:0:0:
123,91,8429,5,8,0:0:0:0:
60,261,8585,1,0,3:0:0:0:
216,115,8742,5,8,0:0:0:0:
70,250,8898,1,0,0:0:0:0:
290,306,9054,5,0,1:0:0:0:
183,321,9210,2,0,P|269:289|385:259,1,200,8|0,0:0|3:0,0:0:0:0:
507,231,9679,5,8,0:0:0:0:
475,373,9835,1,0,3:0:0:0:
370,39,9992,5,8,0:0:0:0:
446,297,10148,1,0,1:0:0:0:
188,373,10304,1,8,0:0:0:0:
112,115,10460,1,8,0:3:0:0:
272,76,10617,6,0,P|217:69|140:56,1,100,6|0,1:0|3:0,0:0:0:0:
343,129,10929,1,8,0:0:0:0:
163,51,11085,1,2,3:2:0:0:
446,49,11242,2,0,P|388:40|331:27,1,100,8|0,0:0|0:0,0:0:0:0:
171,217,11554,5,2,1:2:0:0:
446,218,11710,2,0,B|392:182|317:229|237:177,1,200,8|2,0:0|3:2,0:0:0:0:
444,320,12179,2,0,P|397:305|347:293,1,100,8|0,0:0|3:0,0:0:0:0:
76,367,12492,5,10,0:0:0:0:
108,116,12648,1,0,3:0:0:0:
229,337,12804,1,10,0:0:0:0:
0,229,12960,1,0,1:0:0:0:
248,181,13117,6,0,P|256:135|261:81,1,100,4|0,1:2|3:0,0:0:0:0:
160,241,13429,1,8,0:0:0:0:
195,32,13585,1,2,3:2:0:0:
394,249,13742,2,0,P|341:255|295:263,1,100,8|0,0:0|0:0,0:0:0:0:
447,191,14054,5,2,1:2:0:0:
201,359,14210,2,0,B|264:325|326:375|407:326,1,200,8|2,0:0|3:2,0:0:0:0:
437,78,14679,2,0,P|443:129|451:178,1,100,8|0,0:0|3:0,0:0:0:0:
503,270,14992,5,10,0:0:0:0:
262,179,15148,1,0,3:0:0:0:
463,8,15304,1,10,0:0:0:0:
512,254,15460,1,0,1:0:0:0:
274,190,15617,6,0,P|227:186|174:178,1,100,2|0,1:0|3:0,0:0:0:0:
341,125,15929,1,8,0:0:0:0:
100,204,16085,1,2,3:2:0:0:
307,287,16242,2,0,P|259:282|209:272,1,100,8|0,0:0|0:0,0:0:0:0:
103,87,16554,5,2,1:2:0:0:
57,362,16710,2,0,B|68:286|0:253|21:166,1,200,8|2,0:0|3:2,0:0:0:0:
8,55,17179,1,8,0:0:0:0:
8,55,17335,1,0,3:0:0:0:
177,203,17492,5,10,0:0:0:0:
388,50,17648,1,0,3:0:0:0:
103,87,17804,1,10,0:0:0:0:
354,185,17960,1,0,1:0:0:0:
237,351,18117,6,0,P|239:302|244:251,1,100,4|0,1:2|3:0,0:0:0:0:
269,155,18429,1,8,0:0:0:0:
226,358,18585,1,2,3:2:0:0:
276,143,18742,2,0,P|283:93|285:43,1,100,8|0,0:0|0:0,0:0:0:0:
97,234,19054,5,2,1:2:0:0:
369,235,19210,2,0,B|312:203|229:244|166:208,1,200,8|2,0:0|3:2,0:0:0:0:
452,205,19679,1,8,0:0:0:0:
380,73,19992,5,10,0:0:0:0:
417,360,20148,1,0,3:0:0:0:
394,67,20304,5,10,0:0:0:0:
429,354,20460,1,0,1:0:0:0:
183,309,20617,5,6,1:0:0:0:
183,309,20773,1,0,3:0:0:0:
276,257,20929,5,8,0:0:0:0:
76,322,21085,1,2,3:2:0:0:
313,360,21242,5,8,0:0:0:0:
335,125,21398,1,0,0:0:0:0:
302,351,21554,5,2,1:0:0:0:
345,135,21710,2,0,P|349:89|359:36,1,100,8|0,0:0|0:0,0:0:0:0:
163,180,22023,1,2,3:2:0:0:
163,180,22179,2,0,P|167:134|177:81,1,100,8|0,0:0|3:0,0:0:0:0:
0,216,22492,5,10,0:0:0:0:
88,243,22648,1,0,3:0:0:0:
280,192,22804,5,10,0:0:0:0:
368,219,22960,1,0,1:0:0:0:
167,347,23117,5,4,1:2:0:0:
167,347,23273,1,0,3:0:0:0:
404,306,23429,5,8,0:0:0:0:
183,358,23585,1,2,3:2:0:0:
480,355,23742,5,8,0:0:0:0:
232,275,23898,1,0,0:0:0:0:
487,339,24054,5,2,1:0:0:0:
234,293,24210,2,0,P|232:246|224:193,1,100,8|0,0:0|0:0,0:0:0:0:
381,142,24523,1,2,3:2:0:0:
381,142,24679,2,0,P|379:95|371:42,1,100,8|0,0:0|3:0,0:0:0:0:
463,190,24992,5,10,0:0:0:0:
381,227,25148,1,0,3:0:0:0:
176,46,25304,5,10,0:0:0:0:
265,79,25460,1,0,1:0:0:0:
65,194,25617,5,2,1:0:0:0:
65,194,25773,1,0,3:0:0:0:
158,275,25929,5,8,0:0:0:0:
96,93,26085,1,2,3:2:0:0:
276,272,26242,5,8,0:0:0:0:
51,362,26398,1,0,0:0:0:0:
289,290,26554,5,2,1:0:0:0:
50,345,26710,2,0,P|99:351|148:360,1,100,8|0,0:0|0:0,0:0:0:0:
269,154,27023,1,2,3:2:0:0:
269,154,27179,2,0,P|318:160|367:169,1,100,8|0,0:0|0:0,0:0:0:0:
165,16,27492,5,10,0:0:0:0:
212,221,27648,1,0,3:0:0:0:
121,193,27804,5,10,0:0:0:0:
258,34,27960,1,0,1:0:0:0:
420,315,28117,5,4,1:2:0:0:
420,315,28273,1,0,3:0:0:0:
503,236,28429,5,8,0:0:0:0:
227,330,28585,1,2,3:2:0:0:
448,126,28742,5,8,0:0:0:0:
212,221,28898,1,0,0:0:0:0:
455,142,29054,5,2,1:0:0:0:
219,240,29210,2,0,P|165:233|120:221,1,100,8|0,0:0|0:0,0:0:0:0:
512,353,29523,1,2,3:2:0:0:
512,353,29679,2,0,P|458:346|413:334,1,100,8|0,0:0|0:0,0:0:0:0:
296,39,29992,5,0,1:0:0:0:
176,59,30148,1,0,1:0:0:0:
176,59,30226,1,4,1:3:0:0:
56,79,30382,1,0,1:0:0:0:
56,79,30460,1,0,1:0:0:0:
56,79,30538,6,0,P|51:143|45:191,1,112.500004291535,0|0,1:0|3:0,0:0:0:0:
120,319,30929,2,0,L|111:245,1,75.0000028610231,8|0,0:0|1:0,0:0:0:0:
234,280,31242,2,0,L|223:354,1,75.0000028610231,8|0,0:0|0:0,0:0:0:0:
314,319,31554,1,0,1:0:0:0:
409,355,31710,6,0,P|394:286|383:207,1,150.000005722046,8|0,0:0|3:0,0:0:0:0:
411,96,32179,1,8,0:0:0:0:
307,180,32335,1,0,1:0:0:0:
428,144,32492,1,8,0:0:0:0:
302,130,32648,1,0,3:0:0:0:
181,218,32804,5,8,0:0:0:0:
104,198,32960,1,0,3:0:0:0:
185,193,33117,1,0,1:0:0:0:
108,170,33273,2,0,L|94:86,2,75.0000028610231,0|8|0,3:0|0:0|3:0,0:0:0:0:
56,322,33742,6,0,P|101:329|147:358,1,75.0000028610231,8|0,0:0|0:0,0:0:0:0:
201,319,34054,1,0,3:0:0:0:
336,340,34210,2,0,P|286:348|254:371,1,75.0000028610231,8|0,0:0|0:0,0:0:0:0:
404,294,34523,1,0,3:0:0:0:
481,350,34679,6,0,P|500:303|506:219,1,112.500004291535,8|0,0:0|0:0,0:0:0:0:
507,241,34992,2,0,L|495:141,1,75.0000028610231,8|8,0:0|3:0,0:0:0:0:
336,143,35304,2,0,L|347:64,1,75.0000028610231,8|0,0:0|1:0,0:0:0:0:
173,194,35617,5,0,3:0:0:0:
173,194,35773,1,0,3:0:0:0:
120,136,35929,1,8,0:0:0:0:
250,182,36085,1,0,1:0:0:0:
154,268,36242,2,0,P|99:245|-1:229,1,150.000005722046,8|0,0:0|1:0,0:0:0:0:
22,66,36710,6,0,L|33:153,1,75.0000028610231,8|0,0:0|0:0,0:0:0:0:
101,32,37023,1,0,3:0:0:0:
179,70,37179,1,8,0:0:0:0:
274,34,37335,2,0,L|262:131,2,75.0000028610231,0|8|0,1:0|0:0|3:0,0:0:0:0:
331,205,37804,6,0,P|357:176|435:149,1,112.500004291535,8|0,0:0|0:0,0:0:0:0:
424,149,38117,2,0,P|431:212|437:235,1,75.0000028610231,0|0,1:0|0:0,0:0:0:0:
267,355,38429,1,8,0:0:0:0:
419,321,38585,1,0,3:0:0:0:
336,304,38742,2,0,P|344:348|348:388,1,75.0000028610231,8|0,0:0|0:0,0:0:0:0:
206,280,39054,5,0,3:0:0:0:
132,258,39210,1,8,0:0:0:0:
59,238,39367,1,0,0:0:0:0:
254,137,39523,5,0,3:0:0:0:
123,172,39679,1,8,0:0:0:0:
254,137,39835,1,0,3:0:0:0:
30,23,39992,5,8,0:0:0:0:
41,30,40148,1,2,3:0:0:0:
52,37,40304,1,8,0:0:0:0:
63,44,40460,1,0,1:0:0:0:
151,32,40617,6,0,P|221:22|299:13,1,150.000005722046,0|8,3:0|0:0,0:0:0:0:
387,5,41085,1,2,1:2:0:0:
475,101,41242,2,0,P|459:137|449:171,1,75.0000028610231,8|0,0:0|0:0,0:0:0:0:
398,324,41554,1,2,1:2:0:0:
459,264,41710,2,0,P|424:248|388:239,2,75.0000028610231,8|0|2,0:0|0:0|3:2,0:0:0:0:
308,187,42179,2,0,P|298:153|282:116,1,75.0000028610231,8|0,0:0|1:0,0:0:0:0:
170,25,42492,5,8,0:0:0:0:
162,50,42648,1,2,3:2:0:0:
154,75,42804,1,8,0:0:0:0:
146,101,42960,1,0,3:0:0:0:
117,170,43117,6,0,P|135:242|145:316,1,150.000005722046,0|8,1:0|0:0,0:0:0:0:
262,242,43585,1,2,3:2:0:0:
402,329,43742,1,8,0:0:0:0:
287,324,43898,1,0,0:0:0:0:
432,253,44054,1,2,3:2:0:0:
348,175,44210,2,0,P|311:163|277:149,1,75.0000028610231,8|0,0:0|0:0,0:0:0:0:
443,155,44523,1,2,3:2:0:0:
412,68,44679,2,0,P|381:46|352:22,1,75.0000028610231,8|0,0:0|3:0,0:0:0:0:
252,69,44992,5,8,0:0:0:0:
180,90,45148,1,2,3:0:0:0:
108,111,45304,1,8,0:0:0:0:
36,132,45460,1,0,1:0:0:0:
226,215,45617,6,0,B|166:194|142:245|75:225,1,150.000005722046,0|8,3:0|0:0,0:0:0:0:
198,289,46085,1,2,1:2:0:0:
153,361,46242,2,0,L|65:345,2,75.0000028610231,8|0|2,0:0|0:0|1:2,0:0:0:0:
354,361,46710,2,0,L|428:351,1,75.0000028610231,0|0,3:0|0:0,0:0:0:0:
310,290,47023,1,2,3:2:0:0:
450,247,47179,2,0,L|376:234,1,75.0000028610231,8|0,0:0|1:0,0:0:0:0:
111,193,47492,5,8,0:0:0:0:
206,152,47648,1,2,3:2:0:0:
298,111,47804,1,8,0:0:0:0:
389,68,47960,1,0,3:0:0:0:
162,88,48117,6,0,P|178:161|190:235,1,150.000005722046,0|8,1:0|0:0,0:0:0:0:
291,340,48585,1,2,3:2:0:0:
102,364,48742,2,0,P|87:323|96:276,1,75.0000028610231,8|0,0:0|0:0,0:0:0:0:
274,219,49054,1,2,3:2:0:0:
441,244,49210,2,0,P|461:199|446:141,1,75.0000028610231,8|4,0:0|0:0,0:0:0:0:
262,79,49523,1,2,3:2:0:0:
66,141,49679,2,0,P|40:105|40:59,1,75.0000028610231,8|0,0:0|3:0,0:0:0:0:
196,6,49992,5,8,0:0:0:0:
353,28,50148,1,2,3:0:0:0:
328,170,50304,1,8,0:0:0:0:
182,145,50460,1,0,1:0:0:0:
262,79,50617,6,0,B|329:172|203:254|248:357,1,250,4|0,3:1|0:0,0:0:0:0:
238,317,51085,2,0,P|294:307|357:308,1,100,2|8,1:2|0:0,0:0:0:0:
479,362,51398,1,0,0:0:0:0:
348,297,51554,1,0,1:0:0:0:
483,207,51710,6,0,P|402:216|353:217,1,100,10|0,0:0|0:0,0:0:0:0:
371,211,52023,1,0,3:0:0:0:
208,148,52179,2,0,P|261:152|329:169,1,100,10|0,0:0|1:0,0:0:0:0:
114,333,52492,5,8,0:0:0:0:
27,258,52648,1,0,3:0:0:0:
111,150,52804,1,8,0:0:0:0:
6,58,52960,1,0,3:0:0:0:
185,23,53117,6,0,P|262:13|341:122,1,200,4|8,1:2|0:0,0:0:0:0:
489,253,53585,1,2,3:2:0:0:
481,113,53741,6,0,P|438:180|425:229,1,100,8|0,0:0|0:0,0:0:0:0:
472,98,54054,1,2,3:2:0:0:
347,216,54210,2,0,P|340:278|343:325,1,100,8|0,0:0|1:0,0:0:0:0:
329,208,54523,1,2,3:2:0:0:
271,362,54679,2,0,P|219:344|165:338,1,100,8|0,0:0|3:0,0:0:0:0:
423,282,54992,5,8,0:0:0:0:
253,273,55148,1,8,3:0:0:0:
153,154,55304,1,8,0:0:0:0:
216,13,55460,1,0,1:0:0:0:
276,199,55617,6,0,B|193:169|186:280|67:254,1,200,4|8,3:1|0:0,0:0:0:0:
14,153,56085,1,2,1:2:0:0:
144,44,56242,1,8,0:0:0:0:
168,122,56398,1,0,0:0:0:0:
83,101,56554,5,2,1:2:0:0:
229,59,56710,2,0,P|277:73|325:85,1,100,8|0,0:0|0:0,0:0:0:0:
415,273,57023,1,2,3:2:0:0:
273,305,57179,2,0,P|224:289|176:277,1,100,8|0,0:0|1:0,0:0:0:0:
307,210,57492,5,8,0:0:0:0:
491,168,57648,1,0,3:0:0:0:
302,192,57804,1,8,0:0:0:0:
486,150,57960,1,0,3:0:0:0:
415,273,58117,6,0,P|396:164|383:75,1,200,2|8,1:0|0:0,0:0:0:0:
457,10,58585,1,2,3:2:0:0:
300,116,58742,1,8,0:0:0:0:
148,42,58898,1,0,0:0:0:0:
48,107,59054,5,2,3:2:0:0:
209,152,59210,2,0,L|97:172,1,100,8|0,0:0|0:0,0:0:0:0:
216,260,59523,1,2,3:2:0:0:
328,266,59679,2,0,L|228:253,1,100,8|0,0:0|3:0,0:0:0:0:
109,362,59992,5,8,0:0:0:0:
209,152,60148,1,2,3:0:0:0:
255,358,60304,1,8,0:0:0:0:
110,169,60460,1,0,1:0:0:0:
323,35,60617,6,0,B|395:19|423:102|512:90,2,200,4|8|8,3:1|0:0|0:0,0:0:0:0:
323,35,61554,1,0,1:0:0:0:
255,72,61710,2,0,P|201:53|138:48,1,100,10|0,0:0|0:0,0:0:0:0:
318,140,62023,1,0,3:0:0:0:
189,181,62179,2,0,P|104:165|43:170,1,100,8|0,0:0|1:0,0:0:0:0:
310,275,62492,2,0,P|356:262|420:263,1,100,8|2,0:0|3:2,0:0:0:0:
194,369,62804,1,8,0:0:0:0:
28,288,62960,1,0,3:0:0:0:
42,72,63117,6,0,P|111:141|112:256,2,200,4|8|8,1:2|0:0|0:0,0:0:0:0:
40,74,64054,1,0,3:0:0:0:
111,117,64210,2,0,P|120:65|120:12,1,100,10|0,0:0|0:0,0:0:0:0:
214,87,64523,1,0,3:0:0:0:
340,131,64679,2,0,P|334:57|324:15,1,100,8|0,0:0|3:0,0:0:0:0:
476,83,64992,1,8,0:0:0:0:
423,282,65148,1,2,3:0:0:0:
421,147,65304,5,8,0:0:0:0:
506,311,65460,1,0,1:0:0:0:
295,365,65617,6,0,P|194:352|81:348,1,200,4|8,3:1|0:0,0:0:0:0:
95,347,66085,1,0,1:0:0:0:
197,152,66242,1,8,0:0:0:0:
197,152,66398,1,0,0:0:0:0:
395,227,66554,1,0,1:0:0:0:
317,269,66710,2,0,L|297:172,1,100,10|0,0:0|0:0,0:0:0:0:
337,363,67023,1,0,3:0:0:0:
193,270,67179,2,0,L|214:376,1,100,8|0,0:0|1:0,0:0:0:0:
366,127,67492,5,8,0:0:0:0:
172,49,67648,1,0,3:0:0:0:
67,199,67804,5,8,0:0:0:0:
288,67,67960,1,0,3:0:0:0:
478,308,68117,6,0,P|463:358|391:387,1,100,2|0,1:0|3:0,0:0:0:0:
246,260,68429,1,8,0:0:0:0:
49,354,68585,1,0,3:0:0:0:
307,194,68742,6,0,P|330:244|318:301,1,100,8|0,0:0|0:0,0:0:0:0:
89,200,69054,1,0,1:0:0:0:
28,360,69210,1,8,0:0:0:0:
69,120,69367,6,0,P|121:122|169:174,1,100,0|8,3:0|1:2,0:0:0:0:
182,365,69679,1,8,0:0:0:0:
279,338,69835,1,8,3:2:0:0:
374,314,69992,5,8,0:0:0:0:
219,278,70148,1,8,3:2:0:0:
34,245,70304,5,12,0:0:0:0:
273,187,70460,1,0,3:0:0:0:
500,127,70617,6,0,L|508:12,1,100,4|0,1:1|0:0,0:0:0:0:
356,74,70929,1,8,0:0:0:0:
404,293,71085,1,4,3:0:0:0:
202,126,71242,6,0,L|185:4,1,100,2|0,1:0|0:0,0:0:0:0:
49,137,71554,1,8,0:0:0:0:
316,232,71710,1,0,1:0:0:0:
57,373,71867,6,0,L|71:254,1,100,4|0,3:2|0:0,0:0:0:0:
178,340,72179,1,8,0:0:0:0:
178,340,72335,1,0,0:0:0:0:
492,318,72492,5,0,1:2:0:0:
368,301,72648,1,2,3:2:0:0:
245,284,72804,1,8,0:0:0:0:
477,148,72960,5,0,1:0:0:0:
297,181,73117,2,0,L|431:158,1,100,4|0,3:2|1:0,0:0:0:0:
294,47,73429,5,8,0:0:0:0:
179,246,73585,1,0,3:0:0:0:
7,103,73742,1,2,0:0:0:0:
234,118,73898,5,0,0:0:0:0:
147,78,74054,1,8,0:0:0:0:
82,141,74210,1,2,0:3:0:0:
165,172,74367,2,0,L|180:53,1,100,0|0,1:2|3:0,0:0:0:0:
281,324,74679,2,0,B|212:300|159:370|63:335,1,200,8|0,0:0|1:2,0:0:0:0:
265,223,75148,5,2,0:0:0:0:
265,223,75226,1,0,0:0:0:0:
265,223,75304,1,8,0:0:0:0:
432,311,75460,1,0,3:0:0:0:
487,153,75617,6,0,L|366:110,1,100,4|0,1:0|0:0,0:0:0:0:
449,22,75929,1,8,0:0:0:0:
281,104,76085,1,0,3:0:0:0:
87,50,76242,6,0,L|206:92,1,100,2|0,1:0|0:0,0:0:0:0:
11,113,76554,1,8,0:0:0:0:
134,285,76710,1,0,1:0:0:0:
197,192,76867,6,0,P|122:184|17:261,1,200,4|8,3:2|0:0,0:0:0:0:
233,278,77335,1,0,0:0:0:0:
343,376,77492,2,0,P|322:324|323:259,1,100,0|2,1:2|3:0,0:0:0:0:
400,153,77804,1,8,0:0:0:0:
300,132,77960,5,0,1:0:0:0:
464,77,78117,1,4,3:2:0:0:
428,245,78273,1,2,1:3:0:0:
231,81,78429,5,8,0:0:0:0:
93,50,78585,1,0,3:0:0:0:
340,30,78742,5,0,0:0:0:0:
173,168,78898,1,0,1:3:0:0:
322,264,79054,1,8,0:0:0:0:
222,352,79210,1,2,0:3:0:0:
76,230,79367,5,0,1:2:0:0:
221,264,79523,1,2,3:2:0:0:
468,125,79679,5,8,0:0:0:0:
261,167,79835,1,0,3:0:0:0:
440,362,79992,6,0,P|447:312|446:262,1,100,0|2,1:2|0:0,0:0:0:0:
167,42,80304,2,0,P|168:92|161:142,1,100,8|0,0:0|1:0,0:0:0:0:
14,363,80538,1,0,1:0:0:0:
14,363,80617,6,0,P|66:328|185:317,1,150,4|0,1:0|0:0,0:0:0:0:
219,276,80929,1,8,0:0:0:0:
360,363,81085,1,0,3:0:0:0:
483,200,81242,6,0,P|430:222|354:214,1,100,2|0,1:0|0:0,0:0:0:0:
204,157,81554,1,8,0:0:0:0:
73,295,81710,1,0,1:0:0:0:
0,24,81867,6,0,P|34:66|192:76,1,200,4|8,3:2|0:0,0:0:0:0:
314,16,82335,1,0,0:0:0:0:
435,169,82492,1,0,1:2:0:0:
449,38,82648,5,2,3:2:0:0:
293,184,82804,2,0,L|316:296,1,100,8|0,0:0|1:0,0:0:0:0:
132,241,83117,6,0,P|80:209|13:188,1,100,4|0,3:2|0:0,0:0:0:0:
204,155,83429,1,8,0:0:0:0:
314,282,83585,6,0,P|262:250|195:229,1,100,0|0,3:0|1:0,0:0:0:0:
63,312,83898,1,2,0:3:0:0:
102,131,84054,1,8,0:0:0:0:
280,86,84210,1,2,3:3:0:0:
393,237,84367,6,0,P|434:209|481:191,1,100,4|0,1:2|3:0,0:0:0:0:
323,188,84679,1,8,0:0:0:0:
215,336,84835,5,0,3:0:0:0:
168,91,84992,1,0,1:2:0:0:
56,244,85148,5,2,0:0:0:0:
323,188,85304,1,8,0:0:0:0:
82,139,85460,1,0,3:0:0:0:
262,102,85617,6,0,P|313:112|359:122,1,100,4|0,1:0|0:0,0:0:0:0:
479,299,85929,1,8,0:0:0:0:
512,95,86085,1,0,3:0:0:0:
281,252,86242,6,0,P|232:261|184:272,1,100,2|0,1:0|0:0,0:0:0:0:
52,370,86554,1,8,0:0:0:0:
7,172,86710,1,0,1:0:0:0:
260,380,86867,6,0,L|252:180,1,200,4|8,3:2|0:0,0:0:0:0:
136,125,87335,1,0,0:0:0:0:
357,217,87492,1,0,1:2:0:0:
356,97,87648,5,2,3:0:0:0:
163,250,87804,1,8,0:0:0:0:
396,323,87960,1,0,1:0:0:0:
147,361,88117,5,4,3:2:0:0:
67,325,88273,2,0,P|56:273|62:215,1,100,2|8,1:3|0:0,0:0:0:0:
224,111,88585,1,0,3:0:0:0:
416,216,88742,2,0,P|428:157|401:18,1,200,0|8,0:0|0:0,0:0:0:0:
308,191,89210,1,0,0:0:0:0:
146,46,89367,5,0,1:2:0:0:
51,34,89523,1,0,3:0:0:0:
276,16,89679,5,8,0:0:0:0:
37,53,89835,1,0,3:0:0:0:
387,110,89992,5,2,1:2:0:0:
25,74,90148,1,2,3:0:0:0:
387,110,90304,1,10,0:0:0:0:
25,74,90460,1,2,3:0:0:0:
203,321,90617,5,4,1:0:0:0:
421,233,90773,1,0,3:0:0:0:
421,233,90929,2,0,P|359:243|309:245,1,100,8|2,0:0|3:2,0:0:0:0:
4,340,91242,2,0,P|100:326|231:321,1,200,8|2,0:0|1:2,0:0:0:0:
313,356,91710,5,8,0:0:0:0:
313,356,91867,1,0,0:0:0:0:
140,232,92023,1,2,3:2:0:0:
366,139,92179,5,8,0:0:0:0:
158,245,92335,1,0,0:0:0:0:
244,38,92492,5,10,0:0:0:0:
215,129,92648,1,0,3:0:0:0:
278,202,92804,1,10,0:0:0:0:
249,292,92960,1,0,1:0:0:0:
382,235,93117,5,4,1:2:0:0:
124,179,93273,1,0,3:0:0:0:
124,179,93429,2,0,P|106:116|88:62,1,100,8|2,0:0|3:2,0:0:0:0:
400,317,93742,2,0,P|413:237|442:113,1,200,8|2,0:0|1:2,0:0:0:0:
343,51,94210,5,8,0:0:0:0:
343,51,94367,1,0,0:0:0:0:
213,218,94523,1,2,3:2:0:0:
187,89,94679,5,8,0:0:0:0:
334,271,94835,1,0,0:0:0:0:
126,361,94992,5,8,0:0:0:0:
21,331,95148,2,2,B|131:268|121:373|275:372,1,225.000008583069,2|2,3:1|0:1,0:1:0:0:
229,368,95460,2,0,B|261:354|261:354|313:367,1,75.0000028610231,0|0,1:0|0:0,0:0:0:0:
492,325,95617,6,0,P|441:328|368:322,1,100,4|0,1:0|3:0,0:0:0:0:
495,228,95929,1,8,0:0:0:0:
281,264,96085,1,2,3:2:0:0:
281,264,96242,2,0,P|273:184|277:53,1,200,8|2,0:0|1:2,0:0:0:0:
135,185,96710,6,0,P|135:123|125:58,1,100,8|0,0:0|0:0,0:0:0:0:
44,144,97023,1,2,3:2:0:0:
179,257,97179,1,8,0:0:0:0:
38,360,97335,1,0,3:0:0:0:
26,346,97492,5,10,0:0:0:0:
121,353,97648,1,0,3:0:0:0:
217,361,97804,1,10,0:0:0:0:
312,367,97960,1,0,1:0:0:0:
411,215,98117,6,0,P|359:218|292:228,1,100,4|0,1:2|3:0,0:0:0:0:
311,225,98429,1,8,0:0:0:0:
479,118,98585,1,2,3:2:0:0:
479,118,98742,2,0,P|419:117|286:50,1,200,8|2,0:0|1:2,0:0:0:0:
86,122,99210,6,0,P|144:110|191:72,1,100,8|0,0:0|0:0,0:0:0:0:
30,70,99523,1,2,3:2:0:0:
186,178,99679,2,0,P|249:197|281:223,1,100,8|0,0:0|0:0,0:0:0:0:
69,257,99992,2,0,P|15:294|-12:334,1,100,10|0,0:0|3:0,0:0:0:0:
256,365,100304,5,10,0:0:0:0:
373,309,100460,1,0,1:0:0:0:
500,354,100617,5,4,1:0:0:0:
500,354,100773,1,0,3:0:0:0:
480,277,100929,1,8,0:0:0:0:
496,201,101085,1,2,3:2:0:0:
474,129,101242,1,8,0:0:0:0:
474,129,101398,1,0,0:0:0:0:
425,191,101554,1,2,1:0:0:0:
412,76,101710,1,8,0:0:0:0:
412,76,101867,1,0,0:0:0:0:
350,127,102023,1,2,3:2:0:0:
358,22,102179,1,8,0:0:0:0:
350,127,102335,1,0,3:0:0:0:
225,71,102492,6,0,L|239:174,1,100,10|0,0:0|3:0,0:0:0:0:
286,251,102804,2,0,L|270:362,1,100,10|0,0:0|1:0,0:0:0:0:
13,369,103117,5,4,1:2:0:0:
13,369,103273,1,0,3:0:0:0:
11,227,103429,1,8,0:0:0:0:
43,298,103585,1,2,3:2:0:0:
42,158,103742,1,8,0:0:0:0:
42,158,103898,1,0,0:0:0:0:
1,89,104054,1,2,1:0:0:0:
119,174,104210,1,8,0:0:0:0:
119,174,104367,1,0,0:0:0:0:
132,8,104523,1,2,3:2:0:0:
152,104,104679,1,8,0:0:0:0:
132,8,104835,1,0,3:0:0:0:
305,55,104992,6,0,L|199:40,1,100,0|0,1:0|1:0,0:0:0:0:
205,40,105226,1,4,1:3:0:0:
396,138,105382,1,8,0:3:0:0:
345,147,105460,1,0,1:0:0:0:
299,158,105538,1,0,1:0:0:0:
299,158,105617,6,0,L|388:171,1,75.0000028610231,0|0,3:0|3:0,0:0:0:0:
183,251,105929,2,0,P|174:217|170:177,1,75.0000028610231,10|0,0:0|1:0,0:0:0:0:
268,305,106242,2,0,P|309:305|342:309,1,75.0000028610231,8|0,0:0|0:0,0:0:0:0:
422,325,106554,1,0,1:0:0:0:
197,334,106710,2,0,P|298:330|369:339,1,150.000005722046,10|0,0:0|3:0,0:0:0:0:
116,327,107179,1,8,0:0:0:0:
116,327,107335,1,2,1:2:0:0:
38,379,107492,6,0,P|27:340|29:290,1,75.0000028610231,8|0,0:0|3:0,0:0:0:0:
156,169,107804,2,0,P|167:208|165:258,1,75.0000028610231,8|0,0:0|3:0,0:0:0:0:
54,136,108117,6,0,L|40:62,1,75.0000028610231,0|0,1:0|3:0,0:0:0:0:
158,5,108429,2,0,L|154:80,1,75.0000028610231,8|0,0:0|3:0,0:0:0:0:
254,121,108742,2,0,P|292:117|328:107,1,75.0000028610231,10|0,0:0|0:0,0:0:0:0:
405,74,109054,1,0,3:0:0:0:
463,190,109210,2,0,P|394:176|361:161,2,75.0000028610231,8|0|0,0:0|0:0|3:0,0:0:0:0:
254,253,109679,2,0,P|298:241|357:237,1,75.0000028610231,10|0,0:0|3:0,0:0:0:0:
504,352,109992,5,8,0:0:0:0:
416,369,110148,1,8,3:0:0:0:
334,342,110304,2,0,P|297:335|259:332,1,75.0000028610231,8|2,0:0|1:2,0:0:0:0:
135,350,110617,5,0,3:0:0:0:
135,350,110773,1,0,3:0:0:0:
179,286,110929,2,0,P|176:251|165:212,1,75.0000028610231,8|0,0:0|1:0,0:0:0:0:
72,171,111242,2,0,P|68:108|126:32,1,150.000005722046,8|0,0:0|1:0,0:0:0:0:
303,117,111710,2,0,P|313:179|286:228,1,112.500004291535,10|0,0:0|0:0,0:0:0:0:
277,229,112023,1,0,3:0:0:0:
211,112,112179,2,0,P|209:79|201:23,1,75.0000028610231,8|2,0:0|1:2,0:0:0:0:
297,9,112492,5,8,0:0:0:0:
376,34,112648,1,0,3:0:0:0:
460,16,112804,1,10,0:0:0:0:
379,52,112960,1,2,3:2:0:0:
472,114,113117,6,0,P|480:162|483:212,1,75.0000028610231,0|0,1:0|3:0,0:0:0:0:
370,301,113429,2,0,P|364:246|365:197,1,75.0000028610231,8|0,0:0|3:0,0:0:0:0:
252,176,113742,2,0,P|209:145|95:134,1,150.000005722046,8|0,0:0|3:0,0:0:0:0:
43,78,114210,2,0,P|12:138|14:237,1,150.000005722046,10|0,0:0|3:0,0:0:0:0:
76,269,114679,1,10,0:0:0:0:
24,358,114992,5,8,0:0:0:0:
117,358,115148,1,2,3:2:0:0:
218,326,115304,1,10,0:0:0:0:
297,251,115460,1,0,1:0:0:0:
486,359,115617,6,0,B|455:329|455:329|489:145,1,225,4|0,0:0|0:0,0:0:0:0:
488,150,117492,1,2,0:0:0:0:
392,173,117804,1,2,0:0:0:0:
354,77,118117,6,0,B|285:47|212:106|130:79,1,225,4|0,1:2|0:0,0:0:0:0:
133,80,119992,1,2,0:0:0:0:
245,104,120304,1,2,0:3:0:0:
37,146,120617,6,0,P|50:256|59:369,1,225,4|0,0:2|0:0,0:0:0:0:
59,369,122492,2,0,L|92:371,1,25,0|2,0:0|0:0,0:0:0:0:
232,327,122960,1,0,0:0:0:0:
253,330,123117,6,0,P|249:292|253:23,1,300,2|0,1:2|0:0,0:0:0:0:
332,16,125148,1,2,0:0:0:0:
430,66,125304,1,2,0:0:0:0:
457,200,125460,1,0,1:0:0:0:
369,354,125617,6,0,P|309:359|286:265,1,150.000005722046,4|0,3:2|0:0,0:0:0:0:
307,198,125851,2,0,P|327:280|275:321,1,150.000005722046,2|0,1:2|0:0,0:0:0:0:
190,316,126085,2,0,P|231:289|293:303,1,75.0000028610231,2|0,1:3|0:0,0:0:0:0:
442,214,126242,6,0,P|393:289|318:290,1,150.000005722046,0|2,1:0|0:3,0:0:0:0:
152,157,126476,2,0,P|241:231|229:287,1,150.000005722046,2|0,1:0|0:0,0:0:0:0:
90,366,126710,2,0,P|162:310|203:314,1,75.0000028610231,4|0,1:3|0:0,0:0:0:0:
14,307,126867,5,4,0:1:0:0:
14,307,128117,2,0,P|51:229|-5:168,1,150.000005722046,4|0,0:0|0:0,0:0:0:0:
199,180,128351,2,0,P|104:193|84:277,1,150.000005722046,0|0,1:0|0:0,0:0:0:0:
67,93,128585,2,0,P|74:157|138:177,1,75.0000028610231,2|0,1:3|0:0,0:0:0:0:
209,49,128742,6,0,P|115:89|117:161,1,150.000005722046,0|0,1:0|1:0,0:0:0:0:
261,290,128976,2,0,P|186:266|181:186,1,150.000005722046,2|0,3:0|0:0,0:0:0:0:
270,132,129210,2,0,P|307:134|344:142,1,75.0000028610231,2|0,1:0|0:0,0:0:0:0:
483,195,129367,5,2,3:2:0:0:
483,195,130617,2,0,P|437:135|466:47,1,150.000005722046,4|0,0:0|0:0,0:0:0:0:
274,140,130851,2,0,P|340:121|353:28,1,150.000005722046,0|0,1:0|0:0,0:0:0:0:
406,234,131085,2,0,P|369:219|333:213,1,75.0000028610231,2|0,1:3|0:0,0:0:0:0:
279,56,131242,6,0,P|206:83|132:89,1,150.000005722046,0|0,1:0|0:0,0:0:0:0:
149,230,131476,2,0,P|76:198|4:191,1,150.000005722046,2|0,3:0|0:0,0:0:0:0:
4,191,131710,2,0,P|26:172|97:184,1,75.0000028610231,2|0,1:0|0:0,0:0:0:0:
221,314,131867,5,4,1:0:0:0:
221,314,133117,2,0,P|270:272|232:182,1,150.000005722046,4|0,1:2|0:0,0:0:0:0:
146,107,133351,2,0,P|180:174|258:160,1,150.000005722046,0|0,1:0|0:0,0:0:0:0:
342,187,133585,2,0,P|304:189|278:234,1,75.0000028610231,2|0,1:3|0:0,0:0:0:0:
58,272,133742,6,0,P|138:260|205:246,1,150.000005722046,0|0,1:0|0:0,0:0:0:0:
326,51,133976,2,0,P|295:119|268:189,1,150.000005722046,2|0,3:0|1:0,0:0:0:0:
335,330,134210,2,0,P|311:298|286:272,1,75.0000028610231,2|0,1:0|0:0,0:0:0:0:
126,95,134367,5,8,3:0:0:0:
126,95,134523,1,0,3:0:0:0:
477,159,134679,5,8,0:0:0:0:
357,215,134835,1,0,1:0:0:0:
144,306,134992,5,2,3:2:0:0:
245,158,135148,1,0,3:2:0:0:
329,9,135304,5,8,0:0:0:0:
385,350,135460,1,2,1:0:0:0:
49,182,135617,6,0,L|34:59,1,100,6|0,1:2|0:0,0:0:0:0:
307,88,135929,1,10,0:0:0:0:
125,259,136085,1,0,3:0:0:0:
377,259,136242,6,0,L|410:133,1,100,2|0,0:0|1:0,0:0:0:0:
192,164,136554,1,10,0:0:0:0:
296,365,136710,1,0,1:0:0:0:
5,354,136867,6,0,B|66:322|152:370|213:317,1,200,2|10,3:2|0:0,0:0:0:0:
297,218,137335,1,0,0:0:0:0:
120,77,137492,5,2,1:2:0:0:
324,129,137648,1,2,3:2:0:0:
496,166,137804,1,10,0:0:0:0:
264,38,137960,5,0,1:0:0:0:
394,207,138117,2,0,P|401:259|404:306,1,100,4|0,3:2|1:0,0:0:0:0:
262,368,138429,1,10,0:0:0:0:
96,313,138585,1,0,3:0:0:0:
60,142,138742,6,0,P|63:94|75:27,1,100,2|2,0:0|1:3,0:0:0:0:
277,20,139054,1,10,0:0:0:0:
416,163,139210,1,2,0:3:0:0:
272,259,139367,6,0,P|198:243|166:210,1,100,2|0,1:2|3:0,0:0:0:0:
387,15,139679,2,0,P|351:105|260:136,1,200,10|2,0:0|1:2,0:0:0:0:
40,25,140148,5,2,0:0:0:0:
75,192,140304,1,10,0:0:0:0:
110,357,140460,1,0,3:0:0:0:
136,113,140617,6,0,P|143:64|155:4,1,100,4|0,1:0|0:0,0:0:0:0:
6,136,140929,1,10,0:0:0:0:
190,269,141085,1,0,3:0:0:0:
404,215,141242,6,0,P|400:157|383:86,1,100,2|0,0:0|1:0,0:0:0:0:
500,244,141554,1,10,0:0:0:0:
315,374,141710,1,0,1:0:0:0:
99,317,141867,6,0,P|93:249|187:169,1,200,2|10,3:2|0:0,0:0:0:0:
299,269,142335,1,0,0:0:0:0:
413,272,142492,2,0,L|282:253,1,100,2|2,1:2|3:0,0:0:0:0:
500,124,142804,1,10,0:0:0:0:
320,157,142960,1,0,1:0:0:0:
414,142,143117,5,4,3:2:0:0:
256,91,143273,1,2,1:3:0:0:
256,91,143351,1,0,0:0:0:0:
256,91,143429,1,10,0:0:0:0:
296,243,143585,1,0,3:0:0:0:
51,320,143742,5,2,0:0:0:0:
158,286,143898,1,0,1:3:0:0:
71,213,144054,1,10,0:0:0:0:
68,335,144210,5,0,0:0:0:0:
222,215,144367,1,2,1:2:0:0:
19,146,144523,1,0,3:0:0:0:
85,350,144679,5,10,0:0:0:0:
208,103,144835,1,0,3:0:0:0:
413,313,144992,2,0,P|334:304|270:308,1,100,2|2,1:2|0:0,0:0:0:0:
40,67,145304,2,0,P|98:60|153:46,1,100,10|0,0:0|1:0,0:0:0:0:
450,0,145538,1,0,0:0:0:0:
450,0,145617,6,0,P|440:48|433:98,1,100,4|0,1:0|0:0,0:0:0:0:
293,36,145929,1,10,0:0:0:0:
348,222,146085,1,0,3:0:0:0:
126,153,146242,6,0,P|122:237|110:280,1,100,2|0,1:2|1:0,0:0:0:0:
10,193,146554,1,10,0:0:0:0:
238,159,146710,1,0,1:0:0:0:
391,378,146867,6,0,P|395:325|406:263,1,100,2|0,3:2|1:0,0:0:0:0:
477,211,147179,1,10,0:0:0:0:
477,211,147335,1,0,0:0:0:0:
486,345,147492,5,2,1:2:0:0:
294,284,147648,1,2,3:2:0:0:
495,327,147804,1,10,0:0:0:0:
301,374,147960,5,0,1:0:0:0:
121,242,148117,2,0,P|104:145|84:45,1,200,4|10,3:2|0:0,0:0:0:0:
5,153,148585,1,0,3:0:0:0:
216,178,148742,1,2,0:0:0:0:
201,76,148898,5,2,0:3:0:0:
23,245,149054,1,10,0:0:0:0:
23,245,149210,1,2,3:3:0:0:
244,322,149367,6,0,P|304:314|366:315,1,100,2|0,1:2|3:0,0:0:0:0:
147,242,149679,1,10,0:0:0:0:
449,194,149835,2,0,P|399:190|344:179,1,100,0|2,3:0|1:2,0:0:0:0:
497,94,150148,5,2,0:0:0:0:
270,40,150304,1,10,0:0:0:0:
226,251,150460,1,0,3:0:0:0:
14,179,150617,2,0,L|-2:71,1,100,4|0,1:0|0:0,0:0:0:0:
172,118,150929,1,10,0:0:0:0:
89,378,151085,1,0,3:0:0:0:
452,299,151242,6,0,L|463:193,1,100,2|0,0:0|1:0,0:0:0:0:
303,24,151554,1,10,0:0:0:0:
346,302,151710,1,0,1:0:0:0:
75,230,151867,6,0,L|199:215,1,100,2|0,3:2|1:0,0:0:0:0:
435,107,152179,2,0,L|322:95,1,100,10|0,0:0|0:0,0:0:0:0:
29,25,152492,5,2,1:2:0:0:
48,110,152648,1,2,3:0:0:0:
143,128,152804,1,10,0:0:0:0:
206,61,152960,1,0,1:0:0:0:
441,217,153117,5,4,3:2:0:0:
246,348,153273,1,2,1:3:0:0:
394,326,153429,5,10,0:0:0:0:
147,243,153585,1,0,3:0:0:0:
357,77,153742,1,2,0:0:0:0:
193,104,153898,5,0,1:3:0:0:
460,219,154054,1,10,0:0:0:0:
239,358,154210,1,2,0:3:0:0:
52,138,154367,5,2,1:2:0:0:
336,274,154523,1,0,3:0:0:0:
465,21,154679,5,10,0:0:0:0:
230,178,154835,1,0,3:0:0:0:
15,358,154992,6,0,P|48:347|73:308,1,50,0|0,1:2|0:0,0:0:0:0:
155,270,155148,2,0,P|158:245|154:220,1,50,0|0,3:0|0:0,0:0:0:0:
227,87,155304,5,8,0:0:0:0:
174,91,155382,1,8,1:3:0:0:
107,80,155460,1,0,3:0:0:0:
43,44,155538,1,0,1:0:0:0:
42,43,155617,6,0,P|54:92|60:142,1,100,4|0,0:0|0:0,0:0:0:0:
432,330,155929,2,0,P|426:264|430:192,1,100,0|0,1:0|3:0,0:0:0:0:
248,21,156242,2,0,P|238:73|233:119,1,100,8|0,0:0|0:0,0:0:0:0:
45,357,156554,6,0,P|92:338|148:328,1,100,0|0,3:0|0:0,0:0:0:0:
495,157,156867,2,0,P|446:150|399:134,1,100,2|0,1:0|0:0,0:0:0:0:
43,44,157179,2,0,P|92:61|150:99,1,100,0|0,3:0|3:0,0:0:0:0:
208,142,157413,1,0,0:0:0:0:
220,162,157492,5,8,0:0:0:0:
11,261,157648,1,0,3:0:0:0:
325,358,157804,2,0,P|341:305|352:231,1,100,8|0,0:0|1:0,0:0:0:0:
449,41,158117,2,0,P|370:62|313:65,1,100,4|0,3:2|0:0,0:0:0:0:
111,336,158429,6,0,P|167:319|249:312,1,100,0|0,3:0|3:0,0:0:0:0:
508,188,158742,2,0,P|446:179|368:152,1,100,8|0,0:0|0:0,0:0:0:0:
144,19,159054,2,0,P|174:72|186:124,1,100,0|8,3:0|0:3,0:0:0:0:
372,358,159367,6,0,P|381:304|381:237,1,100,4|0,3:1|0:0,0:0:0:0:
78,113,159679,2,0,P|69:167|69:234,1,100,8|0,0:0|3:0,0:0:0:0:
90,287,159913,1,0,3:0:0:0:
104,308,159992,5,8,0:0:0:0:
438,172,160148,1,2,3:2:0:0:
176,58,160304,5,8,0:0:0:0:
431,189,160460,1,2,1:2:0:0:
468,24,160617,6,0,P|412:49|346:69,1,100,2|0,1:0|0:0,0:0:0:0:
299,369,160929,2,0,P|324:325|356:287,1,100,0|0,3:0|3:0,0:0:0:0:
105,114,161242,2,0,P|124:159|136:208,1,100,8|0,0:0|0:0,0:0:0:0:
16,345,161554,6,0,P|79:328|124:300,1,100,0|0,3:0|0:0,0:0:0:0:
314,217,161867,2,0,P|273:190|226:174,1,100,4|0,3:2|0:0,0:0:0:0:
383,6,162179,2,0,P|396:69|424:121,1,100,0|0,1:0|3:0,0:0:0:0:
475,142,162413,1,0,0:0:0:0:
486,121,162492,5,8,0:0:0:0:
351,345,162648,1,0,3:0:0:0:
137,209,162804,1,8,0:0:0:0:
257,5,162960,1,0,1:0:0:0:
453,237,163117,2,0,P|471:284|478:334,1,100,4|0,3:2|0:0,0:0:0:0:
221,360,163429,6,0,P|144:335|106:332,1,100,0|0,3:0|3:0,0:0:0:0:
393,158,163742,2,0,P|441:143|485:120,1,100,8|0,0:0|0:0,0:0:0:0:
84,63,164054,2,0,P|41:88|8:125,1,100,0|0,3:0|0:0,0:0:0:0:
250,121,164367,6,0,P|263:67|265:20,1,100,0|0,3:0|0:0,0:0:0:0:
262,263,164679,2,0,P|249:317|247:364,1,100,0|0,1:0|3:0,0:0:0:0:
374,350,164913,1,0,3:0:0:0:
394,345,164992,5,8,0:0:0:0:
86,211,165148,1,0,3:0:0:0:
367,72,165304,2,0,B|426:63|441:108|524:98,1,150,8|0,0:0|0:0,0:0:0:0:
512,99,165617,6,0,P|500:194|489:222,1,100,4|0,1:0|0:0,0:0:0:0:
133,127,165929,2,0,P|115:68|113:18,1,100,0|0,0:0|3:0,0:0:0:0:
361,266,166242,2,0,P|353:315|336:362,1,100,8|0,0:0|0:0,0:0:0:0:
36,332,166554,6,0,P|77:305|123:286,1,100,0|0,3:0|0:0,0:0:0:0:
482,230,166867,2,0,P|419:207|372:170,1,100,4|0,3:2|0:0,0:0:0:0:
198,10,167179,2,0,P|228:83|231:141,1,100,0|0,1:0|3:0,0:0:0:0:
234,183,167413,1,0,3:0:0:0:
231,207,167492,5,8,0:0:0:0:
56,146,167648,1,0,3:0:0:0:
367,56,167804,2,0,P|410:46|440:45,2,50,8|8|0,0:0|0:0|1:0,0:0:0:0:
306,353,168117,2,0,P|237:315|185:305,1,100,4|0,3:2|0:0,0:0:0:0:
130,65,168429,6,0,P|139:139|162:191,1,100,0|0,3:0|3:0,0:0:0:0:
468,273,168742,2,0,P|418:276|369:288,1,100,8|0,0:0|0:0,0:0:0:0:
354,13,169054,2,0,P|340:78|309:135,1,100,0|8,3:0|0:3,0:0:0:0:
35,323,169367,6,0,P|84:316|132:301,1,100,4|0,3:1|3:0,0:0:0:0:
503,191,169679,2,0,P|453:184|405:169,1,100,0|0,1:0|3:0,0:0:0:0:
343,124,169913,1,0,3:0:0:0:
326,108,169992,5,8,0:0:0:0:
235,347,170148,1,0,3:0:0:0:
131,65,170304,5,8,0:0:0:0:
253,333,170460,1,0,1:0:0:0:
28,174,170617,6,0,P|9:100|8:56,1,100,6|0,1:0|0:0,0:0:0:0:
363,261,170929,2,0,P|372:338|368:384,1,100,0|0,0:0|3:0,0:0:0:0:
183,116,171242,2,0,P|183:56|194:2,1,100,8|0,0:0|0:0,0:0:0:0:
509,184,171554,6,0,P|499:255|479:311,1,100,0|0,3:0|0:0,0:0:0:0:
115,329,171867,2,0,P|164:280|215:251,1,100,4|0,3:2|0:0,0:0:0:0:
446,108,172179,2,0,P|379:95|323:71,1,100,0|0,1:0|3:0,0:0:0:0:
283,36,172413,1,0,0:0:0:0:
266,19,172492,5,8,0:0:0:0:
331,303,172648,1,0,3:0:0:0:
92,39,172804,2,0,P|107:86|115:135,1,100,8|0,0:0|1:0,0:0:0:0:
331,303,173117,2,0,P|311:233|307:179,1,100,4|0,3:2|0:0,0:0:0:0:
87,319,173429,6,0,P|40:337|-1:365,1,100,0|0,1:0|3:0,0:0:0:0:
212,154,173742,2,0,P|162:150|115:135,1,100,8|0,0:0|0:0,0:0:0:0:
466,109,174054,2,0,P|436:79|385:50,1,100,0|8,3:0|0:3,0:0:0:0:
93,147,174367,6,0,P|141:161|191:167,1,100,4|0,3:1|0:0,0:0:0:0:
447,281,174679,2,0,P|400:266|350:261,1,100,2|0,0:3|0:0,0:0:0:0:
274,109,174913,1,0,3:0:0:0:
274,109,174992,6,0,L|259:62,1,50,8|0,0:0|0:0,0:0:0:0:
267,317,175149,2,0,L|283:365,1,50,0|0,1:0|0:0,0:0:0:0:
403,139,175304,6,0,P|384:153|362:167,1,50,8|0,0:0|0:0,0:0:0:0:
138,294,175460,2,0,P|159:279|181:268,1,50,0|0,1:0|0:0,0:0:0:0:
503,353,175629,6,0,P|443:357|390:322,1,125,4|0,3:0|0:0,0:0:0:0:
282,364,175863,2,0,P|343:356|378:307,1,125,4|0,3:2|0:0,0:0:0:0:
246,167,176097,2,0,P|270:185|282:214,1,62.5,0|0,1:0|0:0,0:0:0:0:
299,284,176254,6,0,P|296:181|321:31,1,250,8|0,0:0|1:0,0:0:0:0:
319,36,176644,1,0,1:0:0:0:
178,207,176800,1,0,1:0:0:0:
164,193,176879,6,0,P|91:206|79:266,1,125,2|0,3:0|0:0,0:0:0:0:
1,219,177113,2,0,P|52:291|51:362,1,125,2|0,3:1|0:0,0:0:0:0:
189,321,177347,2,0,P|138:313|123:275,1,62.5,2|0,3:1|0:0,0:0:0:0:
41,133,177504,5,8,0:0:0:0:
143,86,177660,1,0,3:0:0:0:
253,114,177816,1,8,0:0:0:0:
320,205,177972,1,0,3:0:0:0:
302,364,178129,6,0,P|360:363|390:282,1,125,4|0,1:2|0:0,0:0:0:0:
473,297,178363,1,0,1:0:0:0:
481,314,178441,1,0,3:0:0:0:
406,178,178597,2,0,P|402:147|407:116,1,62.5,0|0,3:0|0:0,0:0:0:0:
512,108,178754,6,0,B|421:147|369:28|255:68,1,250,8|0,0:0|3:0,0:0:0:0:
274,62,179144,1,2,0:0:0:0:
165,242,179300,1,0,1:0:0:0:
181,259,179379,6,0,P|240:252|304:241,1,125,4|0,3:1|0:0,0:0:0:0:
415,311,179613,2,0,P|353:300|291:293,1,125,0|0,3:0|0:0,0:0:0:0:
225,337,179847,2,0,P|246:363|302:357,1,62.5,4|0,3:0|0:0,0:0:0:0:
190,160,180004,6,0,P|115:170|91:296,1,187.5,8|0,0:0|0:0,0:0:0:0:
90,279,180316,1,8,0:0:0:0:
297,209,180472,1,0,1:0:0:0:
508,157,180629,6,0,P|501:99|494:11,1,125,4|0,3:1|0:0,0:0:0:0:
426,179,180863,2,0,P|486:202|504:268,1,125,2|0,3:2|0:0,0:0:0:0:
374,274,181097,2,0,P|410:276|429:231,1,62.5,0|0,1:0|0:0,0:0:0:0:
492,350,181254,5,8,0:0:0:0:
237,277,181410,2,0,P|361:289|478:333,1,250,2|2,0:0|0:0,0:0:0:0:
197,196,181879,6,0,P|263:175|313:117,1,125,0|2,3:0|0:0,0:0:0:0:
122,160,182113,2,0,P|141:89|61:55,1,125,2|2,3:1|1:2,0:0:0:0:
109,56,182347,1,2,3:1:0:0:
45,192,182504,6,0,P|60:222|127:223,1,62.5,8|0,0:0|0:0,0:0:0:0:
36,107,182660,1,0,3:0:0:0:
151,296,182816,6,0,P|192:290|230:258,1,62.5,8|0,0:0|0:0,0:0:0:0:
122,160,182972,1,0,3:0:0:0:
308,294,183129,6,0,P|344:235|321:151,1,125,4|0,1:2|0:0,0:0:0:0:
341,105,183363,2,0,P|265:122|276:183,1,125,0|0,1:0|0:0,0:0:0:0:
394,239,183597,2,0,P|415:215|417:185,1,62.5,0|0,3:0|0:0,0:0:0:0:
206,40,183754,5,8,0:0:0:0:
462,93,183910,2,0,B|391:40|294:127|200:38,1,250,2|2,0:0|0:0,0:0:0:0:
42,133,184379,6,0,P|59:194|71:255,1,125,0|2,3:0|1:0,0:0:0:0:
253,354,184613,2,0,P|265:293|283:233,1,125,0|2,3:0|1:0,0:0:0:0:
89,242,184847,2,0,P|97:271|101:302,1,62.5,4|0,3:0|0:0,0:0:0:0:
34,352,185004,5,8,0:0:0:0:
181,319,185160,1,0,3:0:0:0:
329,354,185316,1,8,0:0:0:0:
473,315,185472,1,0,1:0:0:0:
416,376,185629,6,0,P|392:306|442:179,1,187.5,4|2,0:1|0:0,0:0:0:0:
479,148,185941,1,0,3:0:0:0:
479,148,186097,2,0,P|457:186|404:179,1,62.5,0|0,1:0|0:0,0:0:0:0:
334,139,186254,2,0,P|363:222|519:258,1,250,8|0,0:0|3:0,0:0:0:0:
507,262,186644,1,0,1:0:0:0:
497,60,186800,1,0,1:0:0:0:
492,45,186879,6,0,P|425:61|431:141,1,125,0|2,3:0|0:0,0:0:0:0:
334,139,187113,2,0,P|272:146|250:72,1,125,2|2,3:1|1:2,0:0:0:0:
172,62,187347,2,0,P|144:66|131:111,1,62.5,2|0,3:1|0:0,0:0:0:0:
24,71,187504,5,8,0:0:0:0:
3,291,187660,1,0,3:0:0:0:
210,195,187816,1,8,0:0:0:0:
79,187,187972,5,0,3:0:0:0:
79,187,188050,1,8,0:0:0:0:
79,187,188129,2,0,P|96:251|170:258,1,125,4|0,1:2|0:0,0:0:0:0:
211,326,188363,2,0,P|286:319|303:241,1,125,0|0,1:0|0:0,0:0:0:0:
393,272,188597,2,0,P|386:241|379:210,1,62.5,0|0,3:0|0:0,0:0:0:0:
336,45,188754,6,0,P|357:158|385:290,1,250,8|0,0:0|3:0,0:0:0:0:
378,307,189144,1,0,1:0:0:0:
499,137,189379,6,0,P|430:141|393:72,1,125,0|0,3:0|1:0,0:0:0:0:
305,156,189613,2,0,P|243:132|240:52,1,125,0|0,3:0|1:0,0:0:0:0:
130,73,189847,2,0,P|135:40|141:6,1,62.5,4|0,3:0|0:0,0:0:0:0:
115,56,190004,6,0,L|141:220,1,125,8|0,0:0|3:0,0:0:0:0:
374,250,190316,2,0,L|391:387,1,125,8|0,0:0|1:0,0:0:0:0:
474,301,190629,6,0,P|436:243|359:255,1,125,4|0,3:1|0:0,0:0:0:0:
323,190,190863,1,2,0:0:0:0:
308,208,190941,1,0,3:0:0:0:
256,352,191097,2,0,P|227:338|197:331,1,62.5,0|0,1:0|0:0,0:0:0:0:
63,336,191254,6,0,B|155:356|185:247|320:288,1,250,8|2,0:0|0:3,0:0:0:0:
300,282,191644,1,0,1:0:0:0:
91,258,191879,6,0,P|51:205|43:118,1,125,0|2,3:0|0:0,0:0:0:0:
128,48,192113,2,0,P|135:148|119:195,1,125,2|0,3:1|0:0,0:0:0:0:
180,233,192347,2,0,P|211:208|265:199,1,62.5,2|0,1:1|0:0,0:0:0:0:
422,202,192504,6,0,P|351:177|311:111,1,125,8|0,0:0|3:0,0:0:0:0:
255,349,192816,2,0,P|321:308|405:311,1,125,8|0,0:0|3:0,0:0:0:0:
465,49,193129,6,0,P|450:104|401:48,1,125,4|0,1:2|0:0,0:0:0:0:
372,15,193363,1,0,1:0:0:0:
395,11,193441,1,0,3:0:0:0:
461,191,193597,2,0,P|404:187|379:147,1,62.5,0|0,3:0|0:0,0:0:0:0:
233,112,193754,6,0,P|231:48|103:70,1,187.5,8|0,0:0|0:0,0:0:0:0:
56,137,194066,2,0,P|141:135|116:29,1,187.5,4|0,0:3|0:0,0:0:0:0:
38,4,194379,6,0,P|59:70|64:121,1,62.5,0|0,3:0|0:0,0:0:0:0:
182,264,194535,6,0,P|188:233|198:204,1,62.5,0|0,3:0|0:0,0:0:0:0:
379,143,194691,6,0,P|322:179|291:187,1,62.5,0|0,3:0|0:0,0:0:0:0:
276,335,194847,6,0,P|328:346|371:368,1,62.5,0|0,3:0|0:0,0:0:0:0:
488,307,195004,5,8,0:0:0:0:
81,246,195160,1,0,3:0:0:0:
478,321,195316,5,8,0:0:0:0:
71,260,195472,1,2,1:3:0:0:
