osu file format v14

[General]
AudioFilename: audio.mp3
AudioLeadIn: 0
PreviewTime: 3747
Countdown: 0
SampleSet: Normal
StackLeniency: 1
Mode: 1
LetterboxInBreaks: 0
WidescreenStoryboard: 1

[Editor]
Bookmarks: 30234,36720,38882,45099,47531,56180,64828,73477,82126
DistanceSpacing: 1.9
BeatDivisor: 4
GridSize: 32
TimelineZoom: 3.799999

[Metadata]
Title:MIRROR FRAGMENT
TitleUnicode:MIRROR FRAGMENT
Artist:HARI KARI
ArtistUnicode:HARI KARI
Creator:D3kuu
Version:REPLICA
Source:
Tags:electronic instrumental axer bms breakcore BOFU of Fighters Ultimate 2016 Legendary Again BROKEN TIME pulse.var free stuff #2 nitro
BeatmapID:2248574
BeatmapSetID:971297

[Difficulty]
HPDrainRate:5
CircleSize:2
OverallDifficulty:7
ApproachRate:10
SliderMultiplier:1.4
SliderTickRate:1

[Events]
//Background and Video events
0,0,"DvvvOopUYAAUI0D.jpg_large.jpg",0,-35
//Break Periods
2,17478,19801
//Storyboard Layer 0 (Background)
//Storyboard Layer 1 (Fail)
//Storyboard Layer 2 (Pass)
//Storyboard Layer 3 (Foreground)
//Storyboard Layer 4 (Overlay)
//Storyboard Sound Samples

[TimingPoints]
-19,270.27027027027,4,1,0,100,1,0
0,-133.333333333333,4,1,0,60,0,0
21467,-100,4,1,0,100,0,0
83832,-99.009900990099,4,1,0,100,0,0
83899,-98.0392156862745,4,1,0,100,0,0
83967,-97.0873786407767,4,1,0,100,0,0
84035,-96.1538461538461,4,1,0,100,0,0
84080,-95.2380952380952,4,1,0,100,0,0
84125,-94.3396226415094,4,1,0,100,0,0
84170,-93.4579439252336,4,1,0,100,0,0
84215,-92.5925925925926,4,1,0,100,0,0
84260,-91.743119266055,4,1,0,100,0,0
84305,-90.9090909090909,4,1,0,100,0,1
92413,-92.5925925925926,4,1,0,100,0,1
92480,-93.4579439252336,4,1,0,100,0,1
92548,-94.3396226415094,4,1,0,100,0,1
92616,-95.2380952380952,4,1,0,100,0,1
92683,-96.1538461538461,4,1,0,100,0,1
92818,-98.0392156862745,4,1,0,100,0,1
92953,-100,4,1,0,100,0,0
101129,-99.009900990099,4,1,0,100,0,0
101197,-98.0392156862745,4,1,0,100,0,0
101264,-97.0873786407767,4,1,0,100,0,0
101332,-96.1538461538461,4,1,0,100,0,0
101377,-95.2380952380952,4,1,0,100,0,0
101422,-94.3396226415094,4,1,0,100,0,0
101467,-93.4579439252336,4,1,0,100,0,0
101512,-92.5925925925926,4,1,0,100,0,0
101557,-91.743119266055,4,1,0,100,0,0
101602,-90.9090909090909,4,1,0,100,0,1
109710,-92.5925925925926,4,1,0,100,0,1
109778,-93.4579439252336,4,1,0,100,0,1
109845,-94.3396226415094,4,1,0,100,0,1
109913,-95.2380952380952,4,1,0,100,0,1
109980,-96.1538461538461,4,1,0,100,0,1
110116,-98.0392156862745,4,1,0,100,0,1
110251,-100,4,1,0,100,0,0
120589,-99.009900990099,4,1,0,100,0,0
120656,-98.0392156862745,4,1,0,100,0,0
120724,-97.0873786407767,4,1,0,100,0,0
120791,-96.1538461538461,4,1,0,100,0,0
120836,-95.2380952380952,4,1,0,100,0,0
120881,-94.3396226415094,4,1,0,100,0,0
120926,-93.4579439252336,4,1,0,100,0,0
120971,-92.5925925925926,4,1,0,100,0,0
121017,-91.743119266055,4,1,0,100,0,0
121062,-90.9090909090909,4,1,0,100,0,1
128224,-91.743119266055,4,1,0,100,0,1
128269,-92.5925925925926,4,1,0,100,0,1
128314,-93.4579439252336,4,1,0,100,0,1
128359,-94.3396226415094,4,1,0,100,0,1
128494,-97.0873786407767,4,1,0,100,0,1
128539,-98.0392156862745,4,1,0,100,0,1
128584,-99.009900990099,4,1,0,100,0,1
128629,-100,4,1,0,100,0,0
129170,-99.009900990099,4,1,0,100,0,0
129305,-97.0873786407767,4,1,0,100,0,0
129440,-95.2380952380952,4,1,0,100,0,0
129508,-94.3396226415094,4,1,0,100,0,0
129575,-93.4579439252336,4,1,0,100,0,0
129620,-92.5925925925926,4,1,0,100,0,0
129665,-91.743119266055,4,1,0,100,0,0
129710,-90.9090909090909,4,1,0,100,0,1
133426,-91.743119266055,4,1,0,100,0,1
133494,-92.5925925925926,4,1,0,100,0,1
133562,-93.4579439252336,4,1,0,100,0,1
133629,-94.3396226415094,4,1,0,100,0,1
133697,-95.2380952380952,4,1,0,100,0,1
133764,-96.1538461538461,4,1,0,100,0,1
133899,-98.0392156862745,4,1,0,100,0,1
134035,-100,4,1,0,100,0,0

[HitObjects]
296,154,3764,5,0,0:0:0:0:
206,371,4035,1,0,0:0:0:0:
256,192,4305,5,8,0:0:0:0:
256,192,4845,1,0,0:0:0:0:
256,192,5116,1,0,0:0:0:0:
256,192,5386,1,8,0:0:0:0:
256,192,5926,1,8,0:0:0:0:
256,192,6197,1,0,0:0:0:0:
256,192,6467,1,8,0:0:0:0:
256,192,6737,1,8,0:0:0:0:
256,192,7008,1,0,0:0:0:0:
256,192,7548,1,8,0:0:0:0:
256,192,7818,1,0,0:0:0:0:
256,192,8089,1,8,0:0:0:0:
256,192,8359,1,0,0:0:0:0:
256,192,8629,1,8,0:0:0:0:
199,110,9170,1,8,0:0:0:0:
256,192,9440,1,0,0:0:0:0:
256,192,9710,1,0,0:0:0:0:
256,192,10251,1,0,0:0:0:0:
256,192,10521,1,8,0:0:0:0:
256,192,10791,1,8,0:0:0:0:
256,192,11062,1,0,0:0:0:0:
256,192,11332,1,0,0:0:0:0:
256,192,11602,1,8,0:0:0:0:
256,192,11692,1,0,0:0:0:0:
256,192,11782,1,0,0:0:0:0:
256,192,11872,1,8,0:0:0:0:
256,192,12413,1,0,0:0:0:0:
256,192,12683,1,0,0:0:0:0:
256,192,12953,1,8,0:0:0:0:
256,192,13224,1,0,0:0:0:0:
256,192,13494,1,0,0:0:0:0:
256,192,13764,1,0,0:0:0:0:
256,192,14035,1,8,0:0:0:0:
256,192,14575,1,0,0:0:0:0:
256,192,14845,1,8,0:0:0:0:
256,192,15116,1,8,0:0:0:0:
256,192,16467,1,8,0:0:0:0:
256,192,16737,1,0,0:0:0:0:
256,192,17008,1,0,0:0:0:0:
256,192,17278,1,8,0:0:0:0:
256,192,20251,12,0,21332,0:0:0:0:
194,142,21602,5,0,0:0:0:0:
256,192,21872,5,8,0:0:0:0:
256,192,22008,1,8,0:0:0:0:
256,192,22075,1,8,0:0:0:0:
256,192,22143,1,0,0:0:0:0:
256,192,22210,1,0,0:0:0:0:
256,192,22278,1,8,0:0:0:0:
256,192,22413,1,0,0:0:0:0:
256,192,22683,1,8,0:0:0:0:
256,192,22751,1,8,0:0:0:0:
256,192,22818,1,8,0:0:0:0:
256,192,22886,1,8,0:0:0:0:
256,192,22953,1,0,0:0:0:0:
256,192,23089,1,8,0:0:0:0:
256,192,23224,1,0,0:0:0:0:
256,192,23359,1,8,0:0:0:0:
256,192,23494,1,0,0:0:0:0:
256,192,23562,1,0,0:0:0:0:
256,192,23629,1,8,0:0:0:0:
256,192,23674,1,8,0:0:0:0:
256,192,23719,1,8,0:0:0:0:
256,192,23764,1,0,0:0:0:0:
256,192,23832,1,0,0:0:0:0:
256,192,23899,1,8,0:0:0:0:
256,192,24035,1,8,0:0:0:0:
256,192,24068,1,8,0:0:0:0:
256,192,24102,1,8,0:0:0:0:
256,192,24170,1,0,0:0:0:0:
256,192,24305,1,8,0:0:0:0:
256,192,24440,1,0,0:0:0:0:
256,192,24508,1,0,0:0:0:0:
256,192,24575,1,8,0:0:0:0:
256,192,24643,1,8,0:0:0:0:
256,192,24710,1,0,0:0:0:0:
256,192,24778,1,0,0:0:0:0:
256,192,24845,1,0,0:0:0:0:
256,192,24980,1,8,0:0:0:0:
256,192,25048,1,0,0:0:0:0:
256,192,25116,1,8,0:0:0:0:
256,192,25183,1,8,0:0:0:0:
256,192,25251,1,0,0:0:0:0:
469,364,25386,1,8,0:0:0:0:
256,192,25521,1,8,0:0:0:0:
256,192,25656,1,0,0:0:0:0:
256,192,25791,1,8,0:0:0:0:
256,192,25859,1,8,0:0:0:0:
256,192,25926,1,0,0:0:0:0:
186,178,26062,1,8,0:0:0:0:
296,145,26129,1,0,0:0:0:0:
256,192,26197,1,8,0:0:0:0:
256,192,26332,1,0,0:0:0:0:
256,192,26399,1,8,0:0:0:0:
256,192,26467,1,0,0:0:0:0:
256,192,26535,1,0,0:0:0:0:
256,192,26602,1,8,0:0:0:0:
256,192,26647,1,8,0:0:0:0:
256,192,26692,1,8,0:0:0:0:
256,192,26737,1,0,0:0:0:0:
256,192,26872,1,8,0:0:0:0:
256,192,27008,1,0,0:0:0:0:
256,192,27075,1,0,0:0:0:0:
256,192,27143,1,0,0:0:0:0:
256,192,27210,1,0,0:0:0:0:
256,192,27278,1,8,0:0:0:0:
256,192,27413,1,8,0:0:0:0:
256,192,27548,1,0,0:0:0:0:
256,192,27683,1,8,0:0:0:0:
256,192,27751,1,0,0:0:0:0:
256,192,27818,1,8,0:0:0:0:
256,192,27886,1,0,0:0:0:0:
256,192,27953,1,8,0:0:0:0:
256,192,27999,1,8,0:0:0:0:
256,192,28044,1,8,0:0:0:0:
256,192,28089,1,0,0:0:0:0:
256,192,28156,1,8,0:0:0:0:
256,192,28224,1,0,0:0:0:0:
256,192,28359,1,8,0:0:0:0:
256,192,28404,1,8,0:0:0:0:
256,192,28449,1,8,0:0:0:0:
256,192,28494,1,8,0:0:0:0:
256,192,28539,1,8,0:0:0:0:
256,192,28584,1,8,0:0:0:0:
256,192,28629,1,0,0:0:0:0:
256,192,28764,1,0,0:0:0:0:
256,192,28832,1,0,0:0:0:0:
256,192,28899,1,8,0:0:0:0:
256,192,28944,1,8,0:0:0:0:
256,192,28990,1,8,0:0:0:0:
256,192,29035,1,8,0:0:0:0:
256,192,29080,1,8,0:0:0:0:
256,192,29125,1,8,0:0:0:0:
256,192,29170,1,0,0:0:0:0:
256,192,29237,1,0,0:0:0:0:
256,192,29305,1,8,0:0:0:0:
256,192,29372,1,8,0:0:0:0:
256,192,29440,1,0,0:0:0:0:
256,192,29485,1,0,0:0:0:0:
256,192,29530,1,0,0:0:0:0:
256,192,29575,1,0,0:0:0:0:
256,192,29620,1,0,0:0:0:0:
256,192,29665,1,0,0:0:0:0:
256,192,29710,1,8,0:0:0:0:
256,192,29845,1,8,0:0:0:0:
256,192,29980,1,8,0:0:0:0:
256,192,30116,1,8,0:0:0:0:
256,192,30251,1,4,0:0:0:0:
256,192,30386,1,0,0:0:0:0:
256,192,30453,1,0,0:0:0:0:
256,192,30521,1,8,0:0:0:0:
212,149,30656,1,8,0:0:0:0:
225,148,30724,1,8,0:0:0:0:
85,113,30791,1,0,0:0:0:0:
97,113,30859,1,0,0:0:0:0:
256,192,30926,1,0,0:0:0:0:
256,192,31062,1,8,0:0:0:0:
256,192,31197,1,8,0:0:0:0:
342,148,31264,1,8,0:0:0:0:
256,192,31332,1,0,0:0:0:0:
428,146,31399,1,8,0:0:0:0:
168,156,31467,1,0,0:0:0:0:
181,153,31602,1,8,0:0:0:0:
256,192,31737,1,8,0:0:0:0:
290,47,31805,1,8,0:0:0:0:
256,192,31872,1,0,0:0:0:0:
256,192,32008,1,0,0:0:0:0:
256,192,32143,1,8,0:0:0:0:
256,192,32278,1,0,0:0:0:0:
256,192,32345,1,0,0:0:0:0:
256,192,32413,1,8,0:0:0:0:
229,122,32548,1,8,0:0:0:0:
346,129,32683,1,0,0:0:0:0:
357,128,32751,1,0,0:0:0:0:
256,192,32818,1,8,0:0:0:0:
256,192,32886,1,8,0:0:0:0:
256,192,32953,1,0,0:0:0:0:
256,192,33089,1,8,0:0:0:0:
256,192,33224,1,0,0:0:0:0:
256,192,33359,1,0,0:0:0:0:
256,192,33426,1,0,0:0:0:0:
256,192,33494,1,8,0:0:0:0:
256,192,33562,1,8,0:0:0:0:
256,192,33629,1,0,0:0:0:0:
234,78,33697,1,8,0:0:0:0:
256,192,33764,1,0,0:0:0:0:
256,192,33899,1,0,0:0:0:0:
256,192,33967,1,0,0:0:0:0:
256,192,34035,1,8,0:0:0:0:
256,192,34170,1,0,0:0:0:0:
256,192,34305,1,0,0:0:0:0:
256,192,34440,1,8,0:0:0:0:
256,192,34508,1,8,0:0:0:0:
256,192,34575,1,0,0:0:0:0:
256,192,34710,1,0,0:0:0:0:
256,192,34778,1,8,0:0:0:0:
256,192,34845,1,0,0:0:0:0:
137,142,34913,1,0,0:0:0:0:
256,192,34980,1,8,0:0:0:0:
256,192,35048,1,8,0:0:0:0:
256,192,35116,1,0,0:0:0:0:
256,192,35183,1,8,0:0:0:0:
256,192,35251,1,0,0:0:0:0:
256,192,35318,1,0,0:0:0:0:
256,192,35386,1,8,0:0:0:0:
256,192,35521,1,0,0:0:0:0:
256,192,35656,1,8,0:0:0:0:
256,192,35724,1,8,0:0:0:0:
256,192,35791,1,8,0:0:0:0:
256,192,35859,1,8,0:0:0:0:
256,192,35926,1,0,0:0:0:0:
256,192,36062,1,8,0:0:0:0:
256,192,36197,1,8,0:0:0:0:
256,192,36264,1,8,0:0:0:0:
256,192,36332,1,0,0:0:0:0:
256,192,36467,1,0,0:0:0:0:
256,192,36535,1,0,0:0:0:0:
256,192,36602,1,0,0:0:0:0:
256,192,36670,1,0,0:0:0:0:
256,192,36737,1,12,0:0:0:0:
256,192,36872,1,0,0:0:0:0:
247,177,36940,1,0,0:0:0:0:
256,192,37008,1,0,0:0:0:0:
256,192,37143,1,12,0:0:0:0:
256,192,37278,1,0,0:0:0:0:
328,179,37345,1,0,0:0:0:0:
256,192,37413,1,0,0:0:0:0:
256,192,37548,1,12,0:0:0:0:
256,192,37683,1,8,0:0:0:0:
256,192,37818,1,0,0:0:0:0:
256,192,37953,1,8,0:0:0:0:
253,138,38021,1,8,0:0:0:0:
256,192,38089,1,0,0:0:0:0:
256,192,38224,1,8,0:0:0:0:
298,158,38291,1,8,0:0:0:0:
256,192,38359,1,0,0:0:0:0:
256,192,38426,1,0,0:0:0:0:
256,192,38494,1,8,0:0:0:0:
256,192,38562,1,0,0:0:0:0:
256,192,38629,1,8,0:0:0:0:
256,192,38674,1,8,0:0:0:0:
256,192,38719,1,8,0:0:0:0:
256,192,38764,1,8,0:0:0:0:
256,192,38809,1,8,0:0:0:0:
256,192,38854,1,8,0:0:0:0:
256,192,38899,1,0,0:0:0:0:
256,192,39035,1,0,0:0:0:0:
256,192,39102,1,0,0:0:0:0:
256,192,39170,1,8,0:0:0:0:
256,192,39305,1,8,0:0:0:0:
256,192,39350,1,8,0:0:0:0:
256,192,39395,1,8,0:0:0:0:
256,192,39440,1,0,0:0:0:0:
256,192,39508,1,8,0:0:0:0:
256,192,39575,1,0,0:0:0:0:
256,192,39643,1,0,0:0:0:0:
256,192,39710,1,8,0:0:0:0:
256,192,39845,1,8,0:0:0:0:
256,192,39913,1,8,0:0:0:0:
256,192,39980,1,0,0:0:0:0:
256,192,40048,1,0,0:0:0:0:
256,192,40116,1,8,0:0:0:0:
144,148,40251,1,0,0:0:0:0:
163,137,40318,1,0,0:0:0:0:
256,192,40386,1,0,0:0:0:0:
199,86,40453,1,0,0:0:0:0:
256,192,40521,1,8,0:0:0:0:
256,192,40656,1,0,0:0:0:0:
256,192,40791,1,0,0:0:0:0:
256,192,40926,1,0,0:0:0:0:
256,192,40994,1,0,0:0:0:0:
256,192,41062,1,8,0:0:0:0:
256,192,41197,1,8,0:0:0:0:
256,192,41332,1,0,0:0:0:0:
256,192,41467,1,8,0:0:0:0:
256,192,41535,1,8,0:0:0:0:
256,192,41602,1,0,0:0:0:0:
256,192,41670,1,8,0:0:0:0:
256,192,41737,1,8,0:0:0:0:
256,192,41805,1,0,0:0:0:0:
155,60,41872,1,8,0:0:0:0:
173,64,41940,1,0,0:0:0:0:
256,192,42008,1,8,0:0:0:0:
256,192,42075,1,8,0:0:0:0:
256,192,42143,1,0,0:0:0:0:
256,192,42210,1,0,0:0:0:0:
256,192,42278,1,0,0:0:0:0:
256,192,42345,1,0,0:0:0:0:
256,192,42413,1,8,0:0:0:0:
256,192,42548,1,0,0:0:0:0:
256,192,42616,1,0,0:0:0:0:
256,192,42683,1,8,0:0:0:0:
256,192,42751,1,8,0:0:0:0:
256,192,42818,1,8,0:0:0:0:
256,192,42886,1,8,0:0:0:0:
256,192,42953,1,0,0:0:0:0:
256,192,43089,1,8,0:0:0:0:
256,192,43224,1,0,0:0:0:0:
256,192,43359,1,0,0:0:0:0:
256,192,43426,1,8,0:0:0:0:
256,192,43494,1,0,0:0:0:0:
256,192,43629,1,8,0:0:0:0:
256,192,43674,1,8,0:0:0:0:
256,192,43719,1,8,0:0:0:0:
256,192,43764,1,0,0:0:0:0:
256,192,43832,1,8,0:0:0:0:
256,192,43899,1,0,0:0:0:0:
256,192,43967,1,0,0:0:0:0:
256,192,44035,1,8,0:0:0:0:
316,129,44102,1,8,0:0:0:0:
256,192,44170,1,0,0:0:0:0:
157,190,44237,1,0,0:0:0:0:
256,192,44305,1,8,0:0:0:0:
256,192,44372,1,8,0:0:0:0:
256,192,44440,1,8,0:0:0:0:
256,192,44508,1,8,0:0:0:0:
256,192,44575,1,0,0:0:0:0:
256,192,44710,1,0,0:0:0:0:
256,192,44778,1,0,0:0:0:0:
256,192,44845,1,8,0:0:0:0:
256,192,44913,1,8,0:0:0:0:
256,192,44980,1,0,0:0:0:0:
256,192,45116,1,8,0:0:0:0:
256,192,45251,1,0,0:0:0:0:
256,192,45318,1,0,0:0:0:0:
256,192,45386,1,8,0:0:0:0:
256,192,45521,1,0,0:0:0:0:
332,135,45656,1,8,0:0:0:0:
350,135,45724,1,8,0:0:0:0:
369,135,45791,1,0,0:0:0:0:
385,135,45859,1,0,0:0:0:0:
256,192,45926,1,8,0:0:0:0:
188,187,45994,1,8,0:0:0:0:
256,192,46062,1,0,0:0:0:0:
256,192,46107,1,0,0:0:0:0:
256,192,46152,1,0,0:0:0:0:
256,192,46197,1,8,0:0:0:0:
256,192,46332,1,8,0:0:0:0:
256,192,46377,1,0,0:0:0:0:
256,192,46422,1,0,0:0:0:0:
256,192,46467,1,8,0:0:0:0:
256,192,46535,1,8,0:0:0:0:
256,192,46602,1,0,0:0:0:0:
256,192,46670,1,0,0:0:0:0:
256,192,46737,1,8,0:0:0:0:
256,192,46872,1,0,0:0:0:0:
256,192,47008,1,8,0:0:0:0:
256,192,47143,1,8,0:0:0:0:
256,192,47278,1,8,0:0:0:0:
256,192,47345,1,8,0:0:0:0:
256,192,47413,1,0,0:0:0:0:
256,192,47458,1,8,0:0:0:0:
256,192,47503,1,8,0:0:0:0:
256,192,47548,5,0,0:0:0:0:
256,192,47818,1,0,0:0:0:0:
256,192,48089,1,0,0:0:0:0:
245,133,48359,1,8,0:0:0:0:
290,137,48494,1,8,0:0:0:0:
256,192,48629,1,0,0:0:0:0:
205,189,48899,1,8,0:0:0:0:
256,192,49170,1,8,0:0:0:0:
206,169,49305,1,0,0:0:0:0:
256,192,49440,1,8,0:0:0:0:
391,138,49575,1,8,0:0:0:0:
256,192,49710,1,0,0:0:0:0:
256,192,49980,1,8,0:0:0:0:
256,192,50251,1,0,0:0:0:0:
256,192,50521,1,8,0:0:0:0:
277,98,50656,1,8,0:0:0:0:
256,192,50791,1,0,0:0:0:0:
256,192,51062,1,8,0:0:0:0:
256,192,51332,1,0,0:0:0:0:
256,192,51467,1,8,0:0:0:0:
256,192,51602,1,8,0:0:0:0:
256,192,51872,1,0,0:0:0:0:
256,192,52143,1,8,0:0:0:0:
256,192,52413,1,0,0:0:0:0:
256,192,52683,1,8,0:0:0:0:
309,198,52818,1,0,0:0:0:0:
256,192,52953,1,8,0:0:0:0:
256,192,53224,1,0,0:0:0:0:
342,144,53359,1,8,0:0:0:0:
256,192,53494,1,0,0:0:0:0:
230,158,53764,1,8,0:0:0:0:
199,124,53899,5,8,0:0:0:0:
256,192,54035,1,0,0:0:0:0:
256,192,54305,1,8,0:0:0:0:
256,192,54575,1,0,0:0:0:0:
387,138,54710,1,8,0:0:0:0:
256,192,54845,1,0,0:0:0:0:
311,182,54980,1,0,0:0:0:0:
256,192,55116,1,8,0:0:0:0:
256,192,55386,1,0,0:0:0:0:
256,192,55656,1,0,0:0:0:0:
256,192,55791,1,8,0:0:0:0:
256,192,55926,1,0,0:0:0:0:
256,192,56062,1,0,0:0:0:0:
256,192,56197,1,8,0:0:0:0:
256,192,56332,1,0,0:0:0:0:
256,192,56467,1,8,0:0:0:0:
256,192,56602,1,0,0:0:0:0:
256,192,56670,1,8,0:0:0:0:
256,192,56737,1,0,0:0:0:0:
256,192,56872,1,8,0:0:0:0:
256,192,56940,1,8,0:0:0:0:
256,192,57008,1,0,0:0:0:0:
256,192,57075,1,8,0:0:0:0:
256,192,57143,1,0,0:0:0:0:
256,192,57210,1,8,0:0:0:0:
256,192,57278,1,0,0:0:0:0:
256,192,57413,1,0,0:0:0:0:
256,192,57548,1,8,0:0:0:0:
256,192,57616,1,8,0:0:0:0:
256,192,57683,1,0,0:0:0:0:
256,192,57751,1,8,0:0:0:0:
256,192,57818,1,0,0:0:0:0:
256,192,57953,1,8,0:0:0:0:
256,192,58021,1,0,0:0:0:0:
256,192,58089,1,0,0:0:0:0:
256,192,58156,1,8,0:0:0:0:
256,192,58224,1,0,0:0:0:0:
256,192,58291,1,8,0:0:0:0:
256,192,58359,1,0,0:0:0:0:
256,192,58494,1,0,0:0:0:0:
256,192,58629,1,8,0:0:0:0:
256,192,58764,1,0,0:0:0:0:
256,192,58832,1,8,0:0:0:0:
256,192,58899,1,0,0:0:0:0:
256,192,59035,1,8,0:0:0:0:
256,192,59170,1,8,0:0:0:0:
256,192,59237,1,0,0:0:0:0:
256,192,59305,1,8,0:0:0:0:
256,192,59372,1,8,0:0:0:0:
256,192,59440,1,0,0:0:0:0:
256,192,59575,1,0,0:0:0:0:
256,192,59710,1,8,0:0:0:0:
256,192,59845,1,0,0:0:0:0:
256,192,59913,1,8,0:0:0:0:
256,192,59980,1,0,0:0:0:0:
256,192,60116,1,8,0:0:0:0:
256,192,60251,1,8,0:0:0:0:
256,192,60318,1,0,0:0:0:0:
256,192,60386,1,0,0:0:0:0:
256,192,60453,1,8,0:0:0:0:
256,192,60521,1,0,0:0:0:0:
256,192,60656,1,0,0:0:0:0:
256,192,60791,1,8,0:0:0:0:
256,192,60926,1,0,0:0:0:0:
256,192,60994,1,8,0:0:0:0:
256,192,61062,1,0,0:0:0:0:
256,192,61197,1,8,0:0:0:0:
256,192,61264,1,8,0:0:0:0:
256,192,61332,1,0,0:0:0:0:
256,192,61399,1,8,0:0:0:0:
256,192,61467,1,0,0:0:0:0:
256,192,61535,1,8,0:0:0:0:
256,192,61602,1,0,0:0:0:0:
256,192,61737,1,0,0:0:0:0:
256,192,61872,1,8,0:0:0:0:
256,192,61940,1,8,0:0:0:0:
256,192,62008,1,0,0:0:0:0:
256,192,62075,1,8,0:0:0:0:
256,192,62143,1,0,0:0:0:0:
256,192,62278,1,8,0:0:0:0:
256,192,62345,1,0,0:0:0:0:
256,192,62413,1,0,0:0:0:0:
256,192,62480,1,8,0:0:0:0:
256,192,62548,1,0,0:0:0:0:
256,192,62616,1,8,0:0:0:0:
256,192,62683,1,0,0:0:0:0:
256,192,62818,1,0,0:0:0:0:
256,192,62953,1,8,0:0:0:0:
256,192,63089,1,0,0:0:0:0:
256,192,63156,1,8,0:0:0:0:
256,192,63224,1,0,0:0:0:0:
256,192,63359,1,8,0:0:0:0:
256,192,63494,1,8,0:0:0:0:
256,192,63562,1,0,0:0:0:0:
256,192,63629,1,8,0:0:0:0:
256,192,63697,1,8,0:0:0:0:
256,192,63764,1,0,0:0:0:0:
256,192,63899,1,0,0:0:0:0:
256,192,64035,1,8,0:0:0:0:
256,192,64170,1,0,0:0:0:0:
256,192,64237,1,8,0:0:0:0:
256,192,64305,1,8,0:0:0:0:
256,192,64372,1,0,0:0:0:0:
256,192,64440,1,8,0:0:0:0:
256,192,64508,1,0,0:0:0:0:
256,192,64575,1,8,0:0:0:0:
256,192,64620,1,8,0:0:0:0:
256,192,64665,1,8,0:0:0:0:
256,192,64710,1,8,0:0:0:0:
256,192,64755,1,8,0:0:0:0:
256,192,64800,1,8,0:0:0:0:
256,192,64845,1,0,0:0:0:0:
256,192,65048,1,0,0:0:0:0:
256,192,65116,1,8,0:0:0:0:
256,192,65251,1,0,0:0:0:0:
256,192,65386,1,8,0:0:0:0:
256,192,65453,1,8,0:0:0:0:
256,192,65521,1,0,0:0:0:0:
256,192,65656,1,8,0:0:0:0:
256,192,65701,1,8,0:0:0:0:
256,192,65746,1,8,0:0:0:0:
256,192,65791,1,8,0:0:0:0:
256,192,65836,1,8,0:0:0:0:
256,192,65881,1,8,0:0:0:0:
256,192,65926,1,0,0:0:0:0:
446,130,65994,1,8,0:0:0:0:
144,178,66062,1,0,0:0:0:0:
339,130,66129,1,0,0:0:0:0:
256,192,66197,1,8,0:0:0:0:
225,179,66332,1,8,0:0:0:0:
97,188,66467,1,0,0:0:0:0:
395,151,66737,5,0,0:0:0:0:
411,151,66805,1,0,0:0:0:0:
263,143,66872,1,8,0:0:0:0:
272,143,66940,1,8,0:0:0:0:
133,136,67008,1,0,0:0:0:0:
256,192,67278,1,8,0:0:0:0:
256,192,67413,1,0,0:0:0:0:
256,192,67548,1,8,0:0:0:0:
256,192,67616,1,8,0:0:0:0:
256,192,67683,1,0,0:0:0:0:
256,192,67751,1,0,0:0:0:0:
256,192,67818,1,8,0:0:0:0:
256,192,67863,1,0,0:0:0:0:
256,192,67908,1,0,0:0:0:0:
256,192,67953,1,8,0:0:0:0:
355,71,68021,1,8,0:0:0:0:
256,192,68089,1,0,0:0:0:0:
256,192,68156,1,0,0:0:0:0:
256,192,68224,1,8,0:0:0:0:
256,192,68291,1,8,0:0:0:0:
256,192,68359,1,0,0:0:0:0:
256,192,68494,1,0,0:0:0:0:
256,192,68629,1,8,0:0:0:0:
192,361,68764,1,8,0:0:0:0:
256,192,68899,1,8,0:0:0:0:
256,192,68944,1,8,0:0:0:0:
256,192,68990,1,0,0:0:0:0:
256,192,69035,1,8,0:0:0:0:
256,192,69080,1,8,0:0:0:0:
256,192,69125,1,0,0:0:0:0:
256,192,69170,1,8,0:0:0:0:
256,192,69305,1,0,0:0:0:0:
256,192,69372,1,0,0:0:0:0:
256,192,69440,1,0,0:0:0:0:
256,192,69575,1,8,0:0:0:0:
256,192,69643,1,0,0:0:0:0:
256,192,69710,1,8,0:0:0:0:
285,162,69778,1,8,0:0:0:0:
256,192,69845,1,0,0:0:0:0:
279,195,69913,1,0,0:0:0:0:
256,192,69980,1,8,0:0:0:0:
256,192,70026,1,8,0:0:0:0:
256,192,70071,1,8,0:0:0:0:
256,192,70116,1,8,0:0:0:0:
256,192,70161,1,8,0:0:0:0:
256,192,70206,1,8,0:0:0:0:
256,192,70251,1,0,0:0:0:0:
256,192,70386,1,8,0:0:0:0:
210,130,70453,1,8,0:0:0:0:
256,192,70521,1,0,0:0:0:0:
256,192,70656,1,0,0:0:0:0:
256,192,70791,1,8,0:0:0:0:
247,133,70926,1,0,0:0:0:0:
256,192,71062,1,0,0:0:0:0:
256,192,71129,1,0,0:0:0:0:
256,192,71197,1,0,0:0:0:0:
256,192,71264,1,0,0:0:0:0:
256,192,71332,1,8,0:0:0:0:
256,192,71535,1,8,0:0:0:0:
256,192,71602,1,8,0:0:0:0:
256,192,71737,1,0,0:0:0:0:
256,192,71872,1,8,0:0:0:0:
363,155,72008,1,8,0:0:0:0:
372,155,72075,1,8,0:0:0:0:
256,192,72143,1,0,0:0:0:0:
256,192,72188,1,0,0:0:0:0:
256,192,72233,1,0,0:0:0:0:
256,192,72278,1,0,0:0:0:0:
256,192,72413,1,8,0:0:0:0:
256,192,72480,1,8,0:0:0:0:
256,192,72548,1,0,0:0:0:0:
256,192,72616,1,0,0:0:0:0:
256,192,72683,1,8,0:0:0:0:
256,192,72751,1,8,0:0:0:0:
256,192,72818,1,0,0:0:0:0:
256,192,72953,1,8,0:0:0:0:
256,192,73089,1,0,0:0:0:0:
256,192,73156,1,0,0:0:0:0:
256,192,73224,1,8,0:0:0:0:
256,192,73269,1,8,0:0:0:0:
256,192,73314,1,8,0:0:0:0:
256,192,73359,1,8,0:0:0:0:
256,192,73404,1,8,0:0:0:0:
256,192,73449,1,8,0:0:0:0:
256,192,73494,1,0,0:0:0:0:
183,131,73629,1,8,0:0:0:0:
256,192,73764,1,0,0:0:0:0:
45,108,73899,1,8,0:0:0:0:
256,192,74035,1,0,0:0:0:0:
285,107,74170,1,8,0:0:0:0:
256,192,74305,1,8,0:0:0:0:
256,192,74350,1,8,0:0:0:0:
256,192,74395,1,8,0:0:0:0:
256,192,74575,1,0,0:0:0:0:
359,191,74710,1,8,0:0:0:0:
256,192,74845,1,0,0:0:0:0:
331,205,74980,1,0,0:0:0:0:
271,38,75048,1,0,0:0:0:0:
408,157,75116,1,0,0:0:0:0:
217,106,75251,1,8,0:0:0:0:
115,142,75386,1,8,0:0:0:0:
125,143,75454,1,8,0:0:0:0:
256,192,75521,1,8,0:0:0:0:
367,140,75656,1,0,0:0:0:0:
164,258,75791,1,8,0:0:0:0:
176,258,75859,1,8,0:0:0:0:
192,258,75927,1,8,0:0:0:0:
211,258,75994,1,8,0:0:0:0:
256,192,76062,1,8,0:0:0:0:
345,96,76197,1,0,0:0:0:0:
256,192,76332,1,0,0:0:0:0:
256,192,76400,1,0,0:0:0:0:
256,192,76467,1,8,0:0:0:0:
256,192,76535,1,0,0:0:0:0:
256,192,76602,1,8,0:0:0:0:
472,157,76670,1,8,0:0:0:0:
309,171,76737,1,0,0:0:0:0:
294,100,76940,1,0,0:0:0:0:
256,192,77008,1,8,0:0:0:0:
256,192,77143,1,0,0:0:0:0:
415,126,77210,1,0,0:0:0:0:
256,192,77278,1,8,0:0:0:0:
256,192,77413,1,0,0:0:0:0:
256,192,77548,1,8,0:0:0:0:
256,192,77683,1,8,0:0:0:0:
256,192,77751,1,8,0:0:0:0:
256,192,77818,1,0,0:0:0:0:
219,100,77953,1,8,0:0:0:0:
256,192,78089,1,0,0:0:0:0:
256,192,78224,1,0,0:0:0:0:
256,192,78359,1,8,0:0:0:0:
205,202,78494,1,0,0:0:0:0:
215,202,78562,1,0,0:0:0:0:
256,192,78629,1,8,0:0:0:0:
256,192,78899,1,0,0:0:0:0:
256,192,79035,1,8,0:0:0:0:
241,167,79170,1,0,0:0:0:0:
256,192,79305,1,8,0:0:0:0:
321,131,79372,1,8,0:0:0:0:
256,192,79440,1,0,0:0:0:0:
256,192,79575,1,0,0:0:0:0:
256,192,79643,1,0,0:0:0:0:
256,192,79710,1,8,0:0:0:0:
285,125,79845,1,8,0:0:0:0:
256,192,79980,1,0,0:0:0:0:
312,130,80048,1,0,0:0:0:0:
321,131,80116,1,0,0:0:0:0:
256,192,80251,1,8,0:0:0:0:
256,192,80521,1,0,0:0:0:0:
256,192,80656,1,0,0:0:0:0:
256,192,80791,1,8,0:0:0:0:
256,192,80926,1,8,0:0:0:0:
256,192,80994,1,8,0:0:0:0:
256,192,81062,1,0,0:0:0:0:
256,192,81197,1,0,0:0:0:0:
256,192,81264,1,0,0:0:0:0:
256,192,81332,1,8,0:0:0:0:
256,192,81467,1,8,0:0:0:0:
256,192,81535,1,8,0:0:0:0:
256,192,81602,1,0,0:0:0:0:
256,192,81737,1,0,0:0:0:0:
256,192,81872,1,0,0:0:0:0:
190,94,81940,1,0,0:0:0:0:
256,192,82008,1,8,0:0:0:0:
256,192,82143,1,0,0:0:0:0:
405,166,82278,1,8,0:0:0:0:
256,192,82413,1,0,0:0:0:0:
376,155,82548,1,8,0:0:0:0:
256,192,82683,1,0,0:0:0:0:
450,159,82818,1,8,0:0:0:0:
256,192,82953,1,0,0:0:0:0:
308,175,83089,1,8,0:0:0:0:
256,192,83224,1,0,0:0:0:0:
256,192,83359,1,0,0:0:0:0:
256,192,83494,1,0,0:0:0:0:
256,192,83629,1,0,0:0:0:0:
256,192,83764,1,0,0:0:0:0:
256,192,83832,1,0,0:0:0:0:
256,192,83899,1,0,0:0:0:0:
256,192,83967,1,0,0:0:0:0:
256,192,84035,1,8,0:0:0:0:
256,192,84080,1,8,0:0:0:0:
256,192,84125,1,8,0:0:0:0:
256,192,84170,1,8,0:0:0:0:
256,192,84215,1,8,0:0:0:0:
256,192,84260,1,8,0:0:0:0:
256,192,84305,1,0,0:0:0:0:
256,192,84372,1,8,0:0:0:0:
256,192,84440,1,0,0:0:0:0:
256,192,84508,1,0,0:0:0:0:
256,192,84575,1,8,0:0:0:0:
256,192,84710,1,0,0:0:0:0:
256,192,84778,1,8,0:0:0:0:
256,192,84845,1,0,0:0:0:0:
256,192,84913,1,8,0:0:0:0:
256,192,84980,1,0,0:0:0:0:
256,192,85026,1,0,0:0:0:0:
256,192,85071,1,0,0:0:0:0:
256,192,85116,1,8,0:0:0:0:
256,192,85251,1,0,0:0:0:0:
256,192,85318,1,0,0:0:0:0:
256,192,85386,1,8,0:0:0:0:
256,192,85453,1,8,0:0:0:0:
256,192,85521,1,0,0:0:0:0:
256,192,85656,1,8,0:0:0:0:
256,192,85724,1,0,0:0:0:0:
256,192,85859,1,0,0:0:0:0:
256,192,85926,1,8,0:0:0:0:
256,192,86062,1,8,0:0:0:0:
256,192,86197,1,0,0:0:0:0:
316,178,86332,1,0,0:0:0:0:
339,152,86399,1,8,0:0:0:0:
256,192,86467,1,0,0:0:0:0:
256,192,86535,1,0,0:0:0:0:
256,192,86602,1,8,0:0:0:0:
256,192,86647,1,0,0:0:0:0:
256,192,86692,1,0,0:0:0:0:
256,192,86737,1,8,0:0:0:0:
256,192,86872,1,0,0:0:0:0:
256,192,87008,1,8,0:0:0:0:
256,192,87075,1,8,0:0:0:0:
256,192,87143,1,0,0:0:0:0:
256,192,87188,1,0,0:0:0:0:
256,192,87233,1,0,0:0:0:0:
256,192,87278,1,8,0:0:0:0:
256,192,87413,1,8,0:0:0:0:
256,192,87458,1,8,0:0:0:0:
256,192,87503,1,8,0:0:0:0:
256,192,87548,1,0,0:0:0:0:
256,192,87683,1,0,0:0:0:0:
256,192,87818,1,8,0:0:0:0:
256,192,87852,1,8,0:0:0:0:
256,192,88089,1,8,0:0:0:0:
256,192,88156,1,8,0:0:0:0:
256,192,88224,1,0,0:0:0:0:
256,192,88291,1,0,0:0:0:0:
256,192,88359,1,8,0:0:0:0:
256,192,88494,1,0,0:0:0:0:
256,192,88629,1,0,0:0:0:0:
256,192,88764,1,8,0:0:0:0:
256,192,88832,1,0,0:0:0:0:
256,192,88899,1,8,0:0:0:0:
256,192,88944,1,8,0:0:0:0:
256,192,88990,1,8,0:0:0:0:
256,192,89170,1,8,0:0:0:0:
256,192,89237,1,8,0:0:0:0:
256,192,89305,1,0,0:0:0:0:
256,192,89440,1,8,0:0:0:0:
256,192,89575,1,8,0:0:0:0:
256,192,89643,1,8,0:0:0:0:
256,192,89710,1,0,0:0:0:0:
251,150,89845,1,0,0:0:0:0:
133,156,89913,1,8,0:0:0:0:
256,192,89980,1,8,0:0:0:0:
160,156,90048,1,8,0:0:0:0:
423,200,90116,1,0,0:0:0:0:
303,128,90183,1,8,0:0:0:0:
256,192,90251,1,0,0:0:0:0:
290,127,90386,1,0,0:0:0:0:
256,192,90521,1,8,0:0:0:0:
256,192,90656,1,8,0:0:0:0:
367,129,90724,1,8,0:0:0:0:
256,192,90791,1,0,0:0:0:0:
384,124,90859,1,8,0:0:0:0:
256,192,90926,1,0,0:0:0:0:
134,128,90994,1,0,0:0:0:0:
256,192,91062,1,8,0:0:0:0:
256,192,91129,1,8,0:0:0:0:
256,192,91197,1,0,0:0:0:0:
256,192,91264,1,0,0:0:0:0:
256,192,91332,1,8,0:0:0:0:
256,192,91467,1,0,0:0:0:0:
256,192,91602,1,0,0:0:0:0:
256,192,91647,1,0,0:0:0:0:
256,192,91692,1,0,0:0:0:0:
256,192,91737,1,8,0:0:0:0:
256,192,91805,1,8,0:0:0:0:
256,192,91872,1,0,0:0:0:0:
256,192,92008,1,0,0:0:0:0:
256,192,92143,1,0,0:0:0:0:
256,192,92278,1,8,0:0:0:0:
254,177,92413,1,0,0:0:0:0:
267,175,92480,1,0,0:0:0:0:
58,177,92548,1,8,0:0:0:0:
74,177,92616,1,8,0:0:0:0:
256,192,92683,1,0,0:0:0:0:
256,192,92818,1,0,0:0:0:0:
256,192,92953,1,8,0:0:0:0:
256,192,93089,1,8,0:0:0:0:
256,192,93156,1,8,0:0:0:0:
256,192,93224,1,8,0:0:0:0:
256,192,93359,1,0,0:0:0:0:
256,192,93494,1,8,0:0:0:0:
256,192,93629,1,0,0:0:0:0:
256,192,93697,1,0,0:0:0:0:
256,192,93764,1,8,0:0:0:0:
128,113,93832,1,0,0:0:0:0:
256,192,93899,1,8,0:0:0:0:
256,192,93944,1,8,0:0:0:0:
256,192,93990,1,8,0:0:0:0:
256,192,94035,1,0,0:0:0:0:
256,192,94170,1,0,0:0:0:0:
256,192,94305,1,8,0:0:0:0:
256,192,94440,1,0,0:0:0:0:
188,111,94508,1,8,0:0:0:0:
256,192,94575,1,0,0:0:0:0:
186,139,94710,1,0,0:0:0:0:
408,146,94845,1,8,0:0:0:0:
425,146,94913,1,8,0:0:0:0:
175,52,94980,1,0,0:0:0:0:
175,52,95048,1,0,0:0:0:0:
256,192,95116,1,8,0:0:0:0:
256,192,95251,1,0,0:0:0:0:
256,192,95318,1,8,0:0:0:0:
256,192,95386,1,0,0:0:0:0:
256,192,95453,1,0,0:0:0:0:
256,192,95521,1,8,0:0:0:0:
256,192,95656,1,8,0:0:0:0:
256,192,95724,1,8,0:0:0:0:
256,192,95791,1,8,0:0:0:0:
256,192,95859,1,8,0:0:0:0:
256,192,95926,1,0,0:0:0:0:
256,192,96062,1,8,0:0:0:0:
256,192,96197,1,0,0:0:0:0:
132,169,96332,1,0,0:0:0:0:
143,169,96399,1,0,0:0:0:0:
302,161,96467,1,8,0:0:0:0:
256,192,96602,1,8,0:0:0:0:
258,144,96670,1,8,0:0:0:0:
256,192,96737,1,0,0:0:0:0:
256,192,96872,1,0,0:0:0:0:
256,192,96940,1,0,0:0:0:0:
256,192,97008,1,8,0:0:0:0:
256,192,97053,1,8,0:0:0:0:
256,192,97098,1,0,0:0:0:0:
256,192,97143,1,8,0:0:0:0:
256,192,97188,1,0,0:0:0:0:
256,192,97233,1,0,0:0:0:0:
256,192,97278,1,8,0:0:0:0:
256,192,97413,1,0,0:0:0:0:
256,192,97480,1,0,0:0:0:0:
256,192,97548,1,8,0:0:0:0:
256,192,97683,1,8,0:0:0:0:
256,192,97751,1,8,0:0:0:0:
256,192,97818,1,0,0:0:0:0:
256,192,97886,1,0,0:0:0:0:
256,192,97953,1,8,0:0:0:0:
256,192,98089,1,0,0:0:0:0:
256,192,98134,1,0,0:0:0:0:
256,192,98179,1,8,0:0:0:0:
256,192,98224,1,8,0:0:0:0:
256,192,98269,1,8,0:0:0:0:
256,192,98314,1,8,0:0:0:0:
256,192,98359,1,0,0:0:0:0:
256,192,98494,1,0,0:0:0:0:
256,192,98629,1,8,0:0:0:0:
256,192,98764,1,0,0:0:0:0:
136,147,98832,1,0,0:0:0:0:
256,192,98899,1,8,0:0:0:0:
256,192,98933,1,0,0:0:0:0:
256,192,98967,1,0,0:0:0:0:
256,192,99035,1,8,0:0:0:0:
218,115,99170,1,8,0:0:0:0:
461,158,99237,1,8,0:0:0:0:
256,192,99305,1,8,0:0:0:0:
461,158,99372,1,8,0:0:0:0:
256,192,99440,1,0,0:0:0:0:
139,162,99575,1,0,0:0:0:0:
208,138,99643,1,0,0:0:0:0:
127,133,99710,1,0,0:0:0:0:
256,192,99845,1,8,0:0:0:0:
368,157,99980,1,0,0:0:0:0:
394,160,100048,1,0,0:0:0:0:
256,192,100116,1,0,0:0:0:0:
256,192,100183,1,0,0:0:0:0:
256,192,100251,1,8,0:0:0:0:
256,192,100296,1,8,0:0:0:0:
256,192,100341,1,0,0:0:0:0:
256,192,100386,1,0,0:0:0:0:
256,192,100431,1,0,0:0:0:0:
256,192,100476,1,0,0:0:0:0:
256,192,100521,1,8,0:0:0:0:
256,192,100589,1,0,0:0:0:0:
256,192,100656,1,8,0:0:0:0:
256,192,100724,1,8,0:0:0:0:
256,192,100791,1,0,0:0:0:0:
256,192,100926,1,0,0:0:0:0:
256,192,101062,1,8,0:0:0:0:
256,192,101129,1,0,0:0:0:0:
256,192,101197,1,8,0:0:0:0:
256,192,101264,1,8,0:0:0:0:
256,192,101332,1,0,0:0:0:0:
256,192,101377,1,0,0:0:0:0:
256,192,101422,1,0,0:0:0:0:
256,192,101467,1,0,0:0:0:0:
256,192,101512,1,0,0:0:0:0:
256,192,101557,1,0,0:0:0:0:
256,192,101602,1,8,0:0:0:0:
256,192,101669,1,8,0:0:0:0:
256,192,101737,1,0,0:0:0:0:
256,192,101805,1,0,0:0:0:0:
256,192,101872,1,8,0:0:0:0:
256,192,102007,1,0,0:0:0:0:
256,192,102075,1,8,0:0:0:0:
256,192,102142,1,0,0:0:0:0:
256,192,102210,1,8,0:0:0:0:
256,192,102277,1,0,0:0:0:0:
256,192,102323,1,0,0:0:0:0:
256,192,102368,1,0,0:0:0:0:
256,192,102413,1,8,0:0:0:0:
256,192,102548,1,0,0:0:0:0:
256,192,102615,1,0,0:0:0:0:
256,192,102683,1,8,0:0:0:0:
256,192,102750,1,8,0:0:0:0:
256,192,102818,1,0,0:0:0:0:
256,192,102953,1,8,0:0:0:0:
256,192,103021,1,0,0:0:0:0:
256,192,103156,1,0,0:0:0:0:
256,192,103223,1,8,0:0:0:0:
256,192,103359,1,8,0:0:0:0:
256,192,103494,1,0,0:0:0:0:
292,147,103629,1,0,0:0:0:0:
339,152,103696,1,8,0:0:0:0:
256,192,103764,1,0,0:0:0:0:
256,192,103832,1,0,0:0:0:0:
256,192,103899,1,8,0:0:0:0:
256,192,103944,1,0,0:0:0:0:
256,192,103989,1,0,0:0:0:0:
256,192,104034,1,8,0:0:0:0:
256,192,104169,1,0,0:0:0:0:
256,192,104305,1,8,0:0:0:0:
256,192,104372,1,8,0:0:0:0:
256,192,104440,1,0,0:0:0:0:
256,192,104485,1,0,0:0:0:0:
256,192,104530,1,0,0:0:0:0:
256,192,104575,1,8,0:0:0:0:
256,192,104710,1,8,0:0:0:0:
256,192,104755,1,8,0:0:0:0:
256,192,104800,1,8,0:0:0:0:
256,192,104845,1,0,0:0:0:0:
256,192,104980,1,0,0:0:0:0:
256,192,105115,1,8,0:0:0:0:
256,192,105149,1,8,0:0:0:0:
256,192,105386,1,8,0:0:0:0:
256,192,105453,1,8,0:0:0:0:
256,192,105521,1,0,0:0:0:0:
256,192,105588,1,0,0:0:0:0:
256,192,105656,1,8,0:0:0:0:
256,192,105791,1,0,0:0:0:0:
256,192,105926,1,0,0:0:0:0:
256,192,106061,1,8,0:0:0:0:
256,192,106129,1,0,0:0:0:0:
256,192,106196,1,8,0:0:0:0:
256,192,106241,1,8,0:0:0:0:
256,192,106287,1,8,0:0:0:0:
256,192,106467,1,8,0:0:0:0:
256,192,106534,1,8,0:0:0:0:
256,192,106602,1,0,0:0:0:0:
256,192,106737,1,8,0:0:0:0:
256,192,106872,1,8,0:0:0:0:
256,192,106940,1,8,0:0:0:0:
256,192,107007,1,0,0:0:0:0:
251,150,107142,1,0,0:0:0:0:
133,156,107210,1,8,0:0:0:0:
256,192,107277,1,8,0:0:0:0:
160,156,107345,1,8,0:0:0:0:
423,200,107413,1,0,0:0:0:0:
303,128,107480,1,8,0:0:0:0:
256,192,107548,1,0,0:0:0:0:
290,127,107683,1,0,0:0:0:0:
256,192,107818,1,8,0:0:0:0:
256,192,107953,1,8,0:0:0:0:
367,129,108021,1,8,0:0:0:0:
256,192,108088,1,0,0:0:0:0:
384,124,108156,1,8,0:0:0:0:
256,192,108223,1,0,0:0:0:0:
134,128,108291,1,0,0:0:0:0:
256,192,108359,1,8,0:0:0:0:
256,192,108426,1,8,0:0:0:0:
256,192,108494,1,0,0:0:0:0:
256,192,108561,1,0,0:0:0:0:
256,192,108629,1,8,0:0:0:0:
256,192,108764,1,0,0:0:0:0:
256,192,108899,1,0,0:0:0:0:
256,192,108944,1,0,0:0:0:0:
256,192,108989,1,0,0:0:0:0:
256,192,109034,1,8,0:0:0:0:
256,192,109102,1,8,0:0:0:0:
256,192,109169,1,0,0:0:0:0:
256,192,109305,1,0,0:0:0:0:
256,192,109440,1,0,0:0:0:0:
256,192,109575,1,8,0:0:0:0:
254,177,109710,1,0,0:0:0:0:
267,175,109778,1,0,0:0:0:0:
58,177,109845,5,8,0:0:0:0:
74,177,109913,1,8,0:0:0:0:
256,192,109980,1,0,0:0:0:0:
195,109,110116,1,0,0:0:0:0:
256,192,110251,5,8,0:0:0:0:
256,192,110386,1,0,0:0:0:0:
409,131,110453,1,8,0:0:0:0:
256,192,110521,1,0,0:0:0:0:
94,13,110589,1,0,0:0:0:0:
256,192,110656,1,8,0:0:0:0:
256,192,110791,1,0,0:0:0:0:
256,192,110859,1,0,0:0:0:0:
256,192,110926,1,8,0:0:0:0:
205,152,110994,1,0,0:0:0:0:
256,192,111062,1,8,0:0:0:0:
329,57,111095,1,8,0:0:0:0:
329,57,111129,1,0,0:0:0:0:
256,192,111197,1,8,0:0:0:0:
256,192,111242,1,8,0:0:0:0:
256,192,111287,1,8,0:0:0:0:
256,192,111332,1,0,0:0:0:0:
256,192,111467,1,0,0:0:0:0:
311,173,111535,1,0,0:0:0:0:
256,192,111602,1,0,0:0:0:0:
256,192,111737,1,8,0:0:0:0:
256,192,111872,1,0,0:0:0:0:
443,131,112008,1,8,0:0:0:0:
55,78,112075,1,0,0:0:0:0:
256,192,112143,1,8,0:0:0:0:
256,192,112210,1,0,0:0:0:0:
256,192,112278,1,0,0:0:0:0:
256,192,112345,1,0,0:0:0:0:
256,192,112413,1,8,0:0:0:0:
256,192,112548,1,0,0:0:0:0:
256,192,112616,1,8,0:0:0:0:
256,192,112683,1,0,0:0:0:0:
256,192,112751,1,0,0:0:0:0:
278,98,112818,1,8,0:0:0:0:
256,192,112953,1,0,0:0:0:0:
256,192,113021,1,0,0:0:0:0:
256,192,113089,1,0,0:0:0:0:
256,192,113156,1,0,0:0:0:0:
256,192,113224,1,8,0:0:0:0:
256,192,113359,1,0,0:0:0:0:
256,192,113426,1,8,0:0:0:0:
256,192,113494,1,0,0:0:0:0:
151,164,113629,1,0,0:0:0:0:
159,153,113697,1,0,0:0:0:0:
256,192,113764,1,8,0:0:0:0:
332,165,113832,1,0,0:0:0:0:
256,192,113899,1,0,0:0:0:0:
358,164,113967,1,0,0:0:0:0:
256,192,114035,1,8,0:0:0:0:
256,192,114170,1,8,0:0:0:0:
256,192,114237,1,0,0:0:0:0:
256,192,114305,1,8,0:0:0:0:
256,192,114350,1,8,0:0:0:0:
256,192,114395,1,0,0:0:0:0:
256,192,114440,1,8,0:0:0:0:
256,192,114485,1,0,0:0:0:0:
256,192,114530,1,0,0:0:0:0:
256,192,114575,1,8,0:0:0:0:
256,192,114710,1,0,0:0:0:0:
256,192,114778,1,0,0:0:0:0:
256,192,114845,1,8,0:0:0:0:
268,79,114913,1,8,0:0:0:0:
256,192,114980,1,0,0:0:0:0:
256,192,115048,1,8,0:0:0:0:
256,192,115116,1,8,0:0:0:0:
256,192,115183,1,0,0:0:0:0:
256,192,115251,1,8,0:0:0:0:
256,192,115386,1,0,0:0:0:0:
256,192,115431,1,0,0:0:0:0:
256,192,115476,1,8,0:0:0:0:
256,192,115521,1,8,0:0:0:0:
256,192,115566,1,8,0:0:0:0:
256,192,115611,1,8,0:0:0:0:
256,192,115656,1,0,0:0:0:0:
256,192,115791,1,8,0:0:0:0:
140,153,115859,1,8,0:0:0:0:
256,192,115926,1,0,0:0:0:0:
179,160,115994,1,0,0:0:0:0:
256,192,116062,1,8,0:0:0:0:
286,153,116129,1,0,0:0:0:0:
256,192,116197,1,8,0:0:0:0:
256,192,116230,1,0,0:0:0:0:
256,192,116264,1,0,0:0:0:0:
256,192,116332,1,8,0:0:0:0:
256,192,116467,1,8,0:0:0:0:
256,192,116535,1,8,0:0:0:0:
256,192,116602,1,8,0:0:0:0:
256,192,116670,1,8,0:0:0:0:
256,192,116737,1,0,0:0:0:0:
256,192,116872,1,0,0:0:0:0:
256,192,117008,1,8,0:0:0:0:
256,192,117143,1,8,0:0:0:0:
256,192,117210,1,8,0:0:0:0:
256,192,117278,1,0,0:0:0:0:
256,192,117345,1,0,0:0:0:0:
256,192,117413,1,0,0:0:0:0:
256,192,117480,1,0,0:0:0:0:
256,192,117548,1,8,0:0:0:0:
256,192,117593,1,8,0:0:0:0:
256,192,117638,1,0,0:0:0:0:
256,192,117683,1,0,0:0:0:0:
256,192,117728,1,0,0:0:0:0:
256,192,117773,1,0,0:0:0:0:
256,192,117818,1,8,0:0:0:0:
256,192,117886,1,0,0:0:0:0:
256,192,117953,1,8,0:0:0:0:
256,192,118021,1,8,0:0:0:0:
256,192,118089,1,0,0:0:0:0:
256,192,118224,1,0,0:0:0:0:
256,192,118291,1,0,0:0:0:0:
256,192,118359,1,8,0:0:0:0:
256,192,118426,1,0,0:0:0:0:
256,192,118494,1,8,0:0:0:0:
256,192,118562,1,8,0:0:0:0:
256,192,118629,1,0,0:0:0:0:
256,192,118674,1,0,0:0:0:0:
256,192,118719,1,0,0:0:0:0:
256,192,118764,1,0,0:0:0:0:
256,192,118809,1,0,0:0:0:0:
256,192,118854,1,0,0:0:0:0:
256,192,118899,1,8,0:0:0:0:
256,192,119035,1,8,0:0:0:0:
256,192,119102,1,8,0:0:0:0:
256,192,119170,1,0,0:0:0:0:
256,192,119305,1,8,0:0:0:0:
256,192,119372,1,8,0:0:0:0:
256,192,119440,1,0,0:0:0:0:
256,192,119575,1,8,0:0:0:0:
256,192,119643,1,8,0:0:0:0:
256,192,119710,1,0,0:0:0:0:
256,192,119845,1,8,0:0:0:0:
256,192,119913,1,8,0:0:0:0:
256,192,119980,1,0,0:0:0:0:
256,192,120116,1,0,0:0:0:0:
256,192,120251,1,0,0:0:0:0:
256,192,120386,1,0,0:0:0:0:
256,192,120521,1,8,0:0:0:0:
256,192,120589,1,8,0:0:0:0:
256,192,120656,1,0,0:0:0:0:
256,192,120724,1,0,0:0:0:0:
256,192,120791,1,8,0:0:0:0:
256,192,120836,1,8,0:0:0:0:
256,192,120881,1,8,0:0:0:0:
256,192,120926,1,8,0:0:0:0:
256,192,120971,1,8,0:0:0:0:
256,192,121017,1,8,0:0:0:0:
256,192,121062,1,0,0:0:0:0:
256,192,121197,1,8,0:0:0:0:
256,192,121264,1,8,0:0:0:0:
256,192,121332,1,0,0:0:0:0:
256,192,121467,1,8,0:0:0:0:
256,192,121512,1,8,0:0:0:0:
256,192,121557,1,8,0:0:0:0:
256,192,121602,1,0,0:0:0:0:
256,192,121670,1,8,0:0:0:0:
256,192,121737,1,0,0:0:0:0:
256,192,121805,1,8,0:0:0:0:
256,192,121872,1,0,0:0:0:0:
256,192,122008,1,0,0:0:0:0:
256,192,122075,1,0,0:0:0:0:
256,192,122143,1,8,0:0:0:0:
256,192,122210,1,0,0:0:0:0:
256,192,122278,1,0,0:0:0:0:
256,192,122345,1,0,0:0:0:0:
256,192,122413,1,8,0:0:0:0:
331,102,122480,1,8,0:0:0:0:
368,132,122616,1,8,0:0:0:0:
323,71,122683,1,0,0:0:0:0:
256,192,122818,1,0,0:0:0:0:
256,192,122953,1,8,0:0:0:0:
224,89,123089,1,0,0:0:0:0:
198,177,123156,1,0,0:0:0:0:
256,192,123224,1,8,0:0:0:0:
224,175,123291,1,0,0:0:0:0:
256,192,123359,1,0,0:0:0:0:
256,192,123426,1,0,0:0:0:0:
256,192,123494,1,8,0:0:0:0:
256,192,123562,1,8,0:0:0:0:
256,192,123629,1,0,0:0:0:0:
256,192,123697,1,8,0:0:0:0:
256,192,123764,1,0,0:0:0:0:
256,192,123832,1,8,0:0:0:0:
256,192,123899,1,0,0:0:0:0:
256,192,123944,1,0,0:0:0:0:
256,192,123990,1,0,0:0:0:0:
256,192,124035,1,8,0:0:0:0:
269,86,124102,1,8,0:0:0:0:
256,192,124170,1,0,0:0:0:0:
256,192,124237,1,8,0:0:0:0:
256,192,124305,1,0,0:0:0:0:
256,192,124372,1,8,0:0:0:0:
256,192,124440,1,0,0:0:0:0:
256,192,124508,1,0,0:0:0:0:
256,192,124575,1,8,0:0:0:0:
256,192,124710,1,0,0:0:0:0:
256,192,124845,1,8,0:0:0:0:
256,192,124913,1,8,0:0:0:0:
256,192,124980,1,8,0:0:0:0:
256,192,125048,1,8,0:0:0:0:
256,192,125116,1,0,0:0:0:0:
256,192,125251,1,8,0:0:0:0:
256,192,125386,1,0,0:0:0:0:
256,192,125521,1,0,0:0:0:0:
256,192,125589,1,0,0:0:0:0:
256,192,125656,1,8,0:0:0:0:
256,192,125701,1,8,0:0:0:0:
256,192,125746,1,8,0:0:0:0:
256,192,125791,1,0,0:0:0:0:
256,192,125859,1,0,0:0:0:0:
256,192,125926,1,0,0:0:0:0:
256,192,126062,1,0,0:0:0:0:
256,192,126129,1,0,0:0:0:0:
256,192,126197,1,8,0:0:0:0:
256,192,126332,1,8,0:0:0:0:
256,192,126399,1,0,0:0:0:0:
256,192,126467,1,0,0:0:0:0:
256,192,126535,1,0,0:0:0:0:
256,192,126602,1,8,0:0:0:0:
256,192,126670,1,0,0:0:0:0:
256,192,126737,1,8,0:0:0:0:
265,160,126805,1,8,0:0:0:0:
256,192,126872,1,0,0:0:0:0:
256,192,126940,1,0,0:0:0:0:
256,192,127008,1,8,0:0:0:0:
256,192,127143,1,0,0:0:0:0:
172,169,127210,1,0,0:0:0:0:
256,192,127278,1,8,0:0:0:0:
256,192,127345,1,0,0:0:0:0:
256,192,127413,1,8,0:0:0:0:
256,192,127480,1,0,0:0:0:0:
429,148,127548,1,8,0:0:0:0:
429,148,127616,1,8,0:0:0:0:
256,192,127683,1,0,0:0:0:0:
285,160,127751,1,0,0:0:0:0:
256,192,127818,1,8,0:0:0:0:
256,192,127886,1,8,0:0:0:0:
256,192,127953,1,0,0:0:0:0:
256,192,128021,1,8,0:0:0:0:
256,192,128089,1,0,0:0:0:0:
285,160,128156,1,0,0:0:0:0:
256,192,128224,1,8,0:0:0:0:
256,192,128269,1,8,0:0:0:0:
256,192,128314,1,8,0:0:0:0:
256,192,128359,1,0,0:0:0:0:
256,192,128494,1,8,0:0:0:0:
256,192,128539,1,8,0:0:0:0:
256,192,128584,1,8,0:0:0:0:
256,192,128629,1,0,0:0:0:0:
256,192,128697,1,0,0:0:0:0:
256,192,128764,1,0,0:0:0:0:
256,192,128832,1,0,0:0:0:0:
256,192,128899,1,8,0:0:0:0:
256,192,129035,1,0,0:0:0:0:
256,192,129170,1,8,0:0:0:0:
256,192,129305,1,0,0:0:0:0:
256,192,129440,1,0,0:0:0:0:
256,192,129508,1,0,0:0:0:0:
256,192,129575,1,8,0:0:0:0:
256,192,129620,1,8,0:0:0:0:
256,192,129665,1,8,0:0:0:0:
256,192,129710,1,0,0:0:0:0:
256,192,129845,1,8,0:0:0:0:
256,192,129913,1,8,0:0:0:0:
256,192,129980,1,0,0:0:0:0:
256,192,130116,1,8,0:0:0:0:
256,192,130161,1,8,0:0:0:0:
256,192,130206,1,8,0:0:0:0:
256,192,130251,1,0,0:0:0:0:
256,192,130318,1,8,0:0:0:0:
256,192,130386,1,0,0:0:0:0:
256,192,130453,1,8,0:0:0:0:
256,192,130521,1,0,0:0:0:0:
256,192,130656,1,0,0:0:0:0:
256,192,130724,1,0,0:0:0:0:
256,192,130791,1,8,0:0:0:0:
256,192,130859,1,0,0:0:0:0:
256,192,130926,1,0,0:0:0:0:
256,192,130994,1,0,0:0:0:0:
256,192,131062,1,8,0:0:0:0:
334,78,131129,1,8,0:0:0:0:
256,192,131264,1,8,0:0:0:0:
256,192,131332,1,0,0:0:0:0:
256,192,131467,1,0,0:0:0:0:
256,192,131602,1,8,0:0:0:0:
256,192,131737,1,0,0:0:0:0:
256,192,131805,1,0,0:0:0:0:
256,192,131872,1,8,0:0:0:0:
256,192,132008,1,0,0:0:0:0:
256,192,132075,1,0,0:0:0:0:
256,192,132143,1,8,0:0:0:0:
256,192,132210,1,8,0:0:0:0:
256,192,132278,1,0,0:0:0:0:
256,192,132345,1,0,0:0:0:0:
256,192,132413,1,8,0:0:0:0:
256,192,132480,1,8,0:0:0:0:
256,192,132548,1,0,0:0:0:0:
256,192,132593,1,0,0:0:0:0:
256,192,132638,1,0,0:0:0:0:
256,192,132683,1,8,0:0:0:0:
317,111,132751,1,8,0:0:0:0:
256,192,132818,1,0,0:0:0:0:
256,192,132886,1,8,0:0:0:0:
256,192,132953,1,0,0:0:0:0:
256,192,133021,1,8,0:0:0:0:
256,192,133089,1,0,0:0:0:0:
256,192,133156,1,0,0:0:0:0:
256,192,133224,1,8,0:0:0:0:
256,192,133359,1,0,0:0:0:0:
256,192,133426,1,0,0:0:0:0:
256,192,133494,1,8,0:0:0:0:
256,192,133562,1,0,0:0:0:0:
256,192,133629,1,8,0:0:0:0:
256,192,133697,1,8,0:0:0:0:
256,192,133764,1,0,0:0:0:0:
256,192,133899,1,8,0:0:0:0:
256,192,134035,1,0,0:0:0:0:
256,192,134170,1,8,0:0:0:0:
256,192,134305,1,8,0:0:0:0:
256,192,134339,1,8,0:0:0:0:
256,192,134372,1,0,0:0:0:0:
256,192,134440,1,8,0:0:0:0:
256,192,134485,1,8,0:0:0:0:
256,192,134530,1,8,0:0:0:0:
256,192,134575,1,0,0:0:0:0:
256,192,134710,1,0,0:0:0:0:
256,192,134845,1,0,0:0:0:0:
256,192,134913,1,8,0:0:0:0:
256,192,134980,1,0,0:0:0:0:
256,192,135048,1,8,0:0:0:0:
256,192,135116,1,0,0:0:0:0:
256,192,135251,1,8,0:0:0:0:
256,192,135386,1,0,0:0:0:0:
256,192,135521,1,0,0:0:0:0:
119,218,135589,1,0,0:0:0:0:
256,192,135656,1,8,0:0:0:0:
256,192,135791,1,0,0:0:0:0:
256,192,135926,1,0,0:0:0:0:
256,192,135994,1,0,0:0:0:0:
256,192,136062,1,8,0:0:0:0:
256,192,136129,1,8,0:0:0:0:
256,192,136197,1,8,0:0:0:0:
256,192,136332,1,0,0:0:0:0:
392,145,136399,1,0,0:0:0:0:
256,192,136467,1,8,0:0:0:0:
256,192,136535,1,8,0:0:0:0:
419,168,136670,1,8,0:0:0:0:
256,192,136737,1,0,0:0:0:0:
256,192,136872,1,8,0:0:0:0:
256,192,136917,1,8,0:0:0:0:
256,192,136962,1,8,0:0:0:0:
256,192,137008,1,0,0:0:0:0:
256,192,137143,1,0,0:0:0:0:
256,192,137188,1,8,0:0:0:0:
256,192,137233,1,8,0:0:0:0:
256,192,137278,1,0,0:0:0:0:
256,192,137413,1,8,0:0:0:0:
256,192,137548,1,0,0:0:0:0:
256,192,137683,1,8,0:0:0:0:
256,192,137818,1,0,0:0:0:0:
256,192,137886,1,0,0:0:0:0:
256,192,137953,1,8,0:0:0:0:
256,192,138021,1,0,0:0:0:0:
256,192,138089,1,8,0:0:0:0:
256,192,138134,1,8,0:0:0:0:
256,192,138179,1,8,0:0:0:0:
256,192,138224,1,8,0:0:0:0:
256,192,138269,1,8,0:0:0:0:
256,192,138314,1,8,0:0:0:0:
256,192,138359,1,0,0:0:0:0:
256,192,138629,1,8,0:0:0:0:
256,192,138764,1,8,0:0:0:0:
256,192,138832,1,8,0:0:0:0:
256,192,138899,1,0,0:0:0:0:
256,192,138967,1,0,0:0:0:0:
256,192,139035,1,8,0:0:0:0:
256,192,139170,1,0,0:0:0:0:
256,192,139440,1,8,0:0:0:0:
256,192,139508,1,8,0:0:0:0:
256,192,139575,1,8,0:0:0:0:
256,192,139643,1,8,0:0:0:0:
256,192,139710,1,0,0:0:0:0:
256,192,139845,1,8,0:0:0:0:
256,192,139980,1,0,0:0:0:0:
256,192,140116,1,8,0:0:0:0:
256,192,140251,1,0,0:0:0:0:
256,192,140318,1,0,0:0:0:0:
256,192,140386,1,8,0:0:0:0:
256,192,140431,1,8,0:0:0:0:
256,192,140476,1,8,0:0:0:0:
256,192,140521,1,0,0:0:0:0:
256,192,140589,1,8,0:0:0:0:
256,192,140656,1,0,0:0:0:0:
256,192,140791,1,8,0:0:0:0:
256,192,140825,1,8,0:0:0:0:
256,192,140859,1,8,0:0:0:0:
256,192,140926,1,0,0:0:0:0:
256,192,141062,1,8,0:0:0:0:
256,192,141197,1,0,0:0:0:0:
256,192,141264,1,0,0:0:0:0:
256,192,141332,1,8,0:0:0:0:
256,192,141399,1,8,0:0:0:0:
256,192,141467,1,0,0:0:0:0:
256,192,141535,1,0,0:0:0:0:
256,192,141602,1,0,0:0:0:0:
256,192,141737,1,8,0:0:0:0:
256,192,141805,1,0,0:0:0:0:
256,192,141872,1,8,0:0:0:0:
256,192,141940,1,8,0:0:0:0:
256,192,142008,1,0,0:0:0:0:
256,192,142143,1,8,0:0:0:0:
256,192,142278,1,8,0:0:0:0:
256,192,142413,1,0,0:0:0:0:
256,192,142480,1,0,0:0:0:0:
256,192,142548,1,8,0:0:0:0:
256,192,142616,1,8,0:0:0:0:
256,192,142683,1,0,0:0:0:0:
256,192,142818,1,8,0:0:0:0:
115,156,142886,1,0,0:0:0:0:
256,192,142953,1,8,0:0:0:0:
256,192,143089,1,0,0:0:0:0:
256,192,143156,1,8,0:0:0:0:
256,192,143224,1,0,0:0:0:0:
256,192,143291,1,0,0:0:0:0:
256,192,143359,1,8,0:0:0:0:
256,192,143404,1,8,0:0:0:0:
256,192,143449,1,8,0:0:0:0:
256,192,143494,1,0,0:0:0:0:
256,192,143629,1,8,0:0:0:0:
256,192,143764,1,0,0:0:0:0:
256,192,143832,1,0,0:0:0:0:
256,192,143899,1,0,0:0:0:0:
256,192,143967,1,0,0:0:0:0:
256,192,144035,1,8,0:0:0:0:
256,192,144170,1,8,0:0:0:0:
256,192,144305,1,0,0:0:0:0:
256,192,144440,1,8,0:0:0:0:
256,192,144508,1,0,0:0:0:0:
256,192,144575,1,8,0:0:0:0:
256,192,144643,1,0,0:0:0:0:
256,192,144710,1,8,0:0:0:0:
256,192,144755,1,8,0:0:0:0:
256,192,144800,1,8,0:0:0:0:
256,192,144845,1,0,0:0:0:0:
256,192,144913,1,0,0:0:0:0:
256,192,144980,1,8,0:0:0:0:
256,192,145116,1,8,0:0:0:0:
256,192,145161,1,8,0:0:0:0:
256,192,145206,1,8,0:0:0:0:
256,192,145251,1,8,0:0:0:0:
256,192,145296,1,8,0:0:0:0:
256,192,145341,1,8,0:0:0:0:
256,192,145386,1,0,0:0:0:0:
256,192,145521,1,0,0:0:0:0:
256,192,145589,1,0,0:0:0:0:
256,192,145656,1,8,0:0:0:0:
256,192,145701,1,8,0:0:0:0:
256,192,145746,1,8,0:0:0:0:
256,192,145791,1,8,0:0:0:0:
256,192,145836,1,8,0:0:0:0:
256,192,145881,1,8,0:0:0:0:
256,192,145926,1,0,0:0:0:0:
256,192,145994,1,0,0:0:0:0:
256,192,146062,1,8,0:0:0:0:
256,192,146129,1,8,0:0:0:0:
256,192,146197,1,0,0:0:0:0:
256,192,146242,1,0,0:0:0:0:
256,192,146287,1,0,0:0:0:0:
256,192,146332,1,0,0:0:0:0:
256,192,146377,1,0,0:0:0:0:
256,192,146422,1,0,0:0:0:0:
256,192,146467,1,8,0:0:0:0:
256,192,146602,1,8,0:0:0:0:
256,192,146737,1,8,0:0:0:0:
256,192,146782,1,8,0:0:0:0:
256,192,146827,1,8,0:0:0:0:
256,192,146872,1,0,0:0:0:0:
