osu file format v14

[General]
AudioFilename: audio.mp3
AudioLeadIn: 0
PreviewTime: 3747
Countdown: 0
SampleSet: Normal
StackLeniency: 0.7
Mode: 1
LetterboxInBreaks: 0
WidescreenStoryboard: 0

[Editor]
Bookmarks: 30234,36720,38882,45099,47531,56180,64828,73477,82126
DistanceSpacing: 1.9
BeatDivisor: 4
GridSize: 32
TimelineZoom: 3.599999

[Metadata]
Title:MIRROR FRAGMENT
TitleUnicode:MIRROR FRAGMENT
Artist:HARI KARI
ArtistUnicode:HARI KARI
Creator:D3kuu
Version:ONI
Source:
Tags:electronic instrumental axer bms breakcore BOFU of Fighters Ultimate 2016 Legendary Again BROKEN TIME pulse.var free stuff #2 nitro
BeatmapID:2033700
BeatmapSetID:971297

[Difficulty]
HPDrainRate:5.5
CircleSize:5
OverallDifficulty:6
ApproachRate:5
SliderMultiplier:1.4
SliderTickRate:1

[Events]
//Background and Video events
0,0,"DvvvOopUYAAUI0D.jpg_large.jpg",0,-35
//Break Periods
2,17478,19051
//Storyboard Layer 0 (Background)
//Storyboard Layer 1 (Fail)
//Storyboard Layer 2 (Pass)
//Storyboard Layer 3 (Foreground)
//Storyboard Layer 4 (Overlay)
//Storyboard Sound Samples

[TimingPoints]
-19,270.27027027027,4,1,0,100,1,0
0,-133.333333333333,4,1,0,60,0,0
21467,-100,4,1,0,100,0,0
84305,-100,4,1,0,100,0,1
92953,-100,4,1,0,100,0,0
101602,-100,4,1,0,100,0,1
110251,-100,4,1,0,100,0,0
121062,-100,4,1,0,100,0,1
128629,-100,4,1,0,100,0,0
129710,-100,4,1,0,100,0,1
134035,-100,4,1,0,100,0,0

[HitObjects]
249,146,3764,5,0,0:0:0:0:
309,146,4035,1,0,0:0:0:0:
223,305,4305,5,8,0:0:0:0:
152,182,4845,1,0,0:0:0:0:
159,185,5116,1,0,0:0:0:0:
433,164,5386,1,8,0:0:0:0:
450,340,5926,1,8,0:0:0:0:
361,182,6197,1,0,0:0:0:0:
361,182,6467,1,8,0:0:0:0:
295,234,6737,1,8,0:0:0:0:
458,178,7008,1,0,0:0:0:0:
305,146,7548,1,8,0:0:0:0:
506,349,7818,1,0,0:0:0:0:
454,155,8089,1,8,0:0:0:0:
454,155,8359,1,0,0:0:0:0:
307,184,8629,1,8,0:0:0:0:
376,170,9170,1,8,0:0:0:0:
219,176,9440,1,0,0:0:0:0:
219,176,9710,1,0,0:0:0:0:
444,160,10251,1,0,0:0:0:0:
380,254,10521,1,8,0:0:0:0:
380,254,10791,1,8,0:0:0:0:
441,129,11062,1,0,0:0:0:0:
441,129,11332,1,0,0:0:0:0:
446,197,11602,1,8,0:0:0:0:
446,197,11872,1,8,0:0:0:0:
384,231,12413,1,0,0:0:0:0:
384,231,12683,1,0,0:0:0:0:
320,243,12953,1,8,0:0:0:0:
343,196,13224,1,0,0:0:0:0:
343,196,13494,1,0,0:0:0:0:
336,199,13764,1,0,0:0:0:0:
346,134,14035,1,8,0:0:0:0:
393,136,14575,1,0,0:0:0:0:
417,218,14845,1,8,0:0:0:0:
417,218,15116,1,8,0:0:0:0:
415,170,16467,1,8,0:0:0:0:
434,155,16737,1,0,0:0:0:0:
434,155,17008,1,0,0:0:0:0:
282,126,17278,1,8,0:0:0:0:
256,192,20251,12,0,21332,0:0:0:0:
195,190,21602,5,0,0:0:0:0:
422,162,21873,1,8,0:0:0:0:
416,232,22008,1,8,0:0:0:0:
416,232,22075,1,8,0:0:0:0:
416,232,22143,1,0,0:0:0:0:
183,67,22278,1,8,0:0:0:0:
420,155,22413,1,0,0:0:0:0:
336,169,22684,1,8,0:0:0:0:
326,170,22752,1,8,0:0:0:0:
325,170,22818,1,8,0:0:0:0:
294,119,22886,1,8,0:0:0:0:
370,215,22954,1,0,0:0:0:0:
372,127,23089,1,8,0:0:0:0:
421,160,23224,1,0,0:0:0:0:
460,168,23359,1,8,0:0:0:0:
211,188,23494,5,8,0:0:0:0:
177,154,23764,1,0,0:0:0:0:
177,154,23832,1,0,0:0:0:0:
494,170,23899,1,8,0:0:0:0:
366,214,24035,1,0,0:0:0:0:
299,302,24170,1,0,0:0:0:0:
299,302,24305,1,8,0:0:0:0:
399,199,24440,1,0,0:0:0:0:
399,199,24508,1,8,0:0:0:0:
425,143,24575,1,0,0:0:0:0:
257,155,24845,1,0,0:0:0:0:
274,252,24980,1,8,0:0:0:0:
193,150,25116,1,8,0:0:0:0:
193,150,25183,1,8,0:0:0:0:
274,252,25251,1,0,0:0:0:0:
274,252,25386,1,8,0:0:0:0:
274,252,25521,1,8,0:0:0:0:
413,171,25656,1,0,0:0:0:0:
339,184,25926,1,0,0:0:0:0:
400,260,26197,1,8,0:0:0:0:
445,239,26332,1,0,0:0:0:0:
445,239,26399,1,8,0:0:0:0:
445,239,26467,1,0,0:0:0:0:
445,239,26535,1,8,0:0:0:0:
203,83,26602,1,8,0:0:0:0:
361,136,26737,1,0,0:0:0:0:
425,130,27008,1,0,0:0:0:0:
425,130,27075,1,0,0:0:0:0:
470,171,27143,1,0,0:0:0:0:
470,171,27278,1,8,0:0:0:0:
337,164,27413,1,8,0:0:0:0:
460,129,27548,1,0,0:0:0:0:
225,17,27683,1,8,0:0:0:0:
449,192,27818,1,8,0:0:0:0:
325,153,27886,1,8,0:0:0:0:
116,169,27953,1,0,0:0:0:0:
320,177,28089,1,0,0:0:0:0:
449,109,28359,1,8,0:0:0:0:
343,248,28426,1,8,0:0:0:0:
343,248,28494,1,8,0:0:0:0:
258,257,28629,1,0,0:0:0:0:
276,311,28764,1,8,0:0:0:0:
415,185,28899,1,0,0:0:0:0:
415,185,28967,1,0,0:0:0:0:
415,185,29035,1,0,0:0:0:0:
218,154,29170,1,0,0:0:0:0:
218,154,29237,1,0,0:0:0:0:
342,131,29305,1,8,0:0:0:0:
342,131,29372,1,8,0:0:0:0:
410,116,29440,1,0,0:0:0:0:
438,184,29710,1,8,0:0:0:0:
31,51,29845,1,8,0:0:0:0:
438,184,29980,1,8,0:0:0:0:
380,210,30116,1,8,0:0:0:0:
208,153,30251,1,4,0:0:0:0:
490,187,30521,1,8,0:0:0:0:
503,127,30656,1,0,0:0:0:0:
346,139,30791,1,8,0:0:0:0:
445,139,31062,1,0,0:0:0:0:
345,233,31197,1,8,0:0:0:0:
345,233,31264,1,8,0:0:0:0:
414,175,31332,1,0,0:0:0:0:
465,168,31467,1,0,0:0:0:0:
395,101,31602,1,8,0:0:0:0:
170,165,31670,1,0,0:0:0:0:
395,101,31737,1,0,0:0:0:0:
395,101,31872,1,8,0:0:0:0:
440,128,32143,1,0,0:0:0:0:
433,154,32278,1,0,0:0:0:0:
344,144,32413,1,8,0:0:0:0:
333,142,32683,1,0,0:0:0:0:
450,241,32818,1,8,0:0:0:0:
450,241,32886,1,8,0:0:0:0:
450,241,32953,1,0,0:0:0:0:
370,230,33224,1,0,0:0:0:0:
245,136,33359,1,8,0:0:0:0:
425,250,33494,1,0,0:0:0:0:
281,245,33629,1,8,0:0:0:0:
431,178,33764,1,8,0:0:0:0:
495,136,33899,1,0,0:0:0:0:
309,199,33967,1,0,0:0:0:0:
495,136,34035,1,8,0:0:0:0:
494,353,34305,1,0,0:0:0:0:
180,176,34440,1,8,0:0:0:0:
415,226,34575,1,0,0:0:0:0:
449,155,34845,1,0,0:0:0:0:
436,234,34980,1,8,0:0:0:0:
435,234,35048,1,8,0:0:0:0:
495,185,35116,1,0,0:0:0:0:
349,269,35386,1,0,0:0:0:0:
337,161,35521,1,0,0:0:0:0:
337,161,35589,1,0,0:0:0:0:
399,95,35656,1,8,0:0:0:0:
456,139,35791,1,8,0:0:0:0:
226,145,35926,1,0,0:0:0:0:
403,222,36062,1,8,0:0:0:0:
442,168,36197,1,8,0:0:0:0:
295,129,36467,5,0,0:0:0:0:
355,380,36602,1,0,0:0:0:0:
497,98,36737,1,12,0:0:0:0:
342,166,36872,1,0,0:0:0:0:
342,166,36940,1,0,0:0:0:0:
342,166,37008,1,0,0:0:0:0:
453,132,37143,1,12,0:0:0:0:
398,186,37278,1,0,0:0:0:0:
398,186,37345,1,0,0:0:0:0:
398,186,37413,1,0,0:0:0:0:
453,120,37548,1,12,0:0:0:0:
473,180,37818,1,0,0:0:0:0:
404,166,37953,1,8,0:0:0:0:
222,69,38089,1,0,0:0:0:0:
378,55,38224,1,8,0:0:0:0:
457,133,38359,1,0,0:0:0:0:
457,133,38426,1,0,0:0:0:0:
457,133,38494,1,0,0:0:0:0:
457,133,38562,1,0,0:0:0:0:
419,170,38629,1,8,0:0:0:0:
209,153,38899,1,0,0:0:0:0:
491,187,39169,1,8,0:0:0:0:
504,127,39304,1,0,0:0:0:0:
150,125,39372,1,0,0:0:0:0:
347,139,39439,1,8,0:0:0:0:
446,139,39710,1,0,0:0:0:0:
346,233,39845,1,8,0:0:0:0:
346,233,39912,1,8,0:0:0:0:
415,175,39980,1,0,0:0:0:0:
466,168,40115,1,8,0:0:0:0:
396,101,40251,1,0,0:0:0:0:
249,372,40318,1,0,0:0:0:0:
396,101,40385,1,0,0:0:0:0:
396,101,40520,1,8,0:0:0:0:
227,285,40791,1,0,0:0:0:0:
273,122,40926,1,0,0:0:0:0:
151,243,41061,1,8,0:0:0:0:
334,142,41331,1,0,0:0:0:0:
451,241,41466,1,8,0:0:0:0:
451,241,41534,1,8,0:0:0:0:
451,241,41601,1,0,0:0:0:0:
465,114,41737,1,8,0:0:0:0:
371,230,41872,1,0,0:0:0:0:
426,250,42142,1,0,0:0:0:0:
141,135,42210,1,0,0:0:0:0:
282,245,42277,1,0,0:0:0:0:
141,135,42345,1,0,0:0:0:0:
432,178,42412,1,8,0:0:0:0:
496,136,42547,1,0,0:0:0:0:
155,72,42683,1,8,0:0:0:0:
301,112,42751,1,8,0:0:0:0:
286,85,42818,1,8,0:0:0:0:
286,85,42885,1,8,0:0:0:0:
495,353,42953,1,0,0:0:0:0:
181,176,43088,1,8,0:0:0:0:
416,226,43223,1,0,0:0:0:0:
450,155,43493,1,0,0:0:0:0:
437,234,43628,1,8,0:0:0:0:
436,234,43696,1,8,0:0:0:0:
496,185,43764,1,0,0:0:0:0:
350,269,44034,5,8,0:0:0:0:
338,161,44169,1,0,0:0:0:0:
338,161,44237,1,0,0:0:0:0:
400,95,44304,1,8,0:0:0:0:
457,139,44439,1,8,0:0:0:0:
227,145,44575,1,0,0:0:0:0:
404,222,44710,1,0,0:0:0:0:
404,222,44777,1,0,0:0:0:0:
443,168,44845,1,8,0:0:0:0:
167,137,45116,1,8,0:0:0:0:
167,137,45251,1,0,0:0:0:0:
124,206,45318,1,0,0:0:0:0:
292,109,45386,1,8,0:0:0:0:
124,206,45521,1,0,0:0:0:0:
422,173,45656,1,8,0:0:0:0:
249,165,45724,1,8,0:0:0:0:
461,199,45791,1,8,0:0:0:0:
395,133,45926,1,0,0:0:0:0:
326,229,46062,1,8,0:0:0:0:
326,229,46129,1,8,0:0:0:0:
326,229,46197,1,0,0:0:0:0:
391,281,46467,1,0,0:0:0:0:
391,281,46535,1,0,0:0:0:0:
391,281,46602,1,0,0:0:0:0:
391,281,46670,1,0,0:0:0:0:
431,109,46737,1,8,0:0:0:0:
487,237,46872,1,0,0:0:0:0:
438,176,47008,1,8,0:0:0:0:
419,132,47143,1,8,0:0:0:0:
322,209,47278,1,0,0:0:0:0:
349,135,47345,1,0,0:0:0:0:
245,105,47413,1,8,0:0:0:0:
345,90,47548,5,0,0:0:0:0:
441,118,47818,1,0,0:0:0:0:
343,161,48088,1,0,0:0:0:0:
342,258,48359,1,8,0:0:0:0:
294,208,48494,1,8,0:0:0:0:
413,165,48629,1,0,0:0:0:0:
435,119,48899,1,8,0:0:0:0:
296,162,49169,1,8,0:0:0:0:
389,175,49305,1,0,0:0:0:0:
389,175,49440,1,8,0:0:0:0:
494,145,49710,1,0,0:0:0:0:
442,252,49980,1,8,0:0:0:0:
417,156,50250,1,0,0:0:0:0:
432,156,50521,1,8,0:0:0:0:
396,108,50656,1,8,0:0:0:0:
365,272,50791,1,0,0:0:0:0:
362,135,51061,1,8,0:0:0:0:
458,146,51332,1,0,0:0:0:0:
358,185,51467,1,8,0:0:0:0:
225,190,51602,1,8,0:0:0:0:
416,250,51872,1,0,0:0:0:0:
452,186,52142,1,8,0:0:0:0:
357,150,52413,1,0,0:0:0:0:
416,87,52683,1,8,0:0:0:0:
275,208,52818,1,0,0:0:0:0:
247,134,52953,1,8,0:0:0:0:
393,216,53223,1,0,0:0:0:0:
431,135,53359,1,8,0:0:0:0:
466,166,53494,1,0,0:0:0:0:
324,137,53764,1,8,0:0:0:0:
463,234,53899,1,8,0:0:0:0:
161,176,54034,1,0,0:0:0:0:
326,288,54305,1,8,0:0:0:0:
326,288,54575,1,0,0:0:0:0:
333,274,54845,1,0,0:0:0:0:
426,176,54980,1,0,0:0:0:0:
281,170,55116,5,8,0:0:0:0:
371,300,55386,1,0,0:0:0:0:
466,142,55656,1,8,0:0:0:0:
467,170,55791,1,0,0:0:0:0:
379,162,55926,1,8,0:0:0:0:
345,90,56197,5,4,0:0:0:0:
441,118,56467,1,8,0:0:0:0:
291,191,56602,1,8,0:0:0:0:
291,191,56670,1,8,0:0:0:0:
343,161,56737,1,0,0:0:0:0:
342,258,56872,1,8,0:0:0:0:
342,258,57008,1,0,0:0:0:0:
413,165,57278,1,0,0:0:0:0:
416,229,57413,1,0,0:0:0:0:
435,119,57548,1,8,0:0:0:0:
498,163,57683,1,0,0:0:0:0:
443,126,57751,1,8,0:0:0:0:
388,103,57818,1,0,0:0:0:0:
389,175,57953,1,8,0:0:0:0:
416,145,58089,1,0,0:0:0:0:
169,64,58359,1,0,0:0:0:0:
442,252,58629,1,8,0:0:0:0:
361,130,58764,1,0,0:0:0:0:
454,194,58832,1,8,0:0:0:0:
417,156,58899,1,0,0:0:0:0:
437,184,59035,1,8,0:0:0:0:
267,134,59170,1,8,0:0:0:0:
267,134,59237,1,8,0:0:0:0:
365,272,59305,1,0,0:0:0:0:
365,272,59440,1,0,0:0:0:0:
362,135,59710,1,8,0:0:0:0:
445,228,59845,1,0,0:0:0:0:
441,220,59913,1,8,0:0:0:0:
458,146,59980,1,0,0:0:0:0:
358,185,60116,1,8,0:0:0:0:
275,177,60251,1,0,0:0:0:0:
275,177,60318,1,0,0:0:0:0:
184,99,60386,1,0,0:0:0:0:
416,250,60521,1,0,0:0:0:0:
452,186,60791,1,8,0:0:0:0:
454,121,60926,1,8,0:0:0:0:
454,121,60994,1,8,0:0:0:0:
357,150,61062,1,0,0:0:0:0:
473,193,61197,1,0,0:0:0:0:
473,193,61264,1,0,0:0:0:0:
466,166,61332,1,8,0:0:0:0:
275,208,61467,1,0,0:0:0:0:
247,134,61602,1,8,0:0:0:0:
393,216,61872,1,8,0:0:0:0:
431,135,62008,1,8,0:0:0:0:
431,135,62075,1,8,0:0:0:0:
466,166,62143,1,0,0:0:0:0:
339,266,62278,1,0,0:0:0:0:
324,137,62413,1,8,0:0:0:0:
463,234,62548,1,0,0:0:0:0:
161,176,62683,1,0,0:0:0:0:
316,87,62953,1,8,0:0:0:0:
323,95,63089,1,8,0:0:0:0:
323,95,63156,1,8,0:0:0:0:
326,288,63224,1,0,0:0:0:0:
418,139,63359,1,0,0:0:0:0:
333,274,63494,1,8,0:0:0:0:
426,176,63629,1,8,0:0:0:0:
281,170,63764,1,0,0:0:0:0:
371,300,64035,1,8,0:0:0:0:
447,234,64170,1,0,0:0:0:0:
466,142,64305,1,8,0:0:0:0:
466,142,64372,1,0,0:0:0:0:
467,170,64440,1,0,0:0:0:0:
379,162,64575,1,8,0:0:0:0:
369,229,64643,1,8,0:0:0:0:
369,229,64710,1,8,0:0:0:0:
228,63,64778,1,8,0:0:0:0:
261,180,64845,1,0,0:0:0:0:
226,191,65048,1,0,0:0:0:0:
312,202,65116,1,8,0:0:0:0:
417,243,65251,1,0,0:0:0:0:
428,164,65386,1,8,0:0:0:0:
359,267,65656,1,8,0:0:0:0:
359,267,65724,1,8,0:0:0:0:
359,267,65791,1,8,0:0:0:0:
364,264,65859,1,8,0:0:0:0:
344,196,65926,1,0,0:0:0:0:
49,165,66062,1,0,0:0:0:0:
356,240,66197,1,0,0:0:0:0:
436,169,66332,1,8,0:0:0:0:
446,242,66467,1,0,0:0:0:0:
76,149,66737,1,0,0:0:0:0:
76,149,66805,1,0,0:0:0:0:
505,160,66872,1,8,0:0:0:0:
505,160,66940,1,8,0:0:0:0:
446,127,67008,1,0,0:0:0:0:
326,84,67278,1,8,0:0:0:0:
326,84,67413,1,0,0:0:0:0:
169,88,67548,1,8,0:0:0:0:
169,88,67616,1,8,0:0:0:0:
335,252,67683,1,8,0:0:0:0:
417,160,67818,1,0,0:0:0:0:
446,200,67953,1,0,0:0:0:0:
446,200,68021,1,0,0:0:0:0:
446,200,68089,1,8,0:0:0:0:
492,155,68359,1,8,0:0:0:0:
345,167,68494,1,0,0:0:0:0:
345,167,68562,1,0,0:0:0:0:
453,119,68629,1,8,0:0:0:0:
388,58,68764,1,8,0:0:0:0:
371,61,68899,1,0,0:0:0:0:
63,195,68967,1,0,0:0:0:0:
63,195,69035,1,0,0:0:0:0:
376,194,69170,1,8,0:0:0:0:
254,91,69372,1,0,0:0:0:0:
358,299,69440,1,8,0:0:0:0:
220,228,69575,5,0,0:0:0:0:
220,228,69643,1,0,0:0:0:0:
421,160,69710,1,8,0:0:0:0:
346,132,69980,1,0,0:0:0:0:
490,114,70116,1,8,0:0:0:0:
404,234,70251,1,0,0:0:0:0:
385,288,70521,1,0,0:0:0:0:
451,146,70791,5,8,0:0:0:0:
465,214,71062,1,0,0:0:0:0:
226,166,71129,1,0,0:0:0:0:
226,166,71197,1,0,0:0:0:0:
291,226,71332,1,8,0:0:0:0:
397,176,71535,1,8,0:0:0:0:
396,180,71602,1,8,0:0:0:0:
296,290,71737,1,0,0:0:0:0:
414,189,71872,1,8,0:0:0:0:
471,179,72143,1,0,0:0:0:0:
471,179,72210,1,0,0:0:0:0:
395,104,72278,1,0,0:0:0:0:
330,155,72413,1,8,0:0:0:0:
456,153,72548,1,0,0:0:0:0:
431,215,72683,1,8,0:0:0:0:
327,99,72751,1,8,0:0:0:0:
306,265,72818,1,0,0:0:0:0:
306,265,72953,1,8,0:0:0:0:
415,155,73224,1,8,0:0:0:0:
415,155,73291,1,8,0:0:0:0:
415,155,73359,1,8,0:0:0:0:
496,172,73426,1,8,0:0:0:0:
345,90,73494,5,0,0:0:0:0:
477,173,73629,1,0,0:0:0:0:
441,118,73764,1,0,0:0:0:0:
291,191,73899,1,8,0:0:0:0:
343,161,74034,1,0,0:0:0:0:
294,208,74305,1,8,0:0:0:0:
294,208,74372,1,8,0:0:0:0:
323,99,74440,1,8,0:0:0:0:
413,165,74575,1,0,0:0:0:0:
416,229,74710,1,0,0:0:0:0:
435,119,74845,1,0,0:0:0:0:
498,163,74980,1,0,0:0:0:0:
210,77,75048,1,0,0:0:0:0:
196,103,75116,5,0,0:0:0:0:
389,175,75386,1,8,0:0:0:0:
494,145,75656,1,0,0:0:0:0:
442,252,75791,1,8,0:0:0:0:
140,112,75859,1,8,0:0:0:0:
442,252,75926,1,8,0:0:0:0:
140,112,76197,1,0,0:0:0:0:
149,114,76332,1,8,0:0:0:0:
149,114,76399,1,0,0:0:0:0:
432,156,76467,1,8,0:0:0:0:
185,148,76535,1,8,0:0:0:0:
185,148,76602,1,0,0:0:0:0:
365,272,76737,1,0,0:0:0:0:
136,158,76940,1,0,0:0:0:0:
362,135,77007,1,8,0:0:0:0:
445,228,77142,1,0,0:0:0:0:
441,220,77210,1,0,0:0:0:0:
458,146,77277,1,8,0:0:0:0:
318,121,77548,1,0,0:0:0:0:
320,99,77683,1,8,0:0:0:0:
416,250,77818,1,0,0:0:0:0:
329,128,78089,5,0,0:0:0:0:
424,106,78224,1,8,0:0:0:0:
431,135,78359,1,0,0:0:0:0:
377,128,78562,1,0,0:0:0:0:
466,166,78629,1,8,0:0:0:0:
275,208,78764,1,8,0:0:0:0:
247,134,78899,1,0,0:0:0:0:
393,216,79169,1,8,0:0:0:0:
431,135,79305,1,8,0:0:0:0:
431,135,79372,1,8,0:0:0:0:
466,166,79440,1,0,0:0:0:0:
339,266,79575,1,0,0:0:0:0:
234,153,79643,1,0,0:0:0:0:
324,137,79710,1,8,0:0:0:0:
161,176,79980,1,0,0:0:0:0:
325,142,80048,1,0,0:0:0:0:
325,142,80116,1,0,0:0:0:0:
326,288,80251,1,8,0:0:0:0:
326,288,80521,1,0,0:0:0:0:
207,107,80656,1,0,0:0:0:0:
333,274,80791,1,8,0:0:0:0:
426,176,80926,1,8,0:0:0:0:
289,115,80994,1,8,0:0:0:0:
281,170,81061,1,0,0:0:0:0:
249,229,81197,1,0,0:0:0:0:
249,229,81264,1,0,0:0:0:0:
466,156,81332,1,8,0:0:0:0:
466,142,81602,1,8,0:0:0:0:
466,142,81669,1,8,0:0:0:0:
467,170,81737,1,0,0:0:0:0:
309,192,81872,1,0,0:0:0:0:
309,192,81940,1,0,0:0:0:0:
369,229,82007,1,8,0:0:0:0:
254,154,82143,5,0,0:0:0:0:
446,193,82413,1,0,0:0:0:0:
491,146,82683,1,0,0:0:0:0:
311,166,82953,1,0,0:0:0:0:
416,174,83224,1,0,0:0:0:0:
176,77,83359,1,0,0:0:0:0:
176,77,83494,1,0,0:0:0:0:
176,77,83629,1,0,0:0:0:0:
331,226,83764,1,0,0:0:0:0:
331,226,83832,1,0,0:0:0:0:
331,226,83899,1,0,0:0:0:0:
331,226,83967,1,0,0:0:0:0:
340,105,84035,1,8,0:0:0:0:
472,189,84305,1,8,0:0:0:0:
482,187,84373,1,8,0:0:0:0:
482,187,84440,1,0,0:0:0:0:
482,187,84508,1,0,0:0:0:0:
488,120,84575,1,8,0:0:0:0:
389,208,84711,1,0,0:0:0:0:
381,211,84846,1,0,0:0:0:0:
371,155,84981,1,8,0:0:0:0:
442,160,85116,1,0,0:0:0:0:
333,120,85386,1,8,0:0:0:0:
286,146,85521,1,0,0:0:0:0:
286,146,85589,1,0,0:0:0:0:
286,146,85656,1,8,0:0:0:0:
372,215,85792,1,0,0:0:0:0:
349,134,85927,1,8,0:0:0:0:
475,141,86197,1,0,0:0:0:0:
321,137,86399,1,8,0:0:0:0:
385,176,86467,1,0,0:0:0:0:
365,104,86602,1,8,0:0:0:0:
365,104,86670,1,0,0:0:0:0:
379,221,86738,1,0,0:0:0:0:
332,160,86873,1,8,0:0:0:0:
95,31,87008,1,0,0:0:0:0:
366,379,87143,1,8,0:0:0:0:
465,160,87278,1,0,0:0:0:0:
428,213,87548,1,0,0:0:0:0:
416,116,87683,1,0,0:0:0:0:
371,149,87819,1,8,0:0:0:0:
335,205,87954,1,8,0:0:0:0:
301,147,88089,1,8,0:0:0:0:
301,147,88156,1,8,0:0:0:0:
311,260,88224,1,0,0:0:0:0:
311,260,88359,1,8,0:0:0:0:
353,293,88629,1,0,0:0:0:0:
290,202,88832,1,0,0:0:0:0:
376,199,88900,1,8,0:0:0:0:
376,199,88967,1,0,0:0:0:0:
394,149,89035,1,0,0:0:0:0:
261,263,89170,1,0,0:0:0:0:
378,119,89237,1,8,0:0:0:0:
374,132,89305,1,0,0:0:0:0:
470,168,89440,1,8,0:0:0:0:
417,232,89575,1,8,0:0:0:0:
337,144,89710,1,0,0:0:0:0:
395,139,89981,1,8,0:0:0:0:
277,223,90116,1,0,0:0:0:0:
277,223,90183,1,8,0:0:0:0:
461,165,90251,1,0,0:0:0:0:
342,101,90521,1,8,0:0:0:0:
362,209,90656,1,8,0:0:0:0:
336,210,90724,1,8,0:0:0:0:
253,161,90792,1,0,0:0:0:0:
407,162,91062,1,8,0:0:0:0:
431,180,91197,1,0,0:0:0:0:
404,138,91332,1,8,0:0:0:0:
474,198,91467,1,0,0:0:0:0:
309,244,91602,1,8,0:0:0:0:
344,208,91738,1,8,0:0:0:0:
344,208,91805,1,8,0:0:0:0:
347,117,91873,1,0,0:0:0:0:
401,215,92143,1,0,0:0:0:0:
439,156,92278,1,8,0:0:0:0:
247,118,92413,1,0,0:0:0:0:
247,118,92480,1,0,0:0:0:0:
247,118,92548,1,0,0:0:0:0:
247,118,92616,1,0,0:0:0:0:
487,180,92683,1,0,0:0:0:0:
373,161,92953,1,8,0:0:0:0:
348,165,93089,1,8,0:0:0:0:
348,169,93156,1,8,0:0:0:0:
291,232,93224,5,0,0:0:0:0:
276,155,93359,1,0,0:0:0:0:
385,200,93494,1,8,0:0:0:0:
494,162,93764,1,8,0:0:0:0:
464,229,93899,1,8,0:0:0:0:
464,229,93967,1,8,0:0:0:0:
334,155,94035,1,0,0:0:0:0:
458,212,94170,1,0,0:0:0:0:
340,200,94305,1,8,0:0:0:0:
446,124,94440,1,0,0:0:0:0:
451,175,94508,1,8,0:0:0:0:
390,164,94575,1,0,0:0:0:0:
179,83,94845,5,0,0:0:0:0:
179,83,94980,1,8,0:0:0:0:
323,170,95116,1,8,0:0:0:0:
96,184,95318,1,0,0:0:0:0:
267,103,95386,1,8,0:0:0:0:
426,120,95521,1,8,0:0:0:0:
276,260,95656,1,0,0:0:0:0:
167,181,95724,1,0,0:0:0:0:
300,165,95791,1,0,0:0:0:0:
300,165,95859,1,0,0:0:0:0:
343,97,95926,1,8,0:0:0:0:
466,200,96197,1,0,0:0:0:0:
431,160,96332,1,0,0:0:0:0:
431,160,96399,1,0,0:0:0:0:
487,164,96467,1,8,0:0:0:0:
351,148,96602,1,8,0:0:0:0:
351,148,96737,1,0,0:0:0:0:
421,97,97008,1,0,0:0:0:0:
443,212,97143,1,8,0:0:0:0:
443,212,97210,1,8,0:0:0:0:
443,212,97278,1,8,0:0:0:0:
430,155,97413,1,0,0:0:0:0:
430,155,97480,1,0,0:0:0:0:
430,155,97548,1,8,0:0:0:0:
481,130,97683,1,8,0:0:0:0:
481,170,97818,1,0,0:0:0:0:
336,280,98089,1,8,0:0:0:0:
312,208,98224,1,8,0:0:0:0:
299,349,98291,1,8,0:0:0:0:
312,208,98359,1,0,0:0:0:0:
370,292,98494,1,0,0:0:0:0:
315,117,98629,1,8,0:0:0:0:
422,170,98764,1,0,0:0:0:0:
422,170,98832,1,0,0:0:0:0:
401,80,98899,1,8,0:0:0:0:
373,206,99170,1,8,0:0:0:0:
311,244,99305,1,0,0:0:0:0:
423,110,99440,1,8,0:0:0:0:
310,130,99575,1,0,0:0:0:0:
149,159,99643,1,0,0:0:0:0:
149,159,99710,1,0,0:0:0:0:
381,119,99845,1,8,0:0:0:0:
329,154,99980,1,0,0:0:0:0:
329,154,100048,1,0,0:0:0:0:
329,154,100116,1,0,0:0:0:0:
329,154,100183,1,0,0:0:0:0:
226,227,100251,1,8,0:0:0:0:
246,217,100521,1,8,0:0:0:0:
449,167,100656,1,8,0:0:0:0:
480,249,100791,1,0,0:0:0:0:
450,89,100926,1,0,0:0:0:0:
377,165,101062,1,8,0:0:0:0:
323,150,101129,1,8,0:0:0:0:
323,150,101197,1,8,0:0:0:0:
361,100,101332,1,0,0:0:0:0:
472,189,101602,1,8,0:0:0:0:
482,187,101670,1,8,0:0:0:0:
482,187,101737,1,0,0:0:0:0:
482,187,101805,1,0,0:0:0:0:
488,120,101872,1,8,0:0:0:0:
389,208,102008,1,0,0:0:0:0:
381,211,102143,1,0,0:0:0:0:
371,155,102278,1,8,0:0:0:0:
442,160,102413,1,0,0:0:0:0:
333,120,102683,1,8,0:0:0:0:
286,146,102818,1,0,0:0:0:0:
286,146,102886,1,0,0:0:0:0:
286,146,102953,1,8,0:0:0:0:
372,215,103089,1,0,0:0:0:0:
349,134,103224,1,8,0:0:0:0:
475,141,103494,1,0,0:0:0:0:
321,137,103696,1,8,0:0:0:0:
385,176,103764,1,0,0:0:0:0:
365,104,103899,1,8,0:0:0:0:
365,104,103967,1,0,0:0:0:0:
379,221,104035,1,0,0:0:0:0:
332,160,104170,1,8,0:0:0:0:
95,31,104305,1,0,0:0:0:0:
366,379,104440,1,8,0:0:0:0:
465,160,104575,1,0,0:0:0:0:
428,213,104845,1,0,0:0:0:0:
416,116,104980,1,0,0:0:0:0:
371,149,105116,1,8,0:0:0:0:
335,205,105251,1,8,0:0:0:0:
301,147,105386,1,8,0:0:0:0:
301,147,105453,1,8,0:0:0:0:
311,260,105521,1,0,0:0:0:0:
311,260,105656,1,8,0:0:0:0:
353,293,105926,1,0,0:0:0:0:
290,202,106129,1,0,0:0:0:0:
376,199,106197,1,8,0:0:0:0:
376,199,106264,1,0,0:0:0:0:
394,149,106332,1,0,0:0:0:0:
261,263,106467,1,0,0:0:0:0:
378,119,106534,1,8,0:0:0:0:
374,132,106602,1,0,0:0:0:0:
470,168,106737,1,8,0:0:0:0:
417,232,106872,1,8,0:0:0:0:
337,144,107007,1,0,0:0:0:0:
395,139,107278,1,8,0:0:0:0:
277,223,107413,1,0,0:0:0:0:
277,223,107480,1,8,0:0:0:0:
461,165,107548,1,0,0:0:0:0:
342,101,107818,1,8,0:0:0:0:
362,209,107953,1,8,0:0:0:0:
336,210,108021,1,8,0:0:0:0:
253,161,108089,1,0,0:0:0:0:
407,162,108359,1,8,0:0:0:0:
431,180,108494,1,0,0:0:0:0:
404,138,108629,1,8,0:0:0:0:
251,232,108764,1,0,0:0:0:0:
309,244,108899,1,8,0:0:0:0:
344,208,109035,1,8,0:0:0:0:
344,208,109102,1,8,0:0:0:0:
347,117,109170,1,0,0:0:0:0:
401,215,109440,1,0,0:0:0:0:
439,156,109575,1,8,0:0:0:0:
247,118,109710,1,0,0:0:0:0:
247,118,109777,1,0,0:0:0:0:
247,118,109845,1,0,0:0:0:0:
247,118,109913,1,0,0:0:0:0:
487,180,109980,1,0,0:0:0:0:
437,141,110251,1,8,0:0:0:0:
454,150,110386,1,0,0:0:0:0:
454,150,110521,1,0,0:0:0:0:
462,149,110656,1,8,0:0:0:0:
478,142,110724,1,0,0:0:0:0:
437,141,110791,1,8,0:0:0:0:
218,146,111062,1,8,0:0:0:0:
333,157,111197,1,0,0:0:0:0:
333,157,111264,1,0,0:0:0:0:
374,133,111332,1,8,0:0:0:0:
439,127,111467,1,8,0:0:0:0:
420,135,111602,1,0,0:0:0:0:
441,135,111737,1,8,0:0:0:0:
431,131,111872,1,0,0:0:0:0:
480,147,112143,1,8,0:0:0:0:
391,161,112278,1,0,0:0:0:0:
391,161,112345,1,0,0:0:0:0:
420,135,112413,1,8,0:0:0:0:
367,124,112683,1,0,0:0:0:0:
332,143,112818,5,8,0:0:0:0:
332,143,112886,1,8,0:0:0:0:
370,130,112953,1,0,0:0:0:0:
409,148,113224,1,8,0:0:0:0:
389,185,113359,1,0,0:0:0:0:
448,143,113426,1,8,0:0:0:0:
456,137,113494,1,0,0:0:0:0:
453,136,113629,1,0,0:0:0:0:
407,149,113764,1,8,0:0:0:0:
411,150,113899,1,0,0:0:0:0:
409,148,113967,1,0,0:0:0:0:
374,135,114035,1,8,0:0:0:0:
388,158,114305,1,0,0:0:0:0:
345,161,114440,1,8,0:0:0:0:
347,202,114508,1,8,0:0:0:0:
332,193,114575,1,8,0:0:0:0:
390,125,114778,1,0,0:0:0:0:
438,139,114845,1,8,0:0:0:0:
405,129,114980,1,0,0:0:0:0:
406,130,115048,1,8,0:0:0:0:
351,104,115116,1,8,0:0:0:0:
281,225,115386,1,0,0:0:0:0:
419,165,115521,1,8,0:0:0:0:
330,163,115656,1,0,0:0:0:0:
450,123,115791,1,8,0:0:0:0:
445,133,115859,1,0,0:0:0:0:
445,133,115926,1,0,0:0:0:0:
407,150,116062,1,8,0:0:0:0:
408,150,116129,1,8,0:0:0:0:
363,127,116197,1,0,0:0:0:0:
397,130,116467,1,8,0:0:0:0:
398,131,116535,1,8,0:0:0:0:
258,180,116602,1,0,0:0:0:0:
398,131,116737,1,8,0:0:0:0:
483,126,117008,1,8,0:0:0:0:
324,137,117143,1,8,0:0:0:0:
324,137,117210,1,8,0:0:0:0:
439,155,117278,1,0,0:0:0:0:
236,79,117345,1,0,0:0:0:0:
236,79,117413,1,0,0:0:0:0:
367,117,117548,1,0,0:0:0:0:
393,139,117818,1,0,0:0:0:0:
393,139,117886,1,8,0:0:0:0:
393,139,117953,1,0,0:0:0:0:
393,139,118021,1,8,0:0:0:0:
301,119,118089,1,8,0:0:0:0:
163,170,118224,1,0,0:0:0:0:
163,170,118291,1,0,0:0:0:0:
385,123,118359,1,8,0:0:0:0:
315,160,118494,5,0,0:0:0:0:
315,160,118629,1,0,0:0:0:0:
315,160,118697,1,0,0:0:0:0:
315,160,118764,1,0,0:0:0:0:
315,160,118832,1,0,0:0:0:0:
229,99,118899,1,8,0:0:0:0:
436,124,119170,1,0,0:0:0:0:
430,150,119440,1,8,0:0:0:0:
281,193,119710,1,0,0:0:0:0:
361,163,119980,1,0,0:0:0:0:
361,163,120116,1,0,0:0:0:0:
439,148,120251,5,8,0:0:0:0:
439,148,120386,1,8,0:0:0:0:
449,163,120521,1,0,0:0:0:0:
449,165,120589,1,0,0:0:0:0:
450,165,120656,1,0,0:0:0:0:
450,165,120724,1,0,0:0:0:0:
405,145,120791,1,8,0:0:0:0:
420,137,120926,1,8,0:0:0:0:
420,137,120994,1,8,0:0:0:0:
443,134,121062,1,0,0:0:0:0:
429,205,121332,5,0,0:0:0:0:
167,169,121467,1,0,0:0:0:0:
167,169,121535,1,0,0:0:0:0:
221,101,121602,1,8,0:0:0:0:
299,210,121872,1,0,0:0:0:0:
399,195,122008,1,0,0:0:0:0:
231,206,122143,1,8,0:0:0:0:
234,174,122278,1,8,0:0:0:0:
421,217,122413,1,0,0:0:0:0:
272,175,122548,1,0,0:0:0:0:
272,175,122616,1,0,0:0:0:0:
456,160,122683,1,8,0:0:0:0:
356,124,122953,1,8,0:0:0:0:
441,171,123089,1,0,0:0:0:0:
441,171,123156,1,0,0:0:0:0:
455,109,123224,1,8,0:0:0:0:
379,190,123494,1,8,0:0:0:0:
319,123,123629,1,0,0:0:0:0:
423,110,123697,1,0,0:0:0:0:
445,83,123764,1,8,0:0:0:0:
445,83,123899,1,8,0:0:0:0:
445,83,124035,1,0,0:0:0:0:
417,185,124170,1,0,0:0:0:0:
417,185,124305,1,8,0:0:0:0:
219,128,124372,1,0,0:0:0:0:
482,149,124440,1,0,0:0:0:0:
469,152,124575,1,8,0:0:0:0:
371,131,124845,1,8,0:0:0:0:
279,114,124913,1,8,0:0:0:0:
432,205,124980,1,8,0:0:0:0:
416,63,125116,1,0,0:0:0:0:
310,269,125251,1,8,0:0:0:0:
479,168,125386,1,0,0:0:0:0:
321,200,125521,1,0,0:0:0:0:
391,134,125656,1,8,0:0:0:0:
391,134,125724,1,8,0:0:0:0:
336,132,125791,1,0,0:0:0:0:
441,195,125926,1,0,0:0:0:0:
311,150,126197,1,0,0:0:0:0:
225,45,126332,1,8,0:0:0:0:
413,147,126467,1,0,0:0:0:0:
128,143,126535,1,0,0:0:0:0:
416,198,126602,1,8,0:0:0:0:
416,198,126737,1,8,0:0:0:0:
455,185,126872,1,0,0:0:0:0:
301,195,127008,1,8,0:0:0:0:
362,357,127278,5,0,0:0:0:0:
452,166,127413,1,8,0:0:0:0:
451,165,127548,1,8,0:0:0:0:
441,114,127683,1,0,0:0:0:0:
441,114,127818,1,0,0:0:0:0:
425,255,127953,1,8,0:0:0:0:
425,255,128021,1,8,0:0:0:0:
246,242,128089,1,0,0:0:0:0:
470,195,128224,1,8,0:0:0:0:
470,195,128291,1,8,0:0:0:0:
351,170,128359,1,0,0:0:0:0:
454,131,128629,1,0,0:0:0:0:
454,131,128697,1,0,0:0:0:0:
454,131,128764,1,0,0:0:0:0:
454,131,128832,1,0,0:0:0:0:
356,89,128899,1,8,0:0:0:0:
430,196,129035,1,0,0:0:0:0:
423,200,129170,1,8,0:0:0:0:
318,272,129305,1,0,0:0:0:0:
411,208,129440,1,8,0:0:0:0:
411,208,129508,1,0,0:0:0:0:
411,208,129575,1,8,0:0:0:0:
443,134,129710,1,0,0:0:0:0:
429,205,129980,5,0,0:0:0:0:
167,169,130115,1,0,0:0:0:0:
167,169,130183,1,0,0:0:0:0:
221,101,130250,1,8,0:0:0:0:
299,210,130520,1,0,0:0:0:0:
399,195,130656,1,0,0:0:0:0:
231,206,130791,1,8,0:0:0:0:
234,174,130926,1,8,0:0:0:0:
421,217,131061,1,0,0:0:0:0:
272,175,131196,1,0,0:0:0:0:
272,175,131264,1,0,0:0:0:0:
456,160,131331,1,8,0:0:0:0:
356,124,131601,1,8,0:0:0:0:
441,171,131737,1,0,0:0:0:0:
441,171,131804,1,0,0:0:0:0:
455,109,131872,1,8,0:0:0:0:
379,190,132142,1,8,0:0:0:0:
319,123,132277,1,0,0:0:0:0:
423,110,132345,1,0,0:0:0:0:
445,83,132412,1,8,0:0:0:0:
445,83,132547,1,8,0:0:0:0:
445,83,132683,1,8,0:0:0:0:
417,185,132818,1,0,0:0:0:0:
417,185,132953,1,0,0:0:0:0:
219,128,133020,1,0,0:0:0:0:
482,149,133088,1,0,0:0:0:0:
469,152,133223,1,8,0:0:0:0:
371,131,133493,1,8,0:0:0:0:
279,114,133561,1,8,0:0:0:0:
432,205,133628,1,8,0:0:0:0:
416,63,133764,1,0,0:0:0:0:
212,223,134035,1,0,0:0:0:0:
409,205,134305,1,0,0:0:0:0:
409,205,134372,1,0,0:0:0:0:
410,114,134440,1,8,0:0:0:0:
402,181,134575,1,0,0:0:0:0:
466,224,134845,1,0,0:0:0:0:
444,184,134980,1,8,0:0:0:0:
444,184,135048,1,8,0:0:0:0:
281,169,135116,1,0,0:0:0:0:
496,170,135251,1,0,0:0:0:0:
505,164,135318,1,0,0:0:0:0:
416,93,135386,1,8,0:0:0:0:
340,163,135521,1,0,0:0:0:0:
276,277,135656,1,0,0:0:0:0:
380,226,135926,1,0,0:0:0:0:
461,230,136062,1,8,0:0:0:0:
461,230,136197,1,8,0:0:0:0:
399,163,136332,1,0,0:0:0:0:
399,163,136467,1,8,0:0:0:0:
80,135,136535,1,0,0:0:0:0:
456,152,136602,1,8,0:0:0:0:
466,151,136670,1,8,0:0:0:0:
493,175,136737,1,0,0:0:0:0:
493,175,136872,1,0,0:0:0:0:
306,276,136940,1,0,0:0:0:0:
493,175,137008,1,0,0:0:0:0:
391,215,137278,1,0,0:0:0:0:
408,162,137413,1,8,0:0:0:0:
436,148,137548,1,0,0:0:0:0:
491,121,137683,1,8,0:0:0:0:
453,214,137818,1,0,0:0:0:0:
453,214,137953,1,0,0:0:0:0:
346,330,138021,1,0,0:0:0:0:
453,214,138089,1,8,0:0:0:0:
196,190,138359,5,0,0:0:0:0:
423,162,138630,1,8,0:0:0:0:
417,232,138765,1,8,0:0:0:0:
417,232,138832,1,8,0:0:0:0:
417,232,138900,1,0,0:0:0:0:
184,67,139035,1,8,0:0:0:0:
421,155,139170,1,0,0:0:0:0:
337,169,139441,1,8,0:0:0:0:
327,170,139509,1,8,0:0:0:0:
326,170,139575,1,8,0:0:0:0:
295,119,139643,1,8,0:0:0:0:
371,215,139711,1,0,0:0:0:0:
373,127,139846,1,8,0:0:0:0:
422,160,139981,1,0,0:0:0:0:
461,168,140116,1,8,0:0:0:0:
212,188,140251,5,8,0:0:0:0:
178,154,140521,1,0,0:0:0:0:
178,154,140589,1,0,0:0:0:0:
495,170,140656,1,8,0:0:0:0:
367,214,140792,1,0,0:0:0:0:
300,302,140927,1,0,0:0:0:0:
300,302,141062,1,8,0:0:0:0:
400,199,141197,1,0,0:0:0:0:
400,199,141265,1,8,0:0:0:0:
426,143,141332,1,0,0:0:0:0:
258,155,141602,1,0,0:0:0:0:
275,252,141737,1,8,0:0:0:0:
194,150,141873,1,8,0:0:0:0:
194,150,141940,1,8,0:0:0:0:
275,252,142008,1,0,0:0:0:0:
275,252,142143,1,8,0:0:0:0:
275,252,142278,1,8,0:0:0:0:
414,171,142413,1,0,0:0:0:0:
340,184,142683,1,0,0:0:0:0:
401,260,142954,1,8,0:0:0:0:
446,239,143089,1,0,0:0:0:0:
446,239,143156,1,8,0:0:0:0:
446,239,143224,1,0,0:0:0:0:
446,239,143292,1,8,0:0:0:0:
204,83,143359,1,8,0:0:0:0:
362,136,143494,1,0,0:0:0:0:
426,130,143765,1,0,0:0:0:0:
426,130,143832,1,0,0:0:0:0:
471,171,143900,1,0,0:0:0:0:
471,171,144035,1,8,0:0:0:0:
338,164,144170,1,8,0:0:0:0:
461,129,144305,1,0,0:0:0:0:
226,17,144440,1,8,0:0:0:0:
450,192,144575,1,8,0:0:0:0:
326,153,144643,1,8,0:0:0:0:
117,169,144710,1,0,0:0:0:0:
321,177,144846,1,0,0:0:0:0:
450,109,145116,1,8,0:0:0:0:
344,248,145183,1,8,0:0:0:0:
344,248,145251,1,8,0:0:0:0:
259,257,145386,1,0,0:0:0:0:
346,152,145521,1,8,0:0:0:0:
402,119,145656,1,0,0:0:0:0:
401,120,145724,1,0,0:0:0:0:
419,166,145791,1,0,0:0:0:0:
440,169,145926,1,0,0:0:0:0:
440,169,145994,1,0,0:0:0:0:
460,147,146062,1,8,0:0:0:0:
460,147,146129,1,8,0:0:0:0:
457,140,146197,1,0,0:0:0:0:
414,130,146467,1,8,0:0:0:0:
414,130,146602,1,8,0:0:0:0:
372,139,146737,1,0,0:0:0:0:
