osu file format v14

[General]
AudioFilename: audio.mp3
AudioLeadIn: 0
PreviewTime: 3747
Countdown: 0
SampleSet: Normal
StackLeniency: 0.7
Mode: 1
LetterboxInBreaks: 0
WidescreenStoryboard: 1

[Editor]
Bookmarks: 30234,36720,38882,45099,47531,56180,64828,73477,82126
DistanceSpacing: 1.9
BeatDivisor: 4
GridSize: 32
TimelineZoom: 3.599999

[Metadata]
Title:MIRROR FRAGMENT
TitleUnicode:MIRROR FRAGMENT
Artist:HARI KARI
ArtistUnicode:HARI KARI
Creator:D3kuu
Version:INNER ONI
Source:
Tags:electronic instrumental axer bms breakcore BOFU of Fighters Ultimate 2016 Legendary Again BROKEN TIME pulse.var free stuff #2 nitro
BeatmapID:2034220
BeatmapSetID:971297

[Difficulty]
HPDrainRate:5
CircleSize:5
OverallDifficulty:6.5
ApproachRate:5
SliderMultiplier:1.4
SliderTickRate:1

[Events]
//Background and Video events
0,0,"DvvvOopUYAAUI0D.jpg_large.jpg",0,-35
//Break Periods
//Storyboard Layer 0 (Background)
//Storyboard Layer 1 (Fail)
//Storyboard Layer 2 (Pass)
//Storyboard Layer 3 (Foreground)
//Storyboard Layer 4 (Overlay)
//Storyboard Sound Samples

[TimingPoints]
-19,270.27027027027,4,1,0,100,1,0
0,-133.333333333333,4,1,0,60,0,0
21450,-100,4,1,0,100,0,0
84305,-100,4,1,0,100,0,1
92953,-100,4,1,0,100,0,0
101602,-100,4,1,0,100,0,1
110251,-100,4,1,0,100,0,0
121062,-100,4,1,0,100,0,1
128629,-100,4,1,0,100,0,0
129710,-100,4,1,0,100,0,1
134035,-100,4,1,0,100,0,0

[HitObjects]
359,151,3764,5,0,0:0:0:0:
420,160,4035,1,0,0:0:0:0:
228,308,4305,5,8,0:0:0:0:
157,185,4845,1,0,0:0:0:0:
164,188,5116,1,0,0:0:0:0:
438,167,5386,1,8,0:0:0:0:
455,343,5926,1,8,0:0:0:0:
366,185,6197,1,0,0:0:0:0:
366,185,6467,1,8,0:0:0:0:
300,237,6737,1,8,0:0:0:0:
463,181,7008,1,0,0:0:0:0:
310,149,7548,1,8,0:0:0:0:
511,352,7818,1,0,0:0:0:0:
459,158,8089,1,8,0:0:0:0:
459,158,8359,1,0,0:0:0:0:
312,187,8629,1,8,0:0:0:0:
381,173,9170,1,8,0:0:0:0:
224,179,9440,1,0,0:0:0:0:
224,179,9710,1,0,0:0:0:0:
449,163,10251,1,0,0:0:0:0:
385,257,10521,1,8,0:0:0:0:
385,257,10791,1,8,0:0:0:0:
446,132,11062,1,0,0:0:0:0:
446,132,11332,1,0,0:0:0:0:
451,200,11602,1,8,0:0:0:0:
451,200,11872,1,8,0:0:0:0:
390,234,12413,1,0,0:0:0:0:
390,234,12683,1,0,0:0:0:0:
326,246,12953,1,8,0:0:0:0:
349,199,13224,1,0,0:0:0:0:
349,199,13494,1,0,0:0:0:0:
342,202,13764,1,0,0:0:0:0:
352,137,14035,1,8,0:0:0:0:
399,139,14575,1,0,0:0:0:0:
423,221,14845,1,8,0:0:0:0:
423,221,15116,1,8,0:0:0:0:
294,213,16467,1,8,0:0:0:0:
294,213,16737,1,0,0:0:0:0:
429,170,17008,1,0,0:0:0:0:
229,145,17278,1,8,0:0:0:0:
256,192,20251,12,0,21332,0:0:0:0:
208,192,21602,5,0,0:0:0:0:
435,164,21873,1,8,0:0:0:0:
325,177,22008,1,8,0:0:0:0:
325,177,22075,1,8,0:0:0:0:
173,25,22143,1,0,0:0:0:0:
436,81,22210,1,0,0:0:0:0:
196,69,22278,1,8,0:0:0:0:
433,157,22413,1,0,0:0:0:0:
349,171,22684,1,8,0:0:0:0:
339,172,22751,1,8,0:0:0:0:
178,186,22818,1,8,0:0:0:0:
307,121,22886,1,8,0:0:0:0:
383,217,22954,1,0,0:0:0:0:
385,129,23089,1,8,0:0:0:0:
434,162,23224,1,0,0:0:0:0:
473,170,23359,1,8,0:0:0:0:
436,198,23494,1,8,0:0:0:0:
310,237,23562,1,8,0:0:0:0:
241,63,23629,1,0,0:0:0:0:
301,70,23697,1,8,0:0:0:0:
392,112,23764,1,0,0:0:0:0:
326,83,23832,1,0,0:0:0:0:
507,172,23899,1,8,0:0:0:0:
396,144,24035,1,0,0:0:0:0:
223,18,24170,1,0,0:0:0:0:
322,146,24305,1,8,0:0:0:0:
359,384,24440,1,0,0:0:0:0:
313,149,24508,1,8,0:0:0:0:
438,145,24575,1,0,0:0:0:0:
266,104,24643,1,0,0:0:0:0:
363,235,24710,1,8,0:0:0:0:
318,114,24778,1,8,0:0:0:0:
270,157,24845,1,0,0:0:0:0:
287,254,24980,1,8,0:0:0:0:
398,124,25048,1,0,0:0:0:0:
344,122,25116,1,8,0:0:0:0:
344,122,25183,1,8,0:0:0:0:
287,254,25251,1,0,0:0:0:0:
287,254,25386,1,8,0:0:0:0:
287,254,25521,1,8,0:0:0:0:
426,173,25656,1,0,0:0:0:0:
352,186,25926,1,0,0:0:0:0:
488,167,26062,1,8,0:0:0:0:
352,42,26129,1,0,0:0:0:0:
413,262,26197,1,8,0:0:0:0:
458,241,26332,1,0,0:0:0:0:
458,241,26399,1,8,0:0:0:0:
458,241,26467,1,0,0:0:0:0:
458,241,26535,1,8,0:0:0:0:
216,85,26602,1,8,0:0:0:0:
394,101,26670,1,8,0:0:0:0:
374,138,26737,1,0,0:0:0:0:
218,203,26872,1,8,0:0:0:0:
438,132,27008,1,0,0:0:0:0:
375,382,27075,1,0,0:0:0:0:
180,198,27143,1,0,0:0:0:0:
180,198,27210,1,0,0:0:0:0:
483,173,27278,1,8,0:0:0:0:
351,105,27413,1,8,0:0:0:0:
369,383,27548,1,0,0:0:0:0:
463,142,27683,1,8,0:0:0:0:
486,143,27751,1,0,0:0:0:0:
468,123,27818,1,8,0:0:0:0:
325,38,27886,1,8,0:0:0:0:
450,106,27953,1,0,0:0:0:0:
174,160,28089,1,0,0:0:0:0:
253,200,28156,1,0,0:0:0:0:
304,226,28224,1,0,0:0:0:0:
462,111,28359,1,8,0:0:0:0:
414,116,28426,1,8,0:0:0:0:
414,116,28494,1,8,0:0:0:0:
325,162,28562,1,8,0:0:0:0:
421,157,28629,1,0,0:0:0:0:
364,380,28764,1,8,0:0:0:0:
272,133,28899,1,0,0:0:0:0:
272,133,28967,1,0,0:0:0:0:
272,133,29035,1,0,0:0:0:0:
443,138,29102,1,0,0:0:0:0:
443,138,29170,1,8,0:0:0:0:
179,173,29237,1,0,0:0:0:0:
442,166,29305,1,8,0:0:0:0:
335,170,29372,1,0,0:0:0:0:
441,166,29440,1,8,0:0:0:0:
345,153,29508,1,8,0:0:0:0:
345,153,29575,1,8,0:0:0:0:
345,153,29643,1,8,0:0:0:0:
164,191,29710,1,0,0:0:0:0:
353,117,29845,1,8,0:0:0:0:
451,186,29980,1,8,0:0:0:0:
228,111,30116,5,8,0:0:0:0:
290,155,30251,1,4,0:0:0:0:
481,154,30521,1,8,0:0:0:0:
445,152,30656,1,0,0:0:0:0:
412,117,30791,1,8,0:0:0:0:
412,117,30859,1,8,0:0:0:0:
449,157,30926,1,0,0:0:0:0:
471,150,31062,1,0,0:0:0:0:
477,163,31197,1,8,0:0:0:0:
450,165,31264,1,8,0:0:0:0:
463,164,31332,1,0,0:0:0:0:
486,147,31467,1,0,0:0:0:0:
491,169,31603,1,8,0:0:0:0:
276,160,31670,1,0,0:0:0:0:
447,148,31737,1,0,0:0:0:0:
458,160,31873,1,8,0:0:0:0:
343,269,32008,1,0,0:0:0:0:
413,73,32143,1,0,0:0:0:0:
72,180,32278,1,0,0:0:0:0:
72,180,32345,1,0,0:0:0:0:
401,147,32413,1,8,0:0:0:0:
486,180,32548,1,8,0:0:0:0:
339,145,32683,1,0,0:0:0:0:
162,235,32751,1,0,0:0:0:0:
483,154,32818,1,8,0:0:0:0:
486,159,32886,1,8,0:0:0:0:
494,162,32953,1,0,0:0:0:0:
470,117,33089,1,8,0:0:0:0:
376,233,33224,1,0,0:0:0:0:
387,229,33291,1,0,0:0:0:0:
251,139,33359,1,8,0:0:0:0:
431,253,33494,1,0,0:0:0:0:
437,181,33629,1,8,0:0:0:0:
451,94,33697,1,8,0:0:0:0:
437,181,33764,1,8,0:0:0:0:
501,139,33899,1,0,0:0:0:0:
315,202,33967,1,0,0:0:0:0:
501,139,34035,1,8,0:0:0:0:
291,88,34170,1,0,0:0:0:0:
500,356,34305,1,0,0:0:0:0:
186,179,34440,1,8,0:0:0:0:
341,89,34508,1,8,0:0:0:0:
421,229,34575,1,0,0:0:0:0:
334,268,34710,1,0,0:0:0:0:
455,158,34845,1,0,0:0:0:0:
361,271,34913,1,0,0:0:0:0:
442,237,34980,1,8,0:0:0:0:
441,237,35048,1,8,0:0:0:0:
501,188,35116,1,0,0:0:0:0:
216,299,35251,1,0,0:0:0:0:
355,272,35386,1,0,0:0:0:0:
343,164,35521,1,0,0:0:0:0:
343,164,35589,1,0,0:0:0:0:
405,98,35656,1,8,0:0:0:0:
485,183,35791,1,8,0:0:0:0:
459,176,35927,1,0,0:0:0:0:
484,165,36062,1,8,0:0:0:0:
493,164,36197,1,8,0:0:0:0:
365,173,36332,1,0,0:0:0:0:
438,238,36467,1,0,0:0:0:0:
401,231,36602,1,0,0:0:0:0:
439,125,36737,1,12,0:0:0:0:
483,157,36872,1,0,0:0:0:0:
496,161,36940,1,0,0:0:0:0:
473,173,37008,1,0,0:0:0:0:
500,154,37143,1,12,0:0:0:0:
506,133,37278,1,0,0:0:0:0:
165,133,37345,1,0,0:0:0:0:
444,170,37413,1,0,0:0:0:0:
296,130,37548,1,12,0:0:0:0:
406,112,37683,1,8,0:0:0:0:
478,183,37818,1,0,0:0:0:0:
409,169,37953,1,8,0:0:0:0:
352,169,38021,1,8,0:0:0:0:
227,72,38089,1,0,0:0:0:0:
383,58,38224,1,8,0:0:0:0:
390,160,38291,1,8,0:0:0:0:
462,136,38359,1,0,0:0:0:0:
462,136,38426,1,0,0:0:0:0:
462,136,38494,1,0,0:0:0:0:
462,136,38562,1,0,0:0:0:0:
424,173,38629,1,8,0:0:0:0:
283,163,38697,1,8,0:0:0:0:
283,163,38764,1,8,0:0:0:0:
283,163,38832,1,8,0:0:0:0:
396,210,38899,1,0,0:0:0:0:
273,150,39035,1,0,0:0:0:0:
466,166,39170,1,8,0:0:0:0:
445,152,39304,1,0,0:0:0:0:
328,199,39372,1,0,0:0:0:0:
412,117,39439,1,8,0:0:0:0:
412,117,39507,1,8,0:0:0:0:
449,157,39574,1,0,0:0:0:0:
471,150,39710,1,0,0:0:0:0:
477,163,39845,1,8,0:0:0:0:
450,165,39912,1,8,0:0:0:0:
463,164,39980,1,0,0:0:0:0:
486,147,40115,1,8,0:0:0:0:
491,169,40251,1,0,0:0:0:0:
276,160,40318,1,0,0:0:0:0:
447,148,40385,1,0,0:0:0:0:
181,272,40453,1,0,0:0:0:0:
458,160,40521,1,8,0:0:0:0:
343,269,40656,1,0,0:0:0:0:
413,73,40791,1,0,0:0:0:0:
72,180,40926,1,0,0:0:0:0:
72,180,40993,1,0,0:0:0:0:
401,147,41061,1,8,0:0:0:0:
486,180,41196,1,8,0:0:0:0:
339,145,41331,1,0,0:0:0:0:
483,154,41466,1,8,0:0:0:0:
486,159,41534,1,8,0:0:0:0:
494,162,41601,1,0,0:0:0:0:
470,117,41737,1,8,0:0:0:0:
376,233,41872,1,0,0:0:0:0:
387,229,41939,1,0,0:0:0:0:
251,139,42007,1,8,0:0:0:0:
431,253,42142,1,0,0:0:0:0:
225,184,42210,1,0,0:0:0:0:
437,181,42277,1,0,0:0:0:0:
451,94,42345,1,0,0:0:0:0:
437,181,42412,1,8,0:0:0:0:
501,139,42547,1,0,0:0:0:0:
315,202,42615,1,0,0:0:0:0:
501,139,42683,1,8,0:0:0:0:
242,64,42750,1,8,0:0:0:0:
338,151,42818,1,8,0:0:0:0:
291,88,42885,1,8,0:0:0:0:
500,356,42953,1,0,0:0:0:0:
186,179,43088,1,8,0:0:0:0:
421,229,43224,1,0,0:0:0:0:
334,268,43358,1,0,0:0:0:0:
455,158,43493,1,0,0:0:0:0:
361,271,43561,1,0,0:0:0:0:
442,237,43628,1,8,0:0:0:0:
441,237,43696,1,8,0:0:0:0:
501,188,43764,1,0,0:0:0:0:
216,299,43899,1,0,0:0:0:0:
355,272,44034,5,8,0:0:0:0:
507,122,44101,1,8,0:0:0:0:
343,164,44169,1,0,0:0:0:0:
343,164,44237,1,0,0:0:0:0:
405,98,44304,1,8,0:0:0:0:
485,183,44439,1,8,0:0:0:0:
267,160,44507,1,8,0:0:0:0:
459,176,44575,1,0,0:0:0:0:
484,165,44710,1,0,0:0:0:0:
484,165,44777,1,0,0:0:0:0:
493,164,44845,1,8,0:0:0:0:
365,173,44980,1,0,0:0:0:0:
166,176,45116,1,8,0:0:0:0:
451,176,45251,1,0,0:0:0:0:
356,76,45318,1,0,0:0:0:0:
390,168,45386,1,8,0:0:0:0:
473,173,45522,1,0,0:0:0:0:
142,139,45656,1,8,0:0:0:0:
121,157,45724,1,8,0:0:0:0:
466,202,45791,1,8,0:0:0:0:
234,126,45859,1,8,0:0:0:0:
400,136,45926,1,0,0:0:0:0:
336,108,45994,1,0,0:0:0:0:
241,164,46062,1,8,0:0:0:0:
241,164,46129,1,8,0:0:0:0:
331,232,46197,1,0,0:0:0:0:
479,138,46332,1,8,0:0:0:0:
396,284,46467,1,0,0:0:0:0:
396,284,46535,1,0,0:0:0:0:
396,284,46602,1,0,0:0:0:0:
396,284,46670,1,0,0:0:0:0:
30,375,46737,1,8,0:0:0:0:
492,240,46872,1,0,0:0:0:0:
443,179,47008,1,8,0:0:0:0:
424,135,47143,1,8,0:0:0:0:
242,158,47278,1,8,0:0:0:0:
390,101,47345,1,8,0:0:0:0:
262,278,47413,1,0,0:0:0:0:
258,127,47548,1,0,0:0:0:0:
360,125,47818,1,0,0:0:0:0:
314,103,48089,1,0,0:0:0:0:
351,140,48359,1,8,0:0:0:0:
306,235,48494,1,8,0:0:0:0:
438,154,48629,1,0,0:0:0:0:
432,231,48899,1,8,0:0:0:0:
501,137,49170,1,8,0:0:0:0:
455,206,49305,1,0,0:0:0:0:
444,212,49440,1,8,0:0:0:0:
374,125,49575,1,8,0:0:0:0:
285,263,49710,1,0,0:0:0:0:
405,144,49980,1,8,0:0:0:0:
421,201,50251,1,0,0:0:0:0:
416,247,50521,1,8,0:0:0:0:
416,247,50656,1,8,0:0:0:0:
416,247,50791,1,0,0:0:0:0:
429,146,51062,1,8,0:0:0:0:
476,149,51332,1,0,0:0:0:0:
471,181,51467,1,8,0:0:0:0:
156,121,51602,1,8,0:0:0:0:
244,225,51872,1,0,0:0:0:0:
354,128,52143,1,8,0:0:0:0:
386,193,52413,1,0,0:0:0:0:
418,142,52683,1,8,0:0:0:0:
201,92,52818,1,0,0:0:0:0:
418,142,52953,1,8,0:0:0:0:
470,183,53224,1,0,0:0:0:0:
356,44,53359,1,8,0:0:0:0:
267,234,53494,1,0,0:0:0:0:
396,194,53764,1,8,0:0:0:0:
385,181,53899,1,8,0:0:0:0:
231,199,54035,1,0,0:0:0:0:
461,133,54305,1,8,0:0:0:0:
431,239,54575,1,0,0:0:0:0:
414,213,54845,1,0,0:0:0:0:
414,213,54980,1,0,0:0:0:0:
351,168,55116,1,8,0:0:0:0:
229,174,55386,5,0,0:0:0:0:
229,174,55656,1,8,0:0:0:0:
497,126,55791,1,0,0:0:0:0:
407,178,55926,1,8,0:0:0:0:
344,143,56196,1,0,0:0:0:0:
401,228,56332,1,8,0:0:0:0:
360,125,56467,1,8,0:0:0:0:
300,265,56602,1,8,0:0:0:0:
461,170,56670,1,8,0:0:0:0:
380,214,56738,1,0,0:0:0:0:
366,215,56873,1,0,0:0:0:0:
411,105,57008,1,0,0:0:0:0:
390,229,57075,1,0,0:0:0:0:
306,235,57143,1,0,0:0:0:0:
438,154,57278,1,0,0:0:0:0:
482,167,57413,1,0,0:0:0:0:
432,231,57548,1,8,0:0:0:0:
315,150,57684,1,0,0:0:0:0:
315,150,57751,1,8,0:0:0:0:
501,137,57818,1,0,0:0:0:0:
455,206,57954,1,8,0:0:0:0:
279,130,58089,1,0,0:0:0:0:
285,263,58359,1,0,0:0:0:0:
103,169,58494,1,0,0:0:0:0:
417,140,58629,1,8,0:0:0:0:
421,129,58764,1,0,0:0:0:0:
470,147,58832,1,8,0:0:0:0:
334,171,58899,1,0,0:0:0:0:
213,91,59035,1,8,0:0:0:0:
289,164,59170,5,8,0:0:0:0:
289,164,59237,1,8,0:0:0:0:
312,115,59305,1,0,0:0:0:0:
416,247,59440,1,0,0:0:0:0:
336,168,59575,1,8,0:0:0:0:
429,146,59710,1,8,0:0:0:0:
484,92,59846,1,0,0:0:0:0:
137,196,59913,1,8,0:0:0:0:
476,149,59981,1,0,0:0:0:0:
471,181,60116,1,8,0:0:0:0:
217,149,60251,1,0,0:0:0:0:
222,156,60318,1,0,0:0:0:0:
478,184,60386,1,0,0:0:0:0:
244,225,60521,1,0,0:0:0:0:
354,128,60792,1,0,0:0:0:0:
386,193,60927,1,8,0:0:0:0:
215,120,60994,1,8,0:0:0:0:
386,193,61062,1,0,0:0:0:0:
468,244,61197,1,0,0:0:0:0:
312,176,61264,1,0,0:0:0:0:
418,142,61332,1,8,0:0:0:0:
201,92,61467,1,0,0:0:0:0:
418,142,61602,1,8,0:0:0:0:
452,293,61738,1,0,0:0:0:0:
470,183,61873,1,0,0:0:0:0:
356,44,62008,1,8,0:0:0:0:
267,84,62075,1,8,0:0:0:0:
267,234,62143,1,0,0:0:0:0:
189,203,62278,1,0,0:0:0:0:
396,194,62413,1,8,0:0:0:0:
246,83,62481,1,8,0:0:0:0:
385,181,62548,1,0,0:0:0:0:
420,146,62684,1,0,0:0:0:0:
226,273,62819,1,0,0:0:0:0:
461,133,62954,1,8,0:0:0:0:
487,207,63089,1,8,0:0:0:0:
476,138,63156,1,8,0:0:0:0:
431,239,63224,1,0,0:0:0:0:
295,253,63359,1,0,0:0:0:0:
414,213,63494,1,8,0:0:0:0:
379,147,63629,1,8,0:0:0:0:
379,147,63697,1,8,0:0:0:0:
286,148,63764,1,0,0:0:0:0:
229,174,64035,5,8,0:0:0:0:
220,77,64102,1,0,0:0:0:0:
423,274,64170,1,0,0:0:0:0:
229,174,64305,1,8,0:0:0:0:
237,215,64372,1,0,0:0:0:0:
497,126,64440,1,0,0:0:0:0:
237,215,64508,1,0,0:0:0:0:
407,178,64575,1,8,0:0:0:0:
310,218,64643,1,8,0:0:0:0:
178,229,64711,1,8,0:0:0:0:
367,222,64778,1,8,0:0:0:0:
344,143,64845,1,0,0:0:0:0:
431,148,65048,1,0,0:0:0:0:
354,293,65116,1,8,0:0:0:0:
422,246,65251,1,0,0:0:0:0:
433,167,65386,1,8,0:0:0:0:
49,158,65521,1,0,0:0:0:0:
364,270,65656,1,8,0:0:0:0:
364,270,65724,1,8,0:0:0:0:
364,270,65791,1,8,0:0:0:0:
369,267,65859,1,8,0:0:0:0:
349,199,65926,1,0,0:0:0:0:
236,276,66062,1,0,0:0:0:0:
361,243,66197,1,0,0:0:0:0:
441,172,66332,1,8,0:0:0:0:
376,106,66467,1,8,0:0:0:0:
341,248,66534,1,0,0:0:0:0:
451,245,66602,1,0,0:0:0:0:
328,245,66737,1,0,0:0:0:0:
446,189,66805,1,0,0:0:0:0:
510,163,66872,1,8,0:0:0:0:
510,163,66940,1,8,0:0:0:0:
451,130,67008,1,0,0:0:0:0:
297,93,67278,1,8,0:0:0:0:
339,212,67413,1,0,0:0:0:0:
272,68,67548,1,8,0:0:0:0:
272,68,67616,1,0,0:0:0:0:
272,68,67683,1,8,0:0:0:0:
272,68,67751,1,8,0:0:0:0:
427,133,67818,1,0,0:0:0:0:
427,133,67886,1,0,0:0:0:0:
427,133,67953,1,8,0:0:0:0:
148,155,68021,1,8,0:0:0:0:
381,251,68089,1,0,0:0:0:0:
382,130,68224,1,8,0:0:0:0:
497,158,68359,1,0,0:0:0:0:
350,170,68494,1,0,0:0:0:0:
458,122,68629,1,8,0:0:0:0:
363,159,68697,1,8,0:0:0:0:
393,61,68764,1,8,0:0:0:0:
363,160,68832,1,8,0:0:0:0:
156,112,68899,1,0,0:0:0:0:
156,112,68967,1,0,0:0:0:0:
156,112,69035,1,0,0:0:0:0:
156,112,69102,1,0,0:0:0:0:
381,197,69170,1,8,0:0:0:0:
110,186,69305,1,0,0:0:0:0:
188,205,69372,1,0,0:0:0:0:
363,302,69440,1,0,0:0:0:0:
426,163,69575,1,8,0:0:0:0:
308,87,69643,1,0,0:0:0:0:
426,163,69710,1,8,0:0:0:0:
431,291,69778,1,0,0:0:0:0:
464,188,69845,1,0,0:0:0:0:
476,177,69913,1,8,0:0:0:0:
351,135,69980,1,0,0:0:0:0:
320,108,70048,1,0,0:0:0:0:
261,141,70116,1,0,0:0:0:0:
250,98,70183,1,0,0:0:0:0:
409,237,70251,1,8,0:0:0:0:
188,119,70386,1,8,0:0:0:0:
188,119,70453,1,8,0:0:0:0:
390,291,70521,1,0,0:0:0:0:
258,134,70656,1,0,0:0:0:0:
456,149,70791,5,8,0:0:0:0:
332,265,70926,1,0,0:0:0:0:
470,217,71062,1,0,0:0:0:0:
198,180,71129,1,0,0:0:0:0:
191,253,71197,1,0,0:0:0:0:
198,180,71264,1,0,0:0:0:0:
296,229,71332,1,8,0:0:0:0:
359,99,71535,1,8,0:0:0:0:
401,183,71602,1,8,0:0:0:0:
301,293,71737,1,0,0:0:0:0:
419,192,71872,1,8,0:0:0:0:
476,182,72008,1,8,0:0:0:0:
476,182,72075,1,8,0:0:0:0:
476,182,72143,1,0,0:0:0:0:
476,182,72210,1,0,0:0:0:0:
400,107,72278,1,0,0:0:0:0:
335,158,72413,1,8,0:0:0:0:
239,42,72480,1,8,0:0:0:0:
212,87,72548,1,0,0:0:0:0:
212,87,72616,1,0,0:0:0:0:
436,218,72683,1,8,0:0:0:0:
296,75,72751,1,8,0:0:0:0:
311,268,72818,1,0,0:0:0:0:
189,119,72953,1,8,0:0:0:0:
281,168,73021,1,0,0:0:0:0:
334,337,73089,1,0,0:0:0:0:
420,158,73224,1,8,0:0:0:0:
420,158,73291,1,8,0:0:0:0:
420,158,73359,1,8,0:0:0:0:
501,175,73426,1,8,0:0:0:0:
451,168,73494,1,0,0:0:0:0:
108,198,73629,1,0,0:0:0:0:
307,200,73764,1,0,0:0:0:0:
302,196,73899,1,8,0:0:0:0:
302,196,74035,1,0,0:0:0:0:
375,112,74170,1,8,0:0:0:0:
352,160,74305,1,8,0:0:0:0:
235,95,74372,1,8,0:0:0:0:
501,148,74440,1,8,0:0:0:0:
454,101,74575,1,0,0:0:0:0:
450,170,74710,1,0,0:0:0:0:
311,273,74845,1,0,0:0:0:0:
311,273,74980,1,0,0:0:0:0:
311,284,75048,1,0,0:0:0:0:
311,273,75116,1,0,0:0:0:0:
251,144,75251,1,8,0:0:0:0:
296,143,75386,1,8,0:0:0:0:
172,256,75453,1,8,0:0:0:0:
86,193,75521,1,0,0:0:0:0:
356,216,75656,1,0,0:0:0:0:
198,36,75791,1,8,0:0:0:0:
198,36,75859,1,8,0:0:0:0:
198,36,75926,1,8,0:0:0:0:
461,197,75994,1,8,0:0:0:0:
485,147,76062,1,0,0:0:0:0:
466,225,76197,1,8,0:0:0:0:
396,164,76332,1,0,0:0:0:0:
396,164,76399,1,0,0:0:0:0:
396,164,76467,1,8,0:0:0:0:
187,215,76535,1,0,0:0:0:0:
356,52,76602,1,8,0:0:0:0:
434,122,76670,1,8,0:0:0:0:
308,145,76737,1,0,0:0:0:0:
484,165,76940,1,0,0:0:0:0:
268,135,77008,1,8,0:0:0:0:
326,140,77143,1,0,0:0:0:0:
328,140,77211,1,0,0:0:0:0:
293,114,77278,1,8,0:0:0:0:
394,199,77413,1,0,0:0:0:0:
401,133,77548,1,0,0:0:0:0:
149,64,77683,1,8,0:0:0:0:
149,64,77751,1,8,0:0:0:0:
341,356,77818,1,0,0:0:0:0:
283,288,77953,1,8,0:0:0:0:
341,356,78089,1,0,0:0:0:0:
349,379,78224,1,8,0:0:0:0:
410,158,78359,1,8,0:0:0:0:
471,203,78494,1,0,0:0:0:0:
471,203,78562,1,0,0:0:0:0:
481,140,78629,1,8,0:0:0:0:
309,207,78899,1,0,0:0:0:0:
340,138,79035,1,0,0:0:0:0:
404,188,79170,1,8,0:0:0:0:
381,123,79305,1,8,0:0:0:0:
381,123,79372,1,8,0:0:0:0:
422,148,79440,1,0,0:0:0:0:
379,191,79575,1,0,0:0:0:0:
233,226,79643,1,0,0:0:0:0:
396,232,79710,1,8,0:0:0:0:
457,82,79845,1,0,0:0:0:0:
473,154,79980,1,0,0:0:0:0:
260,173,80048,1,0,0:0:0:0:
197,184,80116,1,0,0:0:0:0:
481,222,80251,1,8,0:0:0:0:
218,86,80521,1,0,0:0:0:0:
218,86,80656,1,0,0:0:0:0:
253,98,80791,1,8,0:0:0:0:
438,213,80926,1,8,0:0:0:0:
396,120,80994,1,8,0:0:0:0:
332,153,81062,1,0,0:0:0:0:
247,111,81197,1,0,0:0:0:0:
247,111,81264,1,0,0:0:0:0:
199,175,81332,5,8,0:0:0:0:
283,293,81467,1,8,0:0:0:0:
336,93,81535,1,8,0:0:0:0:
301,118,81602,1,0,0:0:0:0:
283,293,81737,1,0,0:0:0:0:
202,168,81872,1,0,0:0:0:0:
365,107,81940,1,0,0:0:0:0:
314,89,82008,1,8,0:0:0:0:
366,264,82143,1,0,0:0:0:0:
372,160,82278,1,8,0:0:0:0:
451,196,82413,1,0,0:0:0:0:
413,115,82548,1,8,0:0:0:0:
496,149,82683,1,0,0:0:0:0:
476,67,82818,1,8,0:0:0:0:
316,169,82953,1,0,0:0:0:0:
317,119,83089,1,8,0:0:0:0:
421,177,83224,1,0,0:0:0:0:
181,80,83359,1,0,0:0:0:0:
415,83,83494,1,0,0:0:0:0:
176,142,83629,1,0,0:0:0:0:
336,229,83764,1,0,0:0:0:0:
336,229,83832,1,0,0:0:0:0:
336,229,83899,1,0,0:0:0:0:
336,229,83967,1,0,0:0:0:0:
345,108,84035,1,8,0:0:0:0:
361,211,84102,1,0,0:0:0:0:
296,73,84170,1,8,0:0:0:0:
213,111,84237,1,8,0:0:0:0:
493,155,84305,1,8,0:0:0:0:
479,159,84372,1,8,0:0:0:0:
406,156,84440,1,0,0:0:0:0:
196,287,84508,1,0,0:0:0:0:
318,139,84575,1,8,0:0:0:0:
306,220,84710,1,0,0:0:0:0:
306,220,84778,1,8,0:0:0:0:
306,220,84845,1,0,0:0:0:0:
240,99,84913,1,0,0:0:0:0:
418,117,84980,1,8,0:0:0:0:
371,52,85048,1,8,0:0:0:0:
458,183,85116,1,0,0:0:0:0:
377,281,85251,1,0,0:0:0:0:
479,82,85386,1,8,0:0:0:0:
451,135,85453,1,8,0:0:0:0:
440,113,85521,1,0,0:0:0:0:
20,230,85589,1,0,0:0:0:0:
473,163,85656,1,8,0:0:0:0:
473,163,85791,1,0,0:0:0:0:
472,163,85859,1,0,0:0:0:0:
472,163,85926,1,8,0:0:0:0:
382,236,86062,1,8,0:0:0:0:
344,171,86197,1,0,0:0:0:0:
255,115,86399,1,8,0:0:0:0:
442,107,86467,1,0,0:0:0:0:
354,100,86602,1,8,0:0:0:0:
151,111,86670,1,0,0:0:0:0:
462,205,86737,1,0,0:0:0:0:
462,205,86805,1,0,0:0:0:0:
461,169,86872,1,8,0:0:0:0:
430,66,86940,1,8,0:0:0:0:
331,188,87008,1,0,0:0:0:0:
406,169,87143,1,8,0:0:0:0:
406,169,87210,1,8,0:0:0:0:
327,108,87278,1,0,0:0:0:0:
141,133,87345,1,0,0:0:0:0:
327,264,87413,1,8,0:0:0:0:
231,243,87480,1,8,0:0:0:0:
231,243,87548,1,0,0:0:0:0:
334,323,87683,1,0,0:0:0:0:
334,323,87818,1,8,0:0:0:0:
429,161,87953,1,8,0:0:0:0:
340,54,88021,1,8,0:0:0:0:
205,51,88089,1,8,0:0:0:0:
472,98,88156,1,8,0:0:0:0:
418,104,88224,1,0,0:0:0:0:
418,104,88291,1,0,0:0:0:0:
279,143,88359,1,8,0:0:0:0:
144,195,88494,1,0,0:0:0:0:
397,243,88629,1,0,0:0:0:0:
461,168,88764,1,8,0:0:0:0:
461,168,88832,1,0,0:0:0:0:
499,163,88899,1,8,0:0:0:0:
330,72,88967,1,0,0:0:0:0:
406,123,89035,1,0,0:0:0:0:
297,292,89102,1,0,0:0:0:0:
330,179,89170,1,8,0:0:0:0:
464,83,89237,1,8,0:0:0:0:
466,240,89305,1,0,0:0:0:0:
103,188,89440,1,8,0:0:0:0:
169,254,89575,1,8,0:0:0:0:
451,207,89710,1,0,0:0:0:0:
335,157,89845,1,0,0:0:0:0:
239,283,89913,1,8,0:0:0:0:
334,157,89980,1,8,0:0:0:0:
261,95,90048,1,8,0:0:0:0:
481,153,90116,1,0,0:0:0:0:
475,214,90183,1,8,0:0:0:0:
358,170,90251,1,0,0:0:0:0:
244,299,90386,1,0,0:0:0:0:
447,92,90521,1,8,0:0:0:0:
447,92,90656,1,8,0:0:0:0:
447,92,90724,1,8,0:0:0:0:
478,145,90791,1,0,0:0:0:0:
265,119,90859,1,8,0:0:0:0:
253,142,90926,1,0,0:0:0:0:
254,142,90994,1,0,0:0:0:0:
466,193,91062,1,8,0:0:0:0:
378,178,91197,1,0,0:0:0:0:
378,178,91332,1,8,0:0:0:0:
334,171,91399,1,8,0:0:0:0:
356,221,91467,1,0,0:0:0:0:
370,182,91535,1,0,0:0:0:0:
318,151,91602,1,8,0:0:0:0:
437,133,91670,1,8,0:0:0:0:
437,133,91737,1,8,0:0:0:0:
437,133,91805,1,8,0:0:0:0:
458,144,91872,1,0,0:0:0:0:
356,227,92008,1,0,0:0:0:0:
479,221,92143,1,0,0:0:0:0:
487,180,92278,1,8,0:0:0:0:
371,156,92413,1,0,0:0:0:0:
412,146,92480,1,0,0:0:0:0:
412,146,92548,1,0,0:0:0:0:
412,146,92616,1,0,0:0:0:0:
426,237,92683,1,0,0:0:0:0:
456,173,92818,1,8,0:0:0:0:
422,72,92886,1,8,0:0:0:0:
432,128,92953,1,8,0:0:0:0:
353,168,93089,1,8,0:0:0:0:
353,172,93156,1,8,0:0:0:0:
296,235,93224,5,0,0:0:0:0:
281,158,93359,1,0,0:0:0:0:
390,203,93494,1,8,0:0:0:0:
442,130,93629,1,0,0:0:0:0:
341,297,93697,1,0,0:0:0:0:
499,165,93764,1,8,0:0:0:0:
442,72,93832,1,8,0:0:0:0:
469,232,93899,1,8,0:0:0:0:
469,232,93967,1,8,0:0:0:0:
339,158,94035,1,0,0:0:0:0:
463,215,94170,1,0,0:0:0:0:
345,203,94305,1,8,0:0:0:0:
451,127,94440,1,0,0:0:0:0:
456,178,94508,1,8,0:0:0:0:
395,167,94575,1,0,0:0:0:0:
285,298,94710,1,0,0:0:0:0:
266,61,94845,5,0,0:0:0:0:
444,268,94980,1,8,0:0:0:0:
318,115,95048,1,8,0:0:0:0:
444,268,95116,1,8,0:0:0:0:
171,140,95183,1,8,0:0:0:0:
456,178,95251,1,0,0:0:0:0:
456,178,95318,1,0,0:0:0:0:
460,181,95386,1,0,0:0:0:0:
462,182,95453,1,0,0:0:0:0:
431,123,95521,1,8,0:0:0:0:
281,263,95656,1,8,0:0:0:0:
320,153,95724,1,8,0:0:0:0:
320,153,95791,1,8,0:0:0:0:
320,153,95859,1,8,0:0:0:0:
242,114,95926,1,0,0:0:0:0:
351,109,96062,1,8,0:0:0:0:
471,203,96197,1,0,0:0:0:0:
197,92,96332,1,0,0:0:0:0:
197,92,96399,1,0,0:0:0:0:
343,106,96467,1,8,0:0:0:0:
356,151,96602,1,8,0:0:0:0:
235,253,96670,1,8,0:0:0:0:
356,151,96737,1,0,0:0:0:0:
246,315,96872,1,0,0:0:0:0:
393,120,96940,1,8,0:0:0:0:
426,100,97008,1,0,0:0:0:0:
343,148,97075,1,0,0:0:0:0:
448,215,97143,1,8,0:0:0:0:
448,215,97210,1,8,0:0:0:0:
448,215,97278,1,8,0:0:0:0:
324,152,97345,1,8,0:0:0:0:
435,158,97413,1,0,0:0:0:0:
435,158,97480,1,0,0:0:0:0:
435,158,97548,1,8,0:0:0:0:
486,133,97683,1,8,0:0:0:0:
486,133,97751,1,8,0:0:0:0:
486,173,97818,1,0,0:0:0:0:
341,283,97953,1,8,0:0:0:0:
341,283,98089,1,8,0:0:0:0:
317,211,98224,1,8,0:0:0:0:
304,352,98291,1,8,0:0:0:0:
317,211,98359,1,0,0:0:0:0:
375,295,98494,1,0,0:0:0:0:
320,120,98629,1,8,0:0:0:0:
427,173,98764,1,0,0:0:0:0:
427,173,98832,1,0,0:0:0:0:
406,83,98899,1,8,0:0:0:0:
246,270,99035,1,0,0:0:0:0:
378,209,99170,1,8,0:0:0:0:
316,247,99305,1,0,0:0:0:0:
226,120,99440,1,8,0:0:0:0:
269,307,99575,1,0,0:0:0:0:
445,92,99643,1,0,0:0:0:0:
136,167,99710,1,0,0:0:0:0:
386,122,99845,1,8,0:0:0:0:
131,148,99980,1,0,0:0:0:0:
131,148,100048,1,0,0:0:0:0:
132,148,100116,1,0,0:0:0:0:
132,148,100183,1,0,0:0:0:0:
388,142,100251,1,8,0:0:0:0:
493,147,100521,1,8,0:0:0:0:
479,147,100589,1,0,0:0:0:0:
463,141,100656,1,8,0:0:0:0:
464,141,100724,1,8,0:0:0:0:
210,144,100791,1,0,0:0:0:0:
367,163,100926,1,0,0:0:0:0:
362,165,101062,1,8,0:0:0:0:
362,165,101129,1,8,0:0:0:0:
362,165,101197,1,8,0:0:0:0:
362,165,101264,1,8,0:0:0:0:
387,152,101332,1,0,0:0:0:0:
328,116,101399,1,0,0:0:0:0:
328,116,101467,1,0,0:0:0:0:
493,155,101602,1,8,0:0:0:0:
479,159,101669,1,8,0:0:0:0:
406,156,101737,1,0,0:0:0:0:
196,287,101805,1,0,0:0:0:0:
318,139,101872,1,8,0:0:0:0:
306,220,102007,1,0,0:0:0:0:
306,220,102075,1,8,0:0:0:0:
306,220,102142,1,0,0:0:0:0:
240,99,102210,1,0,0:0:0:0:
418,117,102277,1,8,0:0:0:0:
371,52,102345,1,8,0:0:0:0:
458,183,102413,1,0,0:0:0:0:
377,281,102548,1,0,0:0:0:0:
479,82,102683,1,8,0:0:0:0:
451,135,102750,1,8,0:0:0:0:
440,113,102818,1,0,0:0:0:0:
20,230,102886,1,0,0:0:0:0:
473,163,102953,1,8,0:0:0:0:
473,163,103088,1,0,0:0:0:0:
472,163,103156,1,0,0:0:0:0:
472,163,103223,1,8,0:0:0:0:
382,236,103359,1,8,0:0:0:0:
344,171,103494,1,0,0:0:0:0:
442,107,103764,1,0,0:0:0:0:
354,100,103899,1,8,0:0:0:0:
151,111,103967,1,0,0:0:0:0:
462,205,104034,1,0,0:0:0:0:
462,205,104102,1,0,0:0:0:0:
461,169,104169,1,8,0:0:0:0:
430,66,104237,1,8,0:0:0:0:
331,188,104305,1,0,0:0:0:0:
406,169,104440,1,8,0:0:0:0:
406,169,104507,1,8,0:0:0:0:
327,108,104575,1,0,0:0:0:0:
141,133,104642,1,0,0:0:0:0:
327,264,104710,1,8,0:0:0:0:
231,243,104777,1,8,0:0:0:0:
231,243,104845,1,0,0:0:0:0:
334,323,104980,1,0,0:0:0:0:
334,323,105115,1,8,0:0:0:0:
429,161,105250,1,8,0:0:0:0:
340,54,105318,1,8,0:0:0:0:
205,51,105386,1,8,0:0:0:0:
472,98,105453,1,8,0:0:0:0:
418,104,105521,1,0,0:0:0:0:
418,104,105588,1,0,0:0:0:0:
279,143,105656,1,8,0:0:0:0:
144,195,105791,1,0,0:0:0:0:
397,243,105926,1,0,0:0:0:0:
461,168,106061,1,8,0:0:0:0:
461,168,106129,1,0,0:0:0:0:
499,163,106196,1,8,0:0:0:0:
330,72,106264,1,0,0:0:0:0:
406,123,106332,1,0,0:0:0:0:
297,292,106399,1,0,0:0:0:0:
330,179,106467,1,8,0:0:0:0:
464,83,106534,1,8,0:0:0:0:
466,240,106602,1,0,0:0:0:0:
389,112,106737,1,8,0:0:0:0:
169,254,106872,1,8,0:0:0:0:
451,207,107007,1,0,0:0:0:0:
335,157,107142,1,0,0:0:0:0:
239,283,107210,1,8,0:0:0:0:
334,157,107277,1,8,0:0:0:0:
261,95,107345,1,8,0:0:0:0:
481,153,107413,1,0,0:0:0:0:
475,214,107480,1,8,0:0:0:0:
358,170,107548,1,0,0:0:0:0:
244,299,107683,1,0,0:0:0:0:
447,92,107818,1,8,0:0:0:0:
447,92,107953,1,8,0:0:0:0:
447,92,108021,1,8,0:0:0:0:
478,145,108088,1,0,0:0:0:0:
265,119,108156,1,8,0:0:0:0:
253,142,108223,1,0,0:0:0:0:
254,142,108291,1,0,0:0:0:0:
466,193,108359,1,8,0:0:0:0:
378,178,108494,1,0,0:0:0:0:
378,178,108629,1,8,0:0:0:0:
334,171,108696,1,8,0:0:0:0:
356,221,108764,1,0,0:0:0:0:
370,182,108832,1,0,0:0:0:0:
318,151,108899,1,8,0:0:0:0:
437,133,108967,1,8,0:0:0:0:
437,133,109034,1,8,0:0:0:0:
437,133,109102,1,8,0:0:0:0:
458,144,109169,1,0,0:0:0:0:
356,227,109305,5,0,0:0:0:0:
479,221,109440,1,0,0:0:0:0:
487,180,109575,1,8,0:0:0:0:
371,156,109710,1,0,0:0:0:0:
412,146,109777,1,0,0:0:0:0:
412,146,109845,1,0,0:0:0:0:
412,146,109913,1,0,0:0:0:0:
426,237,109980,1,0,0:0:0:0:
456,173,110115,1,8,0:0:0:0:
422,72,110183,1,8,0:0:0:0:
432,128,110250,1,8,0:0:0:0:
378,164,110386,5,0,0:0:0:0:
354,176,110521,1,0,0:0:0:0:
389,268,110656,1,8,0:0:0:0:
210,294,110724,1,0,0:0:0:0:
404,250,110791,1,0,0:0:0:0:
404,250,110859,1,0,0:0:0:0:
471,177,110926,1,8,0:0:0:0:
401,198,111062,5,8,0:0:0:0:
388,143,111197,1,0,0:0:0:0:
337,367,111264,1,0,0:0:0:0:
450,134,111332,1,8,0:0:0:0:
333,350,111399,1,0,0:0:0:0:
261,112,111467,1,8,0:0:0:0:
318,336,111535,1,0,0:0:0:0:
491,186,111602,1,0,0:0:0:0:
284,188,111737,1,8,0:0:0:0:
394,229,111872,1,0,0:0:0:0:
371,164,112008,1,8,0:0:0:0:
221,113,112075,1,0,0:0:0:0:
425,119,112143,1,8,0:0:0:0:
111,173,112210,1,0,0:0:0:0:
353,217,112278,1,0,0:0:0:0:
466,117,112345,1,0,0:0:0:0:
462,176,112413,1,8,0:0:0:0:
271,313,112548,1,0,0:0:0:0:
390,277,112683,1,0,0:0:0:0:
462,211,112818,1,8,0:0:0:0:
416,123,112886,1,8,0:0:0:0:
450,178,112953,1,0,0:0:0:0:
185,303,113021,1,0,0:0:0:0:
190,95,113089,1,0,0:0:0:0:
310,164,113224,1,8,0:0:0:0:
485,176,113359,1,0,0:0:0:0:
493,110,113426,1,8,0:0:0:0:
150,154,113494,1,0,0:0:0:0:
416,261,113629,1,0,0:0:0:0:
332,261,113697,1,0,0:0:0:0:
362,208,113764,1,8,0:0:0:0:
261,262,113832,1,0,0:0:0:0:
426,145,113899,1,0,0:0:0:0:
426,145,113967,1,0,0:0:0:0:
316,133,114035,1,8,0:0:0:0:
351,145,114170,1,8,0:0:0:0:
351,145,114237,1,8,0:0:0:0:
477,189,114305,1,0,0:0:0:0:
385,168,114440,1,8,0:0:0:0:
159,65,114508,1,8,0:0:0:0:
385,168,114575,1,8,0:0:0:0:
443,121,114710,1,0,0:0:0:0:
443,121,114778,1,0,0:0:0:0:
477,172,114845,1,8,0:0:0:0:
298,69,114913,1,8,0:0:0:0:
447,212,114980,1,0,0:0:0:0:
480,111,115048,1,8,0:0:0:0:
480,111,115116,1,8,0:0:0:0:
392,165,115386,1,0,0:0:0:0:
428,173,115521,1,8,0:0:0:0:
447,224,115656,1,0,0:0:0:0:
332,198,115791,1,8,0:0:0:0:
356,185,115859,1,0,0:0:0:0:
461,166,115926,1,0,0:0:0:0:
323,263,115994,1,0,0:0:0:0:
466,146,116062,1,8,0:0:0:0:
466,146,116129,1,8,0:0:0:0:
504,178,116197,1,0,0:0:0:0:
135,133,116332,1,0,0:0:0:0:
334,96,116467,1,8,0:0:0:0:
203,276,116535,1,8,0:0:0:0:
208,140,116602,1,0,0:0:0:0:
243,100,116737,1,8,0:0:0:0:
42,207,116872,1,0,0:0:0:0:
287,255,117008,1,8,0:0:0:0:
462,165,117143,1,8,0:0:0:0:
462,165,117210,1,8,0:0:0:0:
289,181,117278,1,0,0:0:0:0:
289,181,117345,1,0,0:0:0:0:
294,262,117413,1,0,0:0:0:0:
404,196,117548,1,0,0:0:0:0:
433,113,117683,1,8,0:0:0:0:
206,173,117818,1,0,0:0:0:0:
366,128,117886,1,8,0:0:0:0:
386,132,117953,1,0,0:0:0:0:
374,127,118021,1,8,0:0:0:0:
387,282,118089,1,8,0:0:0:0:
276,168,118224,1,0,0:0:0:0:
219,319,118291,1,0,0:0:0:0:
413,252,118359,1,8,0:0:0:0:
300,276,118494,1,0,0:0:0:0:
412,134,118629,1,0,0:0:0:0:
412,134,118697,1,0,0:0:0:0:
412,134,118764,1,0,0:0:0:0:
412,134,118832,1,0,0:0:0:0:
421,162,118899,1,8,0:0:0:0:
300,276,119170,1,8,0:0:0:0:
300,276,119440,1,8,0:0:0:0:
300,276,119710,1,8,0:0:0:0:
431,179,119980,1,8,0:0:0:0:
431,179,120115,1,8,0:0:0:0:
421,240,120250,1,0,0:0:0:0:
421,240,120386,1,0,0:0:0:0:
469,148,120521,1,0,0:0:0:0:
469,148,120589,1,0,0:0:0:0:
469,148,120656,1,0,0:0:0:0:
469,148,120724,1,0,0:0:0:0:
448,208,120791,1,8,0:0:0:0:
204,105,120859,1,8,0:0:0:0:
281,180,120926,1,8,0:0:0:0:
230,250,120994,1,8,0:0:0:0:
290,110,121062,1,0,0:0:0:0:
422,85,121197,1,8,0:0:0:0:
422,85,121264,1,8,0:0:0:0:
434,208,121332,1,0,0:0:0:0:
387,221,121467,1,0,0:0:0:0:
387,221,121535,1,0,0:0:0:0:
436,148,121602,1,8,0:0:0:0:
476,122,121737,1,0,0:0:0:0:
321,105,121805,1,8,0:0:0:0:
304,213,121872,1,0,0:0:0:0:
404,198,122008,1,0,0:0:0:0:
397,200,122143,1,8,0:0:0:0:
240,178,122278,1,8,0:0:0:0:
426,220,122413,1,0,0:0:0:0:
222,129,122548,1,0,0:0:0:0:
222,129,122616,1,0,0:0:0:0:
266,215,122683,1,8,0:0:0:0:
161,121,122818,1,0,0:0:0:0:
361,127,122953,1,8,0:0:0:0:
446,174,123089,1,0,0:0:0:0:
446,174,123156,1,0,0:0:0:0:
460,112,123224,1,8,0:0:0:0:
230,55,123291,1,0,0:0:0:0:
501,151,123359,1,0,0:0:0:0:
384,193,123494,1,8,0:0:0:0:
324,126,123629,1,0,0:0:0:0:
428,113,123697,1,0,0:0:0:0:
450,86,123764,1,8,0:0:0:0:
134,145,123832,1,0,0:0:0:0:
450,86,123899,1,8,0:0:0:0:
351,240,123967,1,8,0:0:0:0:
450,86,124035,1,0,0:0:0:0:
422,188,124170,1,0,0:0:0:0:
262,217,124237,5,0,0:0:0:0:
422,188,124305,1,8,0:0:0:0:
223,158,124372,1,0,0:0:0:0:
283,227,124440,1,0,0:0:0:0:
476,155,124575,1,8,0:0:0:0:
349,57,124643,1,8,0:0:0:0:
481,217,124710,1,0,0:0:0:0:
143,155,124778,1,0,0:0:0:0:
376,134,124845,1,8,0:0:0:0:
284,117,124913,1,8,0:0:0:0:
437,208,124980,1,8,0:0:0:0:
394,112,125048,1,8,0:0:0:0:
421,66,125116,1,0,0:0:0:0:
315,272,125251,1,8,0:0:0:0:
315,272,125318,1,8,0:0:0:0:
484,171,125386,1,0,0:0:0:0:
326,203,125521,1,0,0:0:0:0:
396,137,125656,1,8,0:0:0:0:
396,137,125724,1,8,0:0:0:0:
341,135,125791,1,0,0:0:0:0:
186,215,125859,1,0,0:0:0:0:
446,198,125926,1,0,0:0:0:0:
77,173,126062,1,0,0:0:0:0:
433,238,126197,1,0,0:0:0:0:
230,48,126332,1,8,0:0:0:0:
418,150,126467,1,0,0:0:0:0:
195,107,126535,1,0,0:0:0:0:
421,201,126602,1,8,0:0:0:0:
421,201,126737,1,8,0:0:0:0:
433,67,126805,1,8,0:0:0:0:
460,188,126872,1,0,0:0:0:0:
306,198,127008,1,8,0:0:0:0:
224,118,127143,1,0,0:0:0:0:
224,118,127210,1,0,0:0:0:0:
391,115,127278,1,0,0:0:0:0:
457,169,127413,1,8,0:0:0:0:
243,163,127480,1,8,0:0:0:0:
456,168,127548,1,8,0:0:0:0:
243,163,127616,1,8,0:0:0:0:
446,117,127683,1,0,0:0:0:0:
258,335,127751,1,0,0:0:0:0:
446,117,127818,1,0,0:0:0:0:
203,236,127886,1,0,0:0:0:0:
430,258,127953,1,8,0:0:0:0:
430,258,128021,1,8,0:0:0:0:
251,245,128089,1,0,0:0:0:0:
475,198,128224,1,8,0:0:0:0:
475,198,128291,1,8,0:0:0:0:
356,173,128359,1,0,0:0:0:0:
449,153,128494,1,0,0:0:0:0:
459,134,128629,1,0,0:0:0:0:
459,134,128697,1,0,0:0:0:0:
459,134,128764,1,0,0:0:0:0:
459,134,128832,1,0,0:0:0:0:
361,92,128899,1,8,0:0:0:0:
435,199,129035,1,0,0:0:0:0:
428,203,129170,1,8,0:0:0:0:
323,275,129305,1,0,0:0:0:0:
416,211,129440,1,8,0:0:0:0:
416,211,129508,1,0,0:0:0:0:
416,211,129575,1,8,0:0:0:0:
290,110,129710,1,0,0:0:0:0:
422,85,129845,1,8,0:0:0:0:
422,85,129912,1,8,0:0:0:0:
434,208,129980,1,0,0:0:0:0:
230,171,130116,1,0,0:0:0:0:
230,171,130183,1,0,0:0:0:0:
386,172,130251,1,8,0:0:0:0:
476,122,130386,1,0,0:0:0:0:
321,105,130453,1,8,0:0:0:0:
304,213,130520,1,0,0:0:0:0:
404,198,130656,1,0,0:0:0:0:
397,200,130791,1,8,0:0:0:0:
240,178,130926,1,8,0:0:0:0:
426,220,131061,1,0,0:0:0:0:
222,129,131196,1,0,0:0:0:0:
222,129,131264,1,0,0:0:0:0:
266,215,131331,1,8,0:0:0:0:
161,121,131466,1,0,0:0:0:0:
361,127,131601,1,8,0:0:0:0:
446,174,131737,1,0,0:0:0:0:
446,174,131804,1,0,0:0:0:0:
460,112,131872,1,8,0:0:0:0:
230,55,131939,1,0,0:0:0:0:
501,151,132007,1,0,0:0:0:0:
384,193,132143,1,8,0:0:0:0:
324,126,132278,1,0,0:0:0:0:
428,113,132346,1,0,0:0:0:0:
450,86,132413,1,8,0:0:0:0:
134,145,132481,1,0,0:0:0:0:
450,86,132548,1,8,0:0:0:0:
351,240,132616,1,8,0:0:0:0:
450,86,132684,1,0,0:0:0:0:
318,129,132751,1,8,0:0:0:0:
422,188,132819,1,0,0:0:0:0:
422,188,132954,1,0,0:0:0:0:
283,227,133089,1,0,0:0:0:0:
476,155,133224,1,8,0:0:0:0:
349,57,133292,1,8,0:0:0:0:
481,217,133359,1,0,0:0:0:0:
143,155,133427,1,0,0:0:0:0:
376,134,133494,1,8,0:0:0:0:
437,208,133629,1,8,0:0:0:0:
261,287,133764,1,0,0:0:0:0:
290,110,134035,1,0,0:0:0:0:
422,85,134170,1,8,0:0:0:0:
422,85,134237,1,8,0:0:0:0:
434,208,134305,1,0,0:0:0:0:
446,156,134440,1,0,0:0:0:0:
446,156,134508,1,0,0:0:0:0:
476,148,134575,1,8,0:0:0:0:
476,122,134710,1,0,0:0:0:0:
321,105,134778,1,8,0:0:0:0:
304,213,134845,1,0,0:0:0:0:
404,198,134981,1,0,0:0:0:0:
397,200,135116,1,0,0:0:0:0:
240,178,135251,1,8,0:0:0:0:
426,220,135386,1,0,0:0:0:0:
222,129,135521,1,0,0:0:0:0:
222,129,135589,1,0,0:0:0:0:
266,215,135656,1,8,0:0:0:0:
95,169,135791,1,0,0:0:0:0:
385,229,135926,1,0,0:0:0:0:
466,233,136062,1,8,0:0:0:0:
294,262,136129,1,8,0:0:0:0:
466,233,136197,1,8,0:0:0:0:
404,166,136332,1,0,0:0:0:0:
205,77,136399,1,8,0:0:0:0:
404,166,136467,1,8,0:0:0:0:
101,138,136535,1,0,0:0:0:0:
461,155,136602,1,8,0:0:0:0:
471,154,136670,1,8,0:0:0:0:
498,178,136737,1,0,0:0:0:0:
196,286,136805,1,0,0:0:0:0:
498,178,136872,1,8,0:0:0:0:
311,279,136940,1,0,0:0:0:0:
498,178,137008,1,0,0:0:0:0:
256,122,137143,1,8,0:0:0:0:
396,218,137278,1,0,0:0:0:0:
413,165,137413,1,8,0:0:0:0:
441,151,137548,1,0,0:0:0:0:
496,124,137683,1,8,0:0:0:0:
458,217,137818,1,0,0:0:0:0:
199,170,137886,1,0,0:0:0:0:
458,217,137953,1,0,0:0:0:0:
351,333,138021,1,0,0:0:0:0:
458,217,138089,1,8,0:0:0:0:
345,133,138156,1,8,0:0:0:0:
345,133,138224,1,8,0:0:0:0:
345,133,138291,1,8,0:0:0:0:
201,193,138359,5,0,0:0:0:0:
343,193,138494,1,0,0:0:0:0:
122,169,138562,1,0,0:0:0:0:
428,165,138630,1,8,0:0:0:0:
318,178,138765,1,8,0:0:0:0:
318,178,138832,1,8,0:0:0:0:
166,26,138900,1,0,0:0:0:0:
189,70,139035,1,8,0:0:0:0:
426,158,139170,1,0,0:0:0:0:
342,172,139441,1,8,0:0:0:0:
332,173,139508,1,8,0:0:0:0:
171,187,139575,1,8,0:0:0:0:
300,122,139643,1,8,0:0:0:0:
376,218,139711,1,0,0:0:0:0:
378,130,139846,1,8,0:0:0:0:
427,163,139981,1,0,0:0:0:0:
466,171,140116,1,8,0:0:0:0:
429,199,140251,1,0,0:0:0:0:
303,238,140319,1,0,0:0:0:0:
234,64,140386,1,8,0:0:0:0:
385,113,140521,1,8,0:0:0:0:
319,84,140589,1,8,0:0:0:0:
500,173,140656,1,0,0:0:0:0:
389,145,140792,1,8,0:0:0:0:
305,305,140927,1,0,0:0:0:0:
305,305,141062,1,8,0:0:0:0:
405,202,141197,1,8,0:0:0:0:
405,202,141265,1,8,0:0:0:0:
431,146,141332,1,0,0:0:0:0:
276,191,141400,1,0,0:0:0:0:
356,236,141467,1,8,0:0:0:0:
311,115,141535,1,8,0:0:0:0:
263,158,141602,1,0,0:0:0:0:
280,255,141737,1,8,0:0:0:0:
391,125,141805,1,0,0:0:0:0:
337,123,141873,1,8,0:0:0:0:
337,123,141940,1,8,0:0:0:0:
280,255,142008,1,0,0:0:0:0:
280,255,142143,1,8,0:0:0:0:
280,255,142278,1,8,0:0:0:0:
419,174,142413,1,0,0:0:0:0:
345,187,142683,1,0,0:0:0:0:
481,168,142819,1,8,0:0:0:0:
345,43,142886,1,0,0:0:0:0:
406,263,142954,1,8,0:0:0:0:
451,242,143089,1,0,0:0:0:0:
451,242,143156,1,8,0:0:0:0:
451,242,143224,1,0,0:0:0:0:
451,242,143292,1,8,0:0:0:0:
209,86,143359,1,8,0:0:0:0:
387,102,143427,1,8,0:0:0:0:
367,139,143494,1,0,0:0:0:0:
211,204,143629,1,8,0:0:0:0:
431,133,143765,1,0,0:0:0:0:
368,383,143832,1,0,0:0:0:0:
173,199,143900,1,0,0:0:0:0:
173,199,143967,1,0,0:0:0:0:
476,174,144035,1,8,0:0:0:0:
344,106,144170,1,8,0:0:0:0:
362,384,144305,1,0,0:0:0:0:
456,143,144440,1,8,0:0:0:0:
479,144,144508,1,0,0:0:0:0:
461,124,144575,1,8,0:0:0:0:
318,39,144643,1,8,0:0:0:0:
443,107,144710,1,0,0:0:0:0:
167,161,144778,1,8,0:0:0:0:
167,161,144846,1,0,0:0:0:0:
218,60,144913,1,0,0:0:0:0:
297,227,144981,1,8,0:0:0:0:
455,112,145116,1,8,0:0:0:0:
407,117,145183,1,8,0:0:0:0:
407,117,145251,1,8,0:0:0:0:
361,384,145319,1,8,0:0:0:0:
414,158,145386,1,0,0:0:0:0:
357,381,145521,1,8,0:0:0:0:
265,134,145656,1,0,0:0:0:0:
265,134,145724,1,0,0:0:0:0:
265,134,145792,1,0,0:0:0:0:
436,139,145859,1,0,0:0:0:0:
436,139,145927,1,8,0:0:0:0:
456,143,145994,1,0,0:0:0:0:
435,167,146062,1,8,0:0:0:0:
377,150,146129,1,8,0:0:0:0:
364,384,146197,1,0,0:0:0:0:
221,121,146332,1,0,0:0:0:0:
221,121,146400,1,0,0:0:0:0:
157,192,146467,1,8,0:0:0:0:
346,118,146602,1,8,0:0:0:0:
283,156,146737,1,0,0:0:0:0:
