osu file format v14

[General]
AudioFilename: audio.ogg
AudioLeadIn: 0
PreviewTime: 34790
Countdown: 0
SampleSet: Normal
StackLeniency: 0.7
Mode: 3
LetterboxInBreaks: 0
SpecialStyle: 0
WidescreenStoryboard: 0

[Editor]
DistanceSpacing: 2.4
BeatDivisor: 4
GridSize: 8
TimelineZoom: 1.6

[Metadata]
Title:DIVE with U
TitleUnicode:DIVE with Ü
Artist:HARDCORE TANO*C & Elizabeth & Lily & Rune
ArtistUnicode:HARDCORE TANO*C & エリザベス & リリィ & ルーン
Creator:PORTTAYER
Version:Let you DIVE!
Source:WACCA Reverse
Tags:DIVE with YOU electronic japanese video rhythm game otoge 音ゲー REDALiCE t+pazolite Kobaryo 大西沙織 Oonishi Saori 青木志貴 Aoki Shiki 河瀬茉希 Kawase Maki LAM ending theme ED エンディングテーマ final song
BeatmapID:4202700
BeatmapSetID:2018318

[Difficulty]
HPDrainRate:8.4
CircleSize:4
OverallDifficulty:7.6
ApproachRate:5
SliderMultiplier:1.4
SliderTickRate:1

[Events]
//Background and Video events
0,0,"FX_2V7VaMAEDRmD.jpg",0,0
//Break Periods
//Storyboard Layer 0 (Background)
//Storyboard Layer 1 (Fail)
//Storyboard Layer 2 (Pass)
//Storyboard Layer 3 (Foreground)
//Storyboard Layer 4 (Overlay)
//Storyboard Sound Samples

[TimingPoints]
457,333.333333333333,4,1,1,40,1,0
35123,-100,4,1,1,40,0,1
55123,-100,4,1,1,40,0,0
99123,-100,4,1,1,40,0,1
119123,-100,4,1,1,40,0,0

[HitObjects]
64,192,457,128,0,1790:0:0:0:0:
448,192,457,128,0,790:0:0:0:0:
320,192,1123,128,0,1456:0:0:0:0:
192,192,1290,128,0,1456:0:0:0:0:
448,192,1623,128,0,1956:0:0:0:0:
320,192,1790,128,0,3123:0:0:0:0:
64,192,2123,128,0,2790:0:0:0:0:
448,192,2456,128,0,2790:0:0:0:0:
192,192,2790,128,0,3456:0:0:0:0:
448,192,3123,128,0,4456:0:0:0:0:
64,192,3123,128,0,3623:0:0:0:0:
192,192,3790,128,0,4123:0:0:0:0:
320,192,3956,128,0,4123:0:0:0:0:
64,192,4290,128,0,4790:0:0:0:0:
192,192,4456,128,0,5790:0:0:0:0:
320,192,5123,128,0,5623:0:0:0:0:
448,192,5456,128,0,5623:0:0:0:0:
64,192,5623,128,0,6290:0:0:0:0:
448,192,5790,128,0,7123:0:0:0:0:
320,192,5790,128,0,6456:0:0:0:0:
192,192,6790,128,0,7456:0:0:0:0:
320,192,6956,128,0,7456:0:0:0:0:
64,192,7123,128,0,8456:0:0:0:0:
448,192,8290,128,0,8790:0:0:0:0:
320,192,8456,128,0,8790:0:0:0:0:
192,192,8456,128,0,9790:0:0:0:0:
64,192,8790,128,0,9123:0:0:0:0:
320,192,9123,128,0,9456:0:0:0:0:
448,192,9123,128,0,9206:0:0:0:0:
64,192,9290,128,0,9456:0:0:0:0:
448,192,9623,128,0,10123:0:0:0:0:
320,192,9790,128,0,11123:0:0:0:0:
64,192,9790,128,0,9873:0:0:0:0:
448,192,10456,128,0,10540:0:0:0:0:
64,192,10456,128,0,10956:0:0:0:0:
64,192,11123,1,0,0:0:0:0:
448,192,11123,128,0,12456:0:0:0:0:
192,192,11123,128,0,11456:0:0:0:0:
320,192,11790,128,0,12123:0:0:0:0:
192,192,11790,1,0,0:0:0:0:
64,192,11956,128,0,12290:0:0:0:0:
192,192,12290,128,0,12790:0:0:0:0:
64,192,12456,128,0,13123:0:0:0:0:
320,192,12456,1,0,0:0:0:0:
448,192,12790,128,0,13456:0:0:0:0:
320,192,13123,128,0,13790:0:0:0:0:
192,192,13123,128,0,13456:0:0:0:0:
64,192,13456,128,0,14123:0:0:0:0:
192,192,13790,128,0,14456:0:0:0:0:
448,192,13790,128,0,14290:0:0:0:0:
448,192,14456,128,0,15123:0:0:0:0:
64,192,14456,128,0,14790:0:0:0:0:
320,192,14623,128,0,14790:0:0:0:0:
192,192,14956,128,0,15456:0:0:0:0:
64,192,15123,128,0,15790:0:0:0:0:
320,192,15123,1,0,0:0:0:0:
320,192,15456,128,0,15540:0:0:0:0:
192,192,15623,128,0,15706:0:0:0:0:
320,192,15790,128,0,16456:0:0:0:0:
448,192,15790,1,0,0:0:0:0:
448,192,16123,128,0,16290:0:0:0:0:
192,192,16290,128,0,16456:0:0:0:0:
448,192,16456,128,0,17623:0:0:0:0:
64,192,16456,128,0,17290:0:0:0:0:
192,192,17123,1,0,0:0:0:0:
320,192,17123,1,0,0:0:0:0:
320,192,17456,128,0,17956:0:0:0:0:
192,192,17623,128,0,17956:0:0:0:0:
64,192,17790,128,0,19123:0:0:0:0:
448,192,17790,1,0,0:0:0:0:
448,192,18123,128,0,18456:0:0:0:0:
192,192,18456,1,0,0:0:0:0:
320,192,18456,1,0,0:0:0:0:
192,192,18623,128,0,18956:0:0:0:0:
320,192,18790,128,0,18956:0:0:0:0:
448,192,18956,128,0,20290:0:0:0:0:
192,192,19123,128,0,20456:0:0:0:0:
320,192,19123,1,0,0:0:0:0:
64,192,19456,128,0,19540:0:0:0:0:
320,192,19623,128,0,19706:0:0:0:0:
320,192,19790,1,0,0:0:0:0:
64,192,19790,1,0,0:0:0:0:
320,192,20123,128,0,20206:0:0:0:0:
64,192,20290,128,0,20373:0:0:0:0:
320,192,20456,128,0,21123:0:0:0:0:
448,192,20456,1,0,0:0:0:0:
64,192,20790,128,0,20873:0:0:0:0:
448,192,20956,128,0,21040:0:0:0:0:
192,192,21123,128,0,21706:0:0:0:0:
64,192,21123,128,0,21706:0:0:0:0:
64,192,21790,128,0,21956:0:0:0:0:
448,192,21790,128,0,22123:0:0:0:0:
320,192,21790,128,0,22040:0:0:0:0:
192,192,22748,128,0,22873:0:0:0:0:
320,192,22790,128,0,23040:0:0:0:0:
192,192,22956,128,0,23206:0:0:0:0:
64,192,22956,128,0,23623:0:0:0:0:
448,192,22956,128,0,23123:0:0:0:0:
192,192,23456,128,0,23623:0:0:0:0:
320,192,23456,128,0,23706:0:0:0:0:
448,192,23456,128,0,23790:0:0:0:0:
448,192,23956,128,0,24040:0:0:0:0:
320,192,23998,128,0,24081:0:0:0:0:
64,192,24123,128,0,24373:0:0:0:0:
320,192,24206,128,0,24373:0:0:0:0:
192,192,24290,128,0,24373:0:0:0:0:
448,192,24373,128,0,24456:0:0:0:0:
320,192,24456,128,0,24623:0:0:0:0:
192,192,24456,128,0,24790:0:0:0:0:
64,192,24456,128,0,24706:0:0:0:0:
448,192,25415,128,0,25540:0:0:0:0:
64,192,25456,128,0,25873:0:0:0:0:
192,192,25623,128,0,25790:0:0:0:0:
320,192,25623,128,0,26373:0:0:0:0:
448,192,25623,128,0,25706:0:0:0:0:
448,192,26123,128,0,26456:0:0:0:0:
192,192,26123,128,0,26290:0:0:0:0:
64,192,26123,128,0,26290:0:0:0:0:
64,192,26456,1,0,0:0:0:0:
192,192,26512,1,0,0:0:0:0:
320,192,26568,1,0,0:0:0:0:
64,192,26623,1,0,0:0:0:0:
192,192,26679,1,0,0:0:0:0:
320,192,26734,1,0,0:0:0:0:
448,192,26790,128,0,27040:0:0:0:0:
64,192,26873,128,0,27040:0:0:0:0:
192,192,26956,128,0,27040:0:0:0:0:
64,192,27123,128,0,27290:0:0:0:0:
192,192,27123,128,0,27373:0:0:0:0:
448,192,27123,128,0,27456:0:0:0:0:
320,192,27956,128,0,28040:0:0:0:0:
192,192,28040,128,0,28123:0:0:0:0:
320,192,28123,128,0,28206:0:0:0:0:
192,192,28206,128,0,28290:0:0:0:0:
448,192,28290,1,0,0:0:0:0:
320,192,28345,1,0,0:0:0:0:
192,192,28401,1,0,0:0:0:0:
448,192,28456,128,0,28623:0:0:0:0:
64,192,28456,128,0,28790:0:0:0:0:
320,192,28456,128,0,28706:0:0:0:0:
64,192,29290,128,0,29373:0:0:0:0:
448,192,29373,128,0,29456:0:0:0:0:
64,192,29456,128,0,29540:0:0:0:0:
448,192,29540,128,0,29623:0:0:0:0:
320,192,29623,1,0,0:0:0:0:
192,192,29679,1,0,0:0:0:0:
448,192,29734,1,0,0:0:0:0:
320,192,29790,1,0,0:0:0:0:
64,192,29790,128,0,31123:0:0:0:0:
192,192,29790,128,0,31290:0:0:0:0:
320,192,29956,1,0,0:0:0:0:
448,192,30123,1,0,0:0:0:0:
448,192,30290,1,0,0:0:0:0:
320,192,30456,1,0,0:0:0:0:
320,192,30623,1,0,0:0:0:0:
448,192,30790,1,0,0:0:0:0:
448,192,30956,1,0,0:0:0:0:
320,192,31123,1,0,0:0:0:0:
320,192,31290,1,0,0:0:0:0:
64,192,31456,1,0,0:0:0:0:
64,192,31623,1,0,0:0:0:0:
192,192,31790,1,0,0:0:0:0:
192,192,31956,1,0,0:0:0:0:
448,192,31956,128,0,32206:0:0:0:0:
320,192,32123,128,0,32623:0:0:0:0:
64,192,32123,1,0,0:0:0:0:
448,192,32290,128,0,33540:0:0:0:0:
64,192,32290,1,0,0:0:0:0:
192,192,32456,1,0,0:0:0:0:
64,192,32540,1,0,0:0:0:0:
192,192,32623,1,0,0:0:0:0:
320,192,32706,1,0,0:0:0:0:
64,192,32790,1,0,0:0:0:0:
320,192,32873,1,0,0:0:0:0:
192,192,32956,1,0,0:0:0:0:
64,192,33040,1,0,0:0:0:0:
320,192,33123,1,0,0:0:0:0:
64,192,33206,1,0,0:0:0:0:
192,192,33290,1,0,0:0:0:0:
320,192,33373,1,0,0:0:0:0:
64,192,33456,1,0,0:0:0:0:
192,192,33540,1,0,0:0:0:0:
320,192,33623,128,0,34040:0:0:0:0:
64,192,33623,128,0,33706:0:0:0:0:
448,192,33623,128,0,33706:0:0:0:0:
64,192,33956,128,0,34040:0:0:0:0:
448,192,33956,128,0,34040:0:0:0:0:
192,192,33956,128,0,34623:0:0:0:0:
64,192,34290,128,0,34540:0:0:0:0:
320,192,34290,128,0,34623:0:0:0:0:
448,192,34290,128,0,34540:0:0:0:0:
64,192,34790,128,0,34956:0:0:0:0:
448,192,34790,128,0,34956:0:0:0:0:
192,192,34790,128,0,34873:0:0:0:0:
320,192,34956,128,0,35040:0:0:0:0:
448,192,35123,128,0,35540:0:0:0:0:
320,192,35123,128,0,35290:0:0:0:0:
64,192,35123,128,0,35206:0:0:0:0:
192,192,35206,128,0,35290:0:0:0:0:
64,192,35290,128,0,35373:0:0:0:0:
320,192,35373,128,0,35456:0:0:0:0:
64,192,35456,128,0,35706:0:0:0:0:
192,192,35456,128,0,35540:0:0:0:0:
320,192,35623,128,0,35873:0:0:0:0:
192,192,35790,128,0,36206:0:0:0:0:
448,192,35790,128,0,35873:0:0:0:0:
64,192,35873,128,0,35956:0:0:0:0:
448,192,35956,128,0,36040:0:0:0:0:
320,192,36040,128,0,36123:0:0:0:0:
64,192,36123,128,0,36373:0:0:0:0:
448,192,36123,128,0,36206:0:0:0:0:
320,192,36290,128,0,36540:0:0:0:0:
448,192,36456,128,0,36540:0:0:0:0:
192,192,36456,128,0,36540:0:0:0:0:
64,192,36623,128,0,37040:0:0:0:0:
192,192,36790,128,0,37040:0:0:0:0:
320,192,36790,128,0,36873:0:0:0:0:
448,192,36956,128,0,37373:0:0:0:0:
192,192,37123,128,0,37540:0:0:0:0:
320,192,37123,128,0,37373:0:0:0:0:
64,192,37290,128,0,37540:0:0:0:0:
448,192,37456,128,0,37540:0:0:0:0:
320,192,37456,128,0,37540:0:0:0:0:
192,192,37623,1,0,0:0:0:0:
448,192,37790,128,0,38040:0:0:0:0:
64,192,37790,128,0,37873:0:0:0:0:
192,192,37873,128,0,37956:0:0:0:0:
320,192,37956,128,0,38206:0:0:0:0:
192,192,38123,128,0,38373:0:0:0:0:
448,192,38123,128,0,38206:0:0:0:0:
64,192,38290,128,0,38540:0:0:0:0:
320,192,38456,128,0,38873:0:0:0:0:
448,192,38456,128,0,38540:0:0:0:0:
192,192,38540,128,0,38623:0:0:0:0:
64,192,38623,128,0,38706:0:0:0:0:
448,192,38706,128,0,38790:0:0:0:0:
192,192,38790,128,0,38873:0:0:0:0:
64,192,38790,128,0,39040:0:0:0:0:
448,192,38956,128,0,39206:0:0:0:0:
192,192,39123,128,0,39206:0:0:0:0:
64,192,39123,128,0,39206:0:0:0:0:
320,192,39290,128,0,39540:0:0:0:0:
192,192,39456,128,0,39706:0:0:0:0:
64,192,39456,128,0,39540:0:0:0:0:
448,192,39456,128,0,39706:0:0:0:0:
320,192,39623,128,0,39956:0:0:0:0:
64,192,39790,128,0,40040:0:0:0:0:
448,192,39790,128,0,40040:0:0:0:0:
192,192,39956,128,0,40123:0:0:0:0:
320,192,40040,128,0,40206:0:0:0:0:
64,192,40123,128,0,40206:0:0:0:0:
448,192,40123,128,0,40206:0:0:0:0:
192,192,40206,128,0,40290:0:0:0:0:
320,192,40290,128,0,40373:0:0:0:0:
64,192,40456,128,0,40706:0:0:0:0:
448,192,40456,128,0,40706:0:0:0:0:
192,192,40540,128,0,40623:0:0:0:0:
320,192,40623,128,0,40706:0:0:0:0:
192,192,40706,128,0,40790:0:0:0:0:
64,192,40790,128,0,40873:0:0:0:0:
448,192,40790,128,0,40956:0:0:0:0:
320,192,40956,1,0,0:0:0:0:
64,192,41123,128,0,41206:0:0:0:0:
192,192,41123,128,0,41373:0:0:0:0:
320,192,41290,128,0,41540:0:0:0:0:
448,192,41456,128,0,41540:0:0:0:0:
64,192,41456,128,0,41540:0:0:0:0:
448,192,41623,128,0,42206:0:0:0:0:
64,192,41623,128,0,41873:0:0:0:0:
320,192,41706,128,0,41790:0:0:0:0:
192,192,41790,128,0,41873:0:0:0:0:
320,192,41873,128,0,41956:0:0:0:0:
64,192,41956,128,0,42040:0:0:0:0:
192,192,42123,128,0,42540:0:0:0:0:
320,192,42123,128,0,42206:0:0:0:0:
448,192,42290,1,0,0:0:0:0:
320,192,42456,128,0,42873:0:0:0:0:
448,192,42456,128,0,42540:0:0:0:0:
64,192,42623,1,0,0:0:0:0:
64,192,42790,128,0,43206:0:0:0:0:
192,192,42790,128,0,42873:0:0:0:0:
320,192,42956,1,0,0:0:0:0:
320,192,43123,128,0,43540:0:0:0:0:
192,192,43123,128,0,43540:0:0:0:0:
448,192,43290,1,0,0:0:0:0:
64,192,43456,128,0,43540:0:0:0:0:
448,192,43456,128,0,43540:0:0:0:0:
192,192,43623,1,0,0:0:0:0:
64,192,43790,128,0,44206:0:0:0:0:
448,192,43790,128,0,44206:0:0:0:0:
320,192,43956,1,0,0:0:0:0:
192,192,44123,128,0,44206:0:0:0:0:
320,192,44123,128,0,44206:0:0:0:0:
448,192,44290,128,0,44373:0:0:0:0:
192,192,44290,128,0,44873:0:0:0:0:
64,192,44373,128,0,44456:0:0:0:0:
320,192,44456,128,0,44540:0:0:0:0:
448,192,44456,128,0,44540:0:0:0:0:
64,192,44540,128,0,44623:0:0:0:0:
320,192,44623,128,0,44873:0:0:0:0:
64,192,44790,128,0,44873:0:0:0:0:
448,192,44790,128,0,44873:0:0:0:0:
320,192,44956,1,0,0:0:0:0:
64,192,45123,128,0,45206:0:0:0:0:
192,192,45123,128,0,45206:0:0:0:0:
448,192,45290,1,0,0:0:0:0:
192,192,45373,128,0,45456:0:0:0:0:
320,192,45373,128,0,45456:0:0:0:0:
64,192,45456,128,0,45540:0:0:0:0:
448,192,45456,128,0,45706:0:0:0:0:
64,192,45623,128,0,45706:0:0:0:0:
192,192,45623,128,0,45706:0:0:0:0:
320,192,45706,128,0,45790:0:0:0:0:
192,192,45790,128,0,45873:0:0:0:0:
64,192,45790,128,0,46040:0:0:0:0:
448,192,45790,128,0,45956:0:0:0:0:
320,192,45956,128,0,46206:0:0:0:0:
64,192,46123,128,0,46206:0:0:0:0:
192,192,46123,128,0,46373:0:0:0:0:
448,192,46290,128,0,46540:0:0:0:0:
64,192,46456,128,0,46873:0:0:0:0:
320,192,46456,128,0,46540:0:0:0:0:
192,192,46540,128,0,46623:0:0:0:0:
448,192,46623,128,0,46706:0:0:0:0:
192,192,46706,128,0,46790:0:0:0:0:
320,192,46790,128,0,47040:0:0:0:0:
448,192,46790,128,0,46873:0:0:0:0:
192,192,46956,128,0,47206:0:0:0:0:
320,192,47123,128,0,47206:0:0:0:0:
448,192,47123,128,0,47206:0:0:0:0:
448,192,47290,128,0,47790:0:0:0:0:
64,192,47290,1,0,0:0:0:0:
64,192,47456,128,0,47540:0:0:0:0:
192,192,47456,128,0,47706:0:0:0:0:
320,192,47623,128,0,48040:0:0:0:0:
192,192,47790,128,0,48040:0:0:0:0:
64,192,47790,128,0,47956:0:0:0:0:
448,192,47956,128,0,48123:0:0:0:0:
64,192,48040,128,0,48206:0:0:0:0:
192,192,48123,128,0,48206:0:0:0:0:
320,192,48123,128,0,48373:0:0:0:0:
448,192,48206,128,0,48373:0:0:0:0:
64,192,48290,128,0,48373:0:0:0:0:
64,192,48456,128,0,49123:0:0:0:0:
192,192,48456,128,0,48540:0:0:0:0:
320,192,48540,128,0,48623:0:0:0:0:
448,192,48623,128,0,48706:0:0:0:0:
192,192,48706,128,0,48873:0:0:0:0:
448,192,48790,128,0,48956:0:0:0:0:
320,192,48790,128,0,48873:0:0:0:0:
192,192,49123,128,0,49206:0:0:0:0:
448,192,49123,128,0,49706:0:0:0:0:
320,192,49206,128,0,49290:0:0:0:0:
64,192,49290,128,0,49373:0:0:0:0:
320,192,49373,128,0,49456:0:0:0:0:
64,192,49456,128,0,49623:0:0:0:0:
192,192,49456,128,0,49540:0:0:0:0:
320,192,49623,128,0,49790:0:0:0:0:
192,192,49706,128,0,49873:0:0:0:0:
64,192,49790,128,0,49873:0:0:0:0:
448,192,49790,128,0,49956:0:0:0:0:
320,192,49873,128,0,50040:0:0:0:0:
192,192,49956,128,0,50123:0:0:0:0:
64,192,50040,128,0,50206:0:0:0:0:
448,192,50123,128,0,50206:0:0:0:0:
320,192,50123,128,0,50206:0:0:0:0:
192,192,50206,128,0,50290:0:0:0:0:
64,192,50290,128,0,50373:0:0:0:0:
448,192,50373,128,0,50540:0:0:0:0:
320,192,50456,128,0,50540:0:0:0:0:
64,192,50456,128,0,50540:0:0:0:0:
192,192,50623,1,0,0:0:0:0:
64,192,50706,128,0,50790:0:0:0:0:
448,192,50706,128,0,50790:0:0:0:0:
192,192,50790,128,0,51040:0:0:0:0:
320,192,50790,128,0,50873:0:0:0:0:
448,192,50956,128,0,51040:0:0:0:0:
64,192,50956,128,0,51040:0:0:0:0:
192,192,51123,1,0,0:0:0:0:
320,192,51123,1,0,0:0:0:0:
448,192,51123,128,0,51540:0:0:0:0:
320,192,51290,128,0,52290:0:0:0:0:
192,192,51290,1,0,0:0:0:0:
64,192,51456,1,0,0:0:0:0:
448,192,51623,128,0,52123:0:0:0:0:
64,192,51623,1,0,0:0:0:0:
192,192,51790,1,0,0:0:0:0:
192,192,51956,1,0,0:0:0:0:
64,192,52123,1,0,0:0:0:0:
448,192,52290,1,0,0:0:0:0:
64,192,52456,128,0,52873:0:0:0:0:
320,192,52456,1,0,0:0:0:0:
192,192,52623,128,0,53456:0:0:0:0:
320,192,52623,1,0,0:0:0:0:
448,192,52790,1,0,0:0:0:0:
64,192,52956,128,0,53623:0:0:0:0:
448,192,52956,1,0,0:0:0:0:
320,192,53123,1,0,0:0:0:0:
320,192,53290,1,0,0:0:0:0:
448,192,53456,1,0,0:0:0:0:
192,192,53623,1,0,0:0:0:0:
320,192,53790,128,0,53873:0:0:0:0:
448,192,53790,1,0,0:0:0:0:
64,192,53873,1,0,0:0:0:0:
192,192,53956,128,0,54040:0:0:0:0:
320,192,53956,1,0,0:0:0:0:
448,192,54040,1,0,0:0:0:0:
192,192,54123,1,0,0:0:0:0:
64,192,54123,1,0,0:0:0:0:
448,192,54206,1,0,0:0:0:0:
320,192,54290,1,0,0:0:0:0:
64,192,54290,128,0,54373:0:0:0:0:
192,192,54373,1,0,0:0:0:0:
320,192,54456,1,0,0:0:0:0:
448,192,54456,1,0,0:0:0:0:
64,192,54540,1,0,0:0:0:0:
192,192,54540,1,0,0:0:0:0:
320,192,54623,1,0,0:0:0:0:
448,192,54623,128,0,54706:0:0:0:0:
192,192,54706,1,0,0:0:0:0:
64,192,54706,1,0,0:0:0:0:
320,192,54790,1,0,0:0:0:0:
448,192,54790,1,0,0:0:0:0:
192,192,54873,1,0,0:0:0:0:
64,192,54873,1,0,0:0:0:0:
448,192,54956,1,0,0:0:0:0:
320,192,54956,128,0,55290:0:0:0:0:
192,192,55040,1,0,0:0:0:0:
64,192,55123,128,0,55290:0:0:0:0:
448,192,55123,128,0,55290:0:0:0:0:
64,192,55623,128,0,56040:0:0:0:0:
448,192,55623,128,0,56206:0:0:0:0:
192,192,55790,128,0,56040:0:0:0:0:
320,192,55790,128,0,56206:0:0:0:0:
192,192,56123,128,0,56373:0:0:0:0:
64,192,56123,128,0,56373:0:0:0:0:
320,192,56290,128,0,58040:0:0:0:0:
448,192,56290,128,0,58040:0:0:0:0:
192,192,56456,1,0,0:0:0:0:
64,192,56456,1,0,0:0:0:0:
64,192,56790,128,0,57040:0:0:0:0:
192,192,56790,128,0,57040:0:0:0:0:
64,192,57290,128,0,57623:0:0:0:0:
192,192,57290,128,0,57623:0:0:0:0:
192,192,57790,128,0,58540:0:0:0:0:
64,192,57790,128,0,58206:0:0:0:0:
320,192,58123,128,0,58373:0:0:0:0:
64,192,58290,128,0,58540:0:0:0:0:
448,192,58290,128,0,58540:0:0:0:0:
320,192,58623,128,0,58956:0:0:0:0:
192,192,58790,128,0,58956:0:0:0:0:
64,192,58956,128,0,59123:0:0:0:0:
448,192,59123,128,0,59456:0:0:0:0:
320,192,59123,128,0,59290:0:0:0:0:
192,192,59123,1,0,0:0:0:0:
64,192,59290,128,0,59623:0:0:0:0:
320,192,59456,128,0,59790:0:0:0:0:
448,192,59623,128,0,59790:0:0:0:0:
192,192,59790,128,0,60123:0:0:0:0:
448,192,59956,128,0,60290:0:0:0:0:
64,192,60123,128,0,60290:0:0:0:0:
320,192,60290,128,0,60456:0:0:0:0:
64,192,60456,128,0,60790:0:0:0:0:
448,192,60456,128,0,60790:0:0:0:0:
320,192,60623,128,0,61123:0:0:0:0:
192,192,60790,128,0,61123:0:0:0:0:
448,192,60956,128,0,61123:0:0:0:0:
64,192,60956,128,0,61123:0:0:0:0:
448,192,61290,128,0,61623:0:0:0:0:
64,192,61456,128,0,61623:0:0:0:0:
320,192,61456,128,0,61623:0:0:0:0:
192,192,61623,128,0,61790:0:0:0:0:
320,192,61790,1,0,0:0:0:0:
64,192,61790,128,0,62123:0:0:0:0:
448,192,61790,128,0,61956:0:0:0:0:
192,192,61956,128,0,62290:0:0:0:0:
320,192,62123,128,0,62456:0:0:0:0:
448,192,62290,128,0,62456:0:0:0:0:
64,192,62456,128,0,62790:0:0:0:0:
448,192,62623,128,0,62956:0:0:0:0:
192,192,62790,128,0,62956:0:0:0:0:
320,192,62956,128,0,63290:0:0:0:0:
192,192,63123,128,0,63456:0:0:0:0:
448,192,63456,128,0,63790:0:0:0:0:
64,192,63623,128,0,63956:0:0:0:0:
192,192,63790,128,0,63956:0:0:0:0:
320,192,63956,128,0,64290:0:0:0:0:
64,192,64123,128,0,64290:0:0:0:0:
448,192,64290,128,0,64456:0:0:0:0:
64,192,64456,1,0,0:0:0:0:
192,192,64456,128,0,64623:0:0:0:0:
320,192,64456,128,0,64790:0:0:0:0:
448,192,64623,128,0,64956:0:0:0:0:
64,192,64790,128,0,65123:0:0:0:0:
320,192,64956,128,0,65123:0:0:0:0:
192,192,65123,128,0,65456:0:0:0:0:
448,192,65290,128,0,65623:0:0:0:0:
64,192,65456,128,0,65623:0:0:0:0:
320,192,65623,128,0,65790:0:0:0:0:
64,192,65790,128,0,66123:0:0:0:0:
448,192,65790,128,0,66123:0:0:0:0:
192,192,65956,128,0,66456:0:0:0:0:
320,192,66123,128,0,66456:0:0:0:0:
448,192,66290,128,0,66456:0:0:0:0:
64,192,66290,128,0,66456:0:0:0:0:
448,192,66623,128,0,66956:0:0:0:0:
320,192,66623,128,0,66790:0:0:0:0:
64,192,66790,128,0,66956:0:0:0:0:
192,192,66790,128,0,66956:0:0:0:0:
320,192,66956,128,0,67123:0:0:0:0:
192,192,67123,1,0,0:0:0:0:
448,192,67123,1,0,0:0:0:0:
64,192,67123,1,0,0:0:0:0:
448,192,67290,128,0,67706:0:0:0:0:
320,192,67456,128,0,68706:0:0:0:0:
64,192,67456,1,0,0:0:0:0:
192,192,67623,1,0,0:0:0:0:
448,192,67790,128,0,68040:0:0:0:0:
64,192,67790,1,0,0:0:0:0:
192,192,67956,1,0,0:0:0:0:
448,192,68123,128,0,68373:0:0:0:0:
64,192,68123,1,0,0:0:0:0:
192,192,68290,1,0,0:0:0:0:
448,192,68456,128,0,68873:0:0:0:0:
64,192,68456,1,0,0:0:0:0:
192,192,68623,128,0,68956:0:0:0:0:
320,192,68790,128,0,69456:0:0:0:0:
64,192,68790,1,0,0:0:0:0:
448,192,68956,128,0,69123:0:0:0:0:
64,192,69123,1,0,0:0:0:0:
192,192,69123,1,0,0:0:0:0:
448,192,69290,128,0,69623:0:0:0:0:
192,192,69456,128,0,69790:0:0:0:0:
64,192,69456,1,0,0:0:0:0:
320,192,69623,128,0,69790:0:0:0:0:
64,192,69790,1,0,0:0:0:0:
448,192,69790,1,0,0:0:0:0:
64,192,69956,128,0,70373:0:0:0:0:
320,192,69956,1,0,0:0:0:0:
448,192,70123,1,0,0:0:0:0:
192,192,70123,128,0,71290:0:0:0:0:
320,192,70290,1,0,0:0:0:0:
64,192,70456,128,0,70706:0:0:0:0:
448,192,70456,1,0,0:0:0:0:
320,192,70623,1,0,0:0:0:0:
64,192,70790,128,0,71040:0:0:0:0:
448,192,70790,1,0,0:0:0:0:
320,192,70956,1,0,0:0:0:0:
64,192,71123,128,0,71290:0:0:0:0:
448,192,71123,1,0,0:0:0:0:
320,192,71290,128,0,71456:0:0:0:0:
192,192,71456,128,0,71623:0:0:0:0:
448,192,71456,1,0,0:0:0:0:
64,192,71623,128,0,71790:0:0:0:0:
448,192,71790,1,0,0:0:0:0:
320,192,71790,1,0,0:0:0:0:
64,192,71956,128,0,72040:0:0:0:0:
192,192,72123,128,0,72206:0:0:0:0:
448,192,72123,1,0,0:0:0:0:
320,192,72290,128,0,72373:0:0:0:0:
448,192,72456,1,0,0:0:0:0:
192,192,72456,1,0,0:0:0:0:
64,192,72456,1,0,0:0:0:0:
64,192,72623,1,0,0:0:0:0:
192,192,72790,128,0,73290:0:0:0:0:
320,192,72790,128,0,73206:0:0:0:0:
448,192,72956,1,0,0:0:0:0:
448,192,73123,1,0,0:0:0:0:
64,192,73123,1,0,0:0:0:0:
64,192,73290,128,0,73706:0:0:0:0:
320,192,73290,128,0,73790:0:0:0:0:
448,192,73456,1,0,0:0:0:0:
192,192,73456,1,0,0:0:0:0:
192,192,73623,1,0,0:0:0:0:
448,192,73790,128,0,74040:0:0:0:0:
64,192,73790,128,0,74373:0:0:0:0:
320,192,73956,1,0,0:0:0:0:
320,192,74123,1,0,0:0:0:0:
448,192,74123,128,0,74706:0:0:0:0:
192,192,74290,1,0,0:0:0:0:
192,192,74456,1,0,0:0:0:0:
64,192,74456,128,0,75123:0:0:0:0:
320,192,74623,1,0,0:0:0:0:
448,192,74790,128,0,75040:0:0:0:0:
320,192,74790,1,0,0:0:0:0:
192,192,74956,1,0,0:0:0:0:
320,192,75123,1,0,0:0:0:0:
448,192,75123,1,0,0:0:0:0:
192,192,75206,1,0,0:0:0:0:
64,192,75206,1,0,0:0:0:0:
320,192,75290,1,0,0:0:0:0:
448,192,75290,1,0,0:0:0:0:
192,192,75373,1,0,0:0:0:0:
64,192,75373,1,0,0:0:0:0:
448,192,75456,1,0,0:0:0:0:
320,192,75456,1,0,0:0:0:0:
192,192,75540,1,0,0:0:0:0:
64,192,75540,1,0,0:0:0:0:
320,192,75623,1,0,0:0:0:0:
448,192,75623,1,0,0:0:0:0:
192,192,75706,1,0,0:0:0:0:
64,192,75706,1,0,0:0:0:0:
320,192,75790,1,0,0:0:0:0:
448,192,75790,1,0,0:0:0:0:
192,192,75873,1,0,0:0:0:0:
64,192,75873,1,0,0:0:0:0:
320,192,75956,1,0,0:0:0:0:
448,192,75956,1,0,0:0:0:0:
192,192,76040,1,0,0:0:0:0:
64,192,76040,1,0,0:0:0:0:
320,192,76123,1,0,0:0:0:0:
448,192,76123,1,0,0:0:0:0:
192,192,76206,1,0,0:0:0:0:
64,192,76206,1,0,0:0:0:0:
320,192,76290,1,0,0:0:0:0:
448,192,76290,1,0,0:0:0:0:
64,192,76373,1,0,0:0:0:0:
192,192,76373,1,0,0:0:0:0:
320,192,76456,1,0,0:0:0:0:
448,192,76456,1,0,0:0:0:0:
192,192,76623,1,0,0:0:0:0:
64,192,76790,128,0,77123:0:0:0:0:
448,192,76790,128,0,76956:0:0:0:0:
320,192,76956,1,0,0:0:0:0:
192,192,77040,1,0,0:0:0:0:
320,192,77123,1,0,0:0:0:0:
192,192,77206,1,0,0:0:0:0:
64,192,77290,128,0,77456:0:0:0:0:
448,192,77290,128,0,77623:0:0:0:0:
192,192,77456,128,0,77623:0:0:0:0:
320,192,77456,128,0,77623:0:0:0:0:
64,192,77790,128,0,78206:0:0:0:0:
192,192,77790,128,0,77956:0:0:0:0:
448,192,77790,128,0,77873:0:0:0:0:
320,192,77873,128,0,77956:0:0:0:0:
448,192,77956,128,0,78040:0:0:0:0:
192,192,78040,128,0,78123:0:0:0:0:
448,192,78123,128,0,78373:0:0:0:0:
320,192,78123,128,0,78206:0:0:0:0:
192,192,78290,128,0,78540:0:0:0:0:
320,192,78456,128,0,78873:0:0:0:0:
64,192,78456,128,0,78540:0:0:0:0:
448,192,78540,128,0,78623:0:0:0:0:
64,192,78623,128,0,78706:0:0:0:0:
192,192,78706,128,0,78790:0:0:0:0:
448,192,78790,128,0,79040:0:0:0:0:
64,192,78790,128,0,78873:0:0:0:0:
192,192,78956,128,0,79206:0:0:0:0:
64,192,79123,128,0,79206:0:0:0:0:
320,192,79123,128,0,79206:0:0:0:0:
448,192,79290,128,0,79706:0:0:0:0:
320,192,79456,128,0,79706:0:0:0:0:
192,192,79456,128,0,79540:0:0:0:0:
64,192,79623,128,0,80040:0:0:0:0:
320,192,79790,128,0,80206:0:0:0:0:
192,192,79790,128,0,80040:0:0:0:0:
448,192,79956,128,0,80206:0:0:0:0:
64,192,80123,128,0,80206:0:0:0:0:
192,192,80123,128,0,80206:0:0:0:0:
320,192,80290,1,0,0:0:0:0:
64,192,80456,128,0,80706:0:0:0:0:
448,192,80456,128,0,80540:0:0:0:0:
320,192,80540,128,0,80623:0:0:0:0:
192,192,80623,128,0,80873:0:0:0:0:
320,192,80790,128,0,81040:0:0:0:0:
64,192,80790,128,0,80873:0:0:0:0:
448,192,80956,128,0,81206:0:0:0:0:
192,192,81123,128,0,81540:0:0:0:0:
64,192,81123,128,0,81206:0:0:0:0:
320,192,81206,128,0,81290:0:0:0:0:
448,192,81290,128,0,81373:0:0:0:0:
64,192,81373,128,0,81456:0:0:0:0:
320,192,81456,128,0,81540:0:0:0:0:
448,192,81456,128,0,81706:0:0:0:0:
64,192,81623,128,0,81873:0:0:0:0:
320,192,81790,128,0,81873:0:0:0:0:
448,192,81790,128,0,81873:0:0:0:0:
192,192,81956,128,0,82206:0:0:0:0:
320,192,82123,128,0,82373:0:0:0:0:
448,192,82123,128,0,82206:0:0:0:0:
64,192,82123,128,0,82373:0:0:0:0:
192,192,82290,128,0,82623:0:0:0:0:
448,192,82456,128,0,82706:0:0:0:0:
64,192,82456,128,0,82706:0:0:0:0:
320,192,82623,128,0,82790:0:0:0:0:
192,192,82706,128,0,82873:0:0:0:0:
448,192,82790,128,0,82873:0:0:0:0:
64,192,82790,128,0,82873:0:0:0:0:
320,192,82873,128,0,82956:0:0:0:0:
192,192,82956,128,0,83040:0:0:0:0:
448,192,83123,128,0,83373:0:0:0:0:
64,192,83123,128,0,83373:0:0:0:0:
320,192,83206,128,0,83290:0:0:0:0:
192,192,83290,128,0,83373:0:0:0:0:
320,192,83373,128,0,83456:0:0:0:0:
448,192,83456,128,0,83540:0:0:0:0:
64,192,83456,128,0,83623:0:0:0:0:
192,192,83623,1,0,0:0:0:0:
448,192,83790,128,0,83873:0:0:0:0:
320,192,83790,128,0,84040:0:0:0:0:
192,192,83956,128,0,84206:0:0:0:0:
64,192,84123,128,0,84206:0:0:0:0:
448,192,84123,128,0,84206:0:0:0:0:
64,192,84290,128,0,84873:0:0:0:0:
448,192,84290,128,0,84540:0:0:0:0:
192,192,84373,128,0,84456:0:0:0:0:
320,192,84456,128,0,84540:0:0:0:0:
192,192,84540,128,0,84623:0:0:0:0:
448,192,84623,128,0,84706:0:0:0:0:
320,192,84790,128,0,85206:0:0:0:0:
192,192,84790,128,0,84873:0:0:0:0:
64,192,84956,1,0,0:0:0:0:
192,192,85123,128,0,85540:0:0:0:0:
64,192,85123,128,0,85206:0:0:0:0:
448,192,85290,1,0,0:0:0:0:
448,192,85456,128,0,85873:0:0:0:0:
320,192,85456,128,0,85540:0:0:0:0:
192,192,85623,1,0,0:0:0:0:
192,192,85790,128,0,86206:0:0:0:0:
320,192,85790,128,0,86206:0:0:0:0:
64,192,85956,1,0,0:0:0:0:
448,192,86123,128,0,86206:0:0:0:0:
64,192,86123,128,0,86206:0:0:0:0:
320,192,86290,1,0,0:0:0:0:
448,192,86456,128,0,86873:0:0:0:0:
64,192,86456,128,0,86873:0:0:0:0:
192,192,86623,1,0,0:0:0:0:
320,192,86790,128,0,86873:0:0:0:0:
192,192,86790,128,0,86873:0:0:0:0:
64,192,86956,128,0,87040:0:0:0:0:
320,192,86956,128,0,87540:0:0:0:0:
448,192,87040,128,0,87123:0:0:0:0:
192,192,87123,128,0,87206:0:0:0:0:
64,192,87123,128,0,87206:0:0:0:0:
448,192,87206,128,0,87290:0:0:0:0:
192,192,87290,128,0,87540:0:0:0:0:
64,192,87456,128,0,87540:0:0:0:0:
448,192,87456,128,0,87540:0:0:0:0:
448,192,87790,128,0,87873:0:0:0:0:
320,192,87790,128,0,87873:0:0:0:0:
64,192,87956,1,0,0:0:0:0:
320,192,88040,128,0,88123:0:0:0:0:
192,192,88040,128,0,88123:0:0:0:0:
448,192,88123,128,0,88206:0:0:0:0:
64,192,88123,128,0,88373:0:0:0:0:
192,192,88290,128,0,88373:0:0:0:0:
320,192,88290,128,0,88373:0:0:0:0:
320,192,88456,128,0,88540:0:0:0:0:
448,192,88456,128,0,88706:0:0:0:0:
64,192,88456,128,0,88623:0:0:0:0:
192,192,88623,128,0,88873:0:0:0:0:
448,192,88790,128,0,88873:0:0:0:0:
320,192,88790,128,0,89040:0:0:0:0:
64,192,88956,128,0,89206:0:0:0:0:
448,192,89123,128,0,89540:0:0:0:0:
192,192,89123,128,0,89206:0:0:0:0:
320,192,89206,128,0,89290:0:0:0:0:
64,192,89290,128,0,89373:0:0:0:0:
320,192,89373,128,0,89456:0:0:0:0:
192,192,89456,128,0,89706:0:0:0:0:
64,192,89456,128,0,89540:0:0:0:0:
320,192,89623,128,0,89873:0:0:0:0:
192,192,89790,128,0,89873:0:0:0:0:
64,192,89790,128,0,89873:0:0:0:0:
64,192,89956,128,0,90456:0:0:0:0:
448,192,89956,1,0,0:0:0:0:
448,192,90123,128,0,90206:0:0:0:0:
320,192,90123,128,0,90373:0:0:0:0:
192,192,90290,128,0,90706:0:0:0:0:
320,192,90456,128,0,90706:0:0:0:0:
448,192,90456,128,0,90623:0:0:0:0:
64,192,90623,128,0,90790:0:0:0:0:
448,192,90706,128,0,90873:0:0:0:0:
320,192,90790,128,0,90873:0:0:0:0:
192,192,90790,128,0,91040:0:0:0:0:
64,192,90873,128,0,91040:0:0:0:0:
448,192,90956,128,0,91040:0:0:0:0:
448,192,91123,128,0,91790:0:0:0:0:
320,192,91123,128,0,91206:0:0:0:0:
192,192,91206,128,0,91290:0:0:0:0:
64,192,91290,128,0,91373:0:0:0:0:
320,192,91373,128,0,91540:0:0:0:0:
64,192,91456,128,0,91623:0:0:0:0:
192,192,91456,128,0,91540:0:0:0:0:
64,192,91790,128,0,92373:0:0:0:0:
320,192,91790,128,0,92123:0:0:0:0:
448,192,91956,128,0,92123:0:0:0:0:
192,192,91956,128,0,92123:0:0:0:0:
192,192,92290,128,0,92456:0:0:0:0:
320,192,92290,128,0,92456:0:0:0:0:
448,192,92456,128,0,92623:0:0:0:0:
64,192,92456,128,0,92623:0:0:0:0:
192,192,92540,128,0,92706:0:0:0:0:
320,192,92623,128,0,92790:0:0:0:0:
448,192,92706,128,0,92873:0:0:0:0:
192,192,92790,128,0,92873:0:0:0:0:
64,192,92790,128,0,92873:0:0:0:0:
320,192,92873,128,0,92956:0:0:0:0:
448,192,92956,128,0,93040:0:0:0:0:
64,192,93040,128,0,93206:0:0:0:0:
448,192,93123,128,0,93206:0:0:0:0:
192,192,93123,128,0,93206:0:0:0:0:
320,192,93290,1,0,0:0:0:0:
64,192,93373,128,0,93456:0:0:0:0:
448,192,93373,128,0,93456:0:0:0:0:
320,192,93456,128,0,93706:0:0:0:0:
192,192,93456,128,0,93540:0:0:0:0:
448,192,93623,128,0,93706:0:0:0:0:
64,192,93623,128,0,93706:0:0:0:0:
320,192,93790,1,0,0:0:0:0:
192,192,93790,1,0,0:0:0:0:
64,192,93790,128,0,94206:0:0:0:0:
192,192,93956,128,0,94956:0:0:0:0:
320,192,93956,1,0,0:0:0:0:
448,192,94123,1,0,0:0:0:0:
64,192,94290,128,0,94790:0:0:0:0:
448,192,94290,1,0,0:0:0:0:
320,192,94456,1,0,0:0:0:0:
320,192,94623,1,0,0:0:0:0:
448,192,94790,1,0,0:0:0:0:
64,192,94956,1,0,0:0:0:0:
448,192,95123,128,0,95540:0:0:0:0:
192,192,95123,1,0,0:0:0:0:
320,192,95290,128,0,96123:0:0:0:0:
192,192,95290,1,0,0:0:0:0:
64,192,95456,1,0,0:0:0:0:
448,192,95623,128,0,96290:0:0:0:0:
64,192,95623,1,0,0:0:0:0:
192,192,95790,1,0,0:0:0:0:
192,192,95956,1,0,0:0:0:0:
64,192,96123,1,0,0:0:0:0:
320,192,96290,1,0,0:0:0:0:
192,192,96456,128,0,96540:0:0:0:0:
64,192,96456,1,0,0:0:0:0:
448,192,96540,1,0,0:0:0:0:
320,192,96623,128,0,96706:0:0:0:0:
192,192,96623,1,0,0:0:0:0:
64,192,96706,1,0,0:0:0:0:
320,192,96790,1,0,0:0:0:0:
448,192,96790,1,0,0:0:0:0:
64,192,96873,1,0,0:0:0:0:
192,192,96956,1,0,0:0:0:0:
448,192,96956,128,0,97040:0:0:0:0:
320,192,97040,1,0,0:0:0:0:
192,192,97123,1,0,0:0:0:0:
64,192,97123,1,0,0:0:0:0:
448,192,97206,1,0,0:0:0:0:
320,192,97206,1,0,0:0:0:0:
192,192,97290,1,0,0:0:0:0:
64,192,97290,128,0,97373:0:0:0:0:
320,192,97373,1,0,0:0:0:0:
448,192,97373,1,0,0:0:0:0:
192,192,97456,1,0,0:0:0:0:
64,192,97456,1,0,0:0:0:0:
320,192,97540,1,0,0:0:0:0:
448,192,97540,1,0,0:0:0:0:
64,192,97623,1,0,0:0:0:0:
192,192,97623,128,0,97956:0:0:0:0:
320,192,97706,1,0,0:0:0:0:
448,192,97790,128,0,97956:0:0:0:0:
64,192,97790,128,0,97956:0:0:0:0:
448,192,98290,128,0,98706:0:0:0:0:
64,192,98290,128,0,98873:0:0:0:0:
320,192,98456,128,0,98706:0:0:0:0:
192,192,98456,128,0,98873:0:0:0:0:
320,192,98790,128,0,99040:0:0:0:0:
448,192,98790,128,0,99040:0:0:0:0:
192,192,98956,128,0,100040:0:0:0:0:
64,192,98956,128,0,100040:0:0:0:0:
320,192,99123,1,0,0:0:0:0:
448,192,99123,1,0,0:0:0:0:
320,192,99456,128,0,99706:0:0:0:0:
448,192,99456,128,0,99706:0:0:0:0:
320,192,99790,1,0,0:0:0:0:
448,192,99790,1,0,0:0:0:0:
320,192,99956,128,0,100206:0:0:0:0:
448,192,99956,128,0,100206:0:0:0:0:
64,192,100123,1,0,0:0:0:0:
192,192,100123,1,0,0:0:0:0:
320,192,100290,1,0,0:0:0:0:
448,192,100456,128,0,100956:0:0:0:0:
64,192,100456,128,0,101623:0:0:0:0:
192,192,100623,1,0,0:0:0:0:
320,192,100790,1,0,0:0:0:0:
192,192,100790,1,0,0:0:0:0:
320,192,100956,1,0,0:0:0:0:
448,192,101123,1,0,0:0:0:0:
192,192,101123,128,0,101623:0:0:0:0:
320,192,101290,1,0,0:0:0:0:
320,192,101456,1,0,0:0:0:0:
448,192,101456,1,0,0:0:0:0:
448,192,101623,1,0,0:0:0:0:
320,192,101790,128,0,102040:0:0:0:0:
64,192,101790,128,0,101873:0:0:0:0:
448,192,101873,128,0,102040:0:0:0:0:
192,192,101956,128,0,102206:0:0:0:0:
64,192,102040,128,0,102206:0:0:0:0:
320,192,102123,128,0,102206:0:0:0:0:
448,192,102123,128,0,102373:0:0:0:0:
64,192,102290,128,0,102540:0:0:0:0:
192,192,102290,128,0,102373:0:0:0:0:
320,192,102456,128,0,102540:0:0:0:0:
448,192,102456,128,0,102706:0:0:0:0:
320,192,102623,128,0,102873:0:0:0:0:
192,192,102623,128,0,102706:0:0:0:0:
192,192,102790,128,0,103040:0:0:0:0:
64,192,102790,128,0,102873:0:0:0:0:
448,192,102956,128,0,103206:0:0:0:0:
64,192,102998,128,0,103206:0:0:0:0:
320,192,103123,128,0,103206:0:0:0:0:
192,192,103123,128,0,103206:0:0:0:0:
320,192,103290,128,0,103540:0:0:0:0:
448,192,103290,128,0,103706:0:0:0:0:
192,192,103456,128,0,103540:0:0:0:0:
64,192,103456,128,0,103540:0:0:0:0:
192,192,103623,128,0,103873:0:0:0:0:
64,192,103623,128,0,103873:0:0:0:0:
320,192,103790,128,0,103873:0:0:0:0:
448,192,103790,128,0,103873:0:0:0:0:
320,192,103956,128,0,104206:0:0:0:0:
448,192,103998,128,0,104206:0:0:0:0:
192,192,104123,128,0,104206:0:0:0:0:
64,192,104123,128,0,104206:0:0:0:0:
64,192,104290,128,0,104540:0:0:0:0:
448,192,104290,128,0,104456:0:0:0:0:
192,192,104456,128,0,104540:0:0:0:0:
320,192,104456,128,0,104540:0:0:0:0:
448,192,104540,128,0,104706:0:0:0:0:
64,192,104623,128,0,104706:0:0:0:0:
320,192,104706,128,0,104790:0:0:0:0:
64,192,104790,1,0,0:0:0:0:
192,192,104790,128,0,104956:0:0:0:0:
320,192,104873,128,0,104956:0:0:0:0:
448,192,104956,1,0,0:0:0:0:
320,192,105123,1,0,0:0:0:0:
192,192,105123,128,0,105290:0:0:0:0:
448,192,105206,128,0,105373:0:0:0:0:
64,192,105290,128,0,105456:0:0:0:0:
320,192,105373,128,0,105456:0:0:0:0:
192,192,105456,1,0,0:0:0:0:
448,192,105456,1,0,0:0:0:0:
64,192,105623,1,0,0:0:0:0:
448,192,105790,1,0,0:0:0:0:
320,192,105790,128,0,105956:0:0:0:0:
64,192,105873,128,0,106040:0:0:0:0:
448,192,105956,128,0,106123:0:0:0:0:
192,192,106040,128,0,106123:0:0:0:0:
320,192,106123,1,0,0:0:0:0:
64,192,106123,1,0,0:0:0:0:
448,192,106290,128,0,106540:0:0:0:0:
192,192,106373,128,0,106540:0:0:0:0:
64,192,106456,128,0,106623:0:0:0:0:
320,192,106456,128,0,106540:0:0:0:0:
448,192,106623,128,0,106873:0:0:0:0:
64,192,106706,128,0,106956:0:0:0:0:
320,192,106790,128,0,107040:0:0:0:0:
192,192,106873,128,0,107123:0:0:0:0:
448,192,106956,128,0,107040:0:0:0:0:
64,192,107040,128,0,107123:0:0:0:0:
320,192,107123,128,0,107206:0:0:0:0:
448,192,107123,128,0,107373:0:0:0:0:
64,192,107290,128,0,107540:0:0:0:0:
192,192,107290,128,0,107373:0:0:0:0:
320,192,107456,128,0,107706:0:0:0:0:
448,192,107498,128,0,107581:0:0:0:0:
192,192,107623,128,0,107873:0:0:0:0:
64,192,107665,128,0,107748:0:0:0:0:
320,192,107790,128,0,107873:0:0:0:0:
448,192,107790,128,0,107873:0:0:0:0:
64,192,107956,128,0,108206:0:0:0:0:
448,192,107998,128,0,108206:0:0:0:0:
320,192,108123,128,0,108206:0:0:0:0:
192,192,108123,128,0,108206:0:0:0:0:
192,192,108290,128,0,108623:0:0:0:0:
320,192,108290,128,0,108540:0:0:0:0:
64,192,108456,128,0,108540:0:0:0:0:
448,192,108456,128,0,108706:0:0:0:0:
64,192,108623,128,0,108956:0:0:0:0:
320,192,108623,128,0,108706:0:0:0:0:
448,192,108790,128,0,108873:0:0:0:0:
192,192,108831,128,0,108956:0:0:0:0:
320,192,108873,128,0,109206:0:0:0:0:
448,192,108956,128,0,109040:0:0:0:0:
192,192,109040,128,0,109206:0:0:0:0:
64,192,109040,128,0,109123:0:0:0:0:
448,192,109123,128,0,109373:0:0:0:0:
64,192,109206,128,0,109290:0:0:0:0:
192,192,109290,128,0,109456:0:0:0:0:
320,192,109290,128,0,109373:0:0:0:0:
64,192,109373,128,0,109540:0:0:0:0:
448,192,109456,128,0,109623:0:0:0:0:
320,192,109456,128,0,109706:0:0:0:0:
192,192,109540,128,0,109706:0:0:0:0:
64,192,109623,128,0,109790:0:0:0:0:
448,192,109706,128,0,109790:0:0:0:0:
320,192,109790,1,0,0:0:0:0:
192,192,109790,1,0,0:0:0:0:
448,192,110123,1,0,0:0:0:0:
64,192,110123,128,0,110373:0:0:0:0:
192,192,110123,128,0,110373:0:0:0:0:
320,192,110290,1,0,0:0:0:0:
448,192,110456,1,0,0:0:0:0:
64,192,110456,1,0,0:0:0:0:
192,192,110623,128,0,110873:0:0:0:0:
320,192,110623,128,0,110873:0:0:0:0:
448,192,110790,1,0,0:0:0:0:
64,192,110790,1,0,0:0:0:0:
192,192,110956,1,0,0:0:0:0:
448,192,111123,128,0,112456:0:0:0:0:
320,192,111123,128,0,111706:0:0:0:0:
64,192,111290,1,0,0:0:0:0:
64,192,111456,1,0,0:0:0:0:
192,192,111456,1,0,0:0:0:0:
192,192,111623,1,0,0:0:0:0:
64,192,111790,128,0,112040:0:0:0:0:
320,192,111790,128,0,111873:0:0:0:0:
192,192,111956,128,0,112040:0:0:0:0:
320,192,111956,128,0,112206:0:0:0:0:
192,192,112123,128,0,112373:0:0:0:0:
64,192,112123,128,0,112206:0:0:0:0:
64,192,112290,128,0,112540:0:0:0:0:
320,192,112290,128,0,112373:0:0:0:0:
192,192,112456,128,0,112540:0:0:0:0:
320,192,112456,128,0,112540:0:0:0:0:
448,192,112623,128,0,112706:0:0:0:0:
320,192,112706,128,0,112873:0:0:0:0:
192,192,112748,128,0,112956:0:0:0:0:
64,192,112790,128,0,113206:0:0:0:0:
448,192,112790,128,0,112873:0:0:0:0:
320,192,112956,1,0,0:0:0:0:
320,192,113123,128,0,113206:0:0:0:0:
448,192,113123,128,0,113373:0:0:0:0:
192,192,113290,128,0,113540:0:0:0:0:
64,192,113290,128,0,113373:0:0:0:0:
64,192,113456,128,0,113706:0:0:0:0:
320,192,113456,128,0,113540:0:0:0:0:
320,192,113623,128,0,113873:0:0:0:0:
448,192,113623,128,0,113706:0:0:0:0:
192,192,113790,128,0,113873:0:0:0:0:
448,192,113790,128,0,114040:0:0:0:0:
64,192,113956,128,0,114040:0:0:0:0:
192,192,114040,128,0,114206:0:0:0:0:
320,192,114081,128,0,114373:0:0:0:0:
64,192,114123,128,0,114206:0:0:0:0:
448,192,114123,128,0,114540:0:0:0:0:
192,192,114290,128,0,114373:0:0:0:0:
64,192,114290,128,0,114540:0:0:0:0:
192,192,114456,128,0,114706:0:0:0:0:
320,192,114456,128,0,114540:0:0:0:0:
320,192,114623,128,0,114873:0:0:0:0:
448,192,114623,128,0,114706:0:0:0:0:
64,192,114706,1,0,0:0:0:0:
192,192,114790,128,0,114873:0:0:0:0:
448,192,114790,128,0,115040:0:0:0:0:
320,192,114956,128,0,115040:0:0:0:0:
192,192,114956,128,0,115123:0:0:0:0:
64,192,114956,128,0,115040:0:0:0:0:
448,192,115123,1,0,0:0:0:0:
64,192,115123,1,0,0:0:0:0:
320,192,115123,1,0,0:0:0:0:
192,192,115290,1,0,0:0:0:0:
64,192,115456,128,0,115873:0:0:0:0:
448,192,115456,128,0,115956:0:0:0:0:
192,192,115623,1,0,0:0:0:0:
320,192,115790,1,0,0:0:0:0:
192,192,115790,1,0,0:0:0:0:
320,192,115956,128,0,116373:0:0:0:0:
64,192,115956,128,0,116456:0:0:0:0:
448,192,116123,1,0,0:0:0:0:
192,192,116123,1,0,0:0:0:0:
448,192,116290,1,0,0:0:0:0:
192,192,116456,128,0,116706:0:0:0:0:
320,192,116456,128,0,117040:0:0:0:0:
64,192,116623,1,0,0:0:0:0:
192,192,116790,128,0,117373:0:0:0:0:
64,192,116790,1,0,0:0:0:0:
448,192,116956,1,0,0:0:0:0:
320,192,117123,128,0,117790:0:0:0:0:
448,192,117123,1,0,0:0:0:0:
64,192,117290,1,0,0:0:0:0:
192,192,117456,128,0,117706:0:0:0:0:
64,192,117456,1,0,0:0:0:0:
448,192,117623,1,0,0:0:0:0:
64,192,117790,1,0,0:0:0:0:
192,192,117790,1,0,0:0:0:0:
320,192,117873,1,0,0:0:0:0:
448,192,117873,1,0,0:0:0:0:
64,192,117956,1,0,0:0:0:0:
192,192,117956,1,0,0:0:0:0:
320,192,118040,1,0,0:0:0:0:
448,192,118040,1,0,0:0:0:0:
192,192,118123,1,0,0:0:0:0:
64,192,118123,1,0,0:0:0:0:
320,192,118206,1,0,0:0:0:0:
448,192,118206,1,0,0:0:0:0:
64,192,118290,1,0,0:0:0:0:
192,192,118290,1,0,0:0:0:0:
320,192,118373,1,0,0:0:0:0:
448,192,118373,1,0,0:0:0:0:
192,192,118456,1,0,0:0:0:0:
64,192,118456,1,0,0:0:0:0:
320,192,118540,1,0,0:0:0:0:
448,192,118540,1,0,0:0:0:0:
192,192,118623,1,0,0:0:0:0:
64,192,118623,1,0,0:0:0:0:
320,192,118706,1,0,0:0:0:0:
448,192,118706,1,0,0:0:0:0:
192,192,118790,1,0,0:0:0:0:
64,192,118790,1,0,0:0:0:0:
320,192,118873,1,0,0:0:0:0:
448,192,118873,1,0,0:0:0:0:
64,192,118956,128,0,119290:0:0:0:0:
192,192,118956,128,0,119206:0:0:0:0:
320,192,119040,128,0,119123:0:0:0:0:
448,192,119040,128,0,119290:0:0:0:0:
448,192,119623,128,0,120706:0:0:0:0:
320,192,119790,128,0,120706:0:0:0:0:
64,192,120123,128,0,120706:0:0:0:0:
192,192,120290,128,0,120706:0:0:0:0:
64,192,120790,128,0,121456:0:0:0:0:
448,192,120790,128,0,120956:0:0:0:0:
320,192,120790,128,0,121040:0:0:0:0:
192,192,120790,128,0,121123:0:0:0:0:
192,192,121290,128,0,121540:0:0:0:0:
320,192,121290,128,0,121623:0:0:0:0:
448,192,121290,128,0,121956:0:0:0:0:
64,192,121790,128,0,123623:0:0:0:0:
192,192,121790,128,0,123540:0:0:0:0:
320,192,121790,128,0,122040:0:0:0:0:
448,192,123290,128,0,123790:0:0:0:0:
320,192,123456,128,0,123706:0:0:0:0:
192,192,124040,128,0,125706:0:0:0:0:
320,192,124206,128,0,125651:0:0:0:0:
448,192,124373,128,0,125540:0:0:0:0:
64,192,124373,128,0,125595:0:0:0:0:
448,192,125623,1,0,0:0:0:0:
64,192,125679,1,0,0:0:0:0:
320,192,125734,1,0,0:0:0:0:
192,192,125790,1,0,0:0:0:0:
