osu file format v14

[General]
AudioFilename: audio.mp3
AudioLeadIn: 0
PreviewTime: 100065
Countdown: 0
SampleSet: Soft
StackLeniency: 0.7
Mode: 0
LetterboxInBreaks: 0
WidescreenStoryboard: 0

[Editor]
Bookmarks: 6587,20500,51804,83108,100500,114413,135282,166586,183978,197891,211804,225717,239630,260500,298760
DistanceSpacing: 1.8
BeatDivisor: 4
GridSize: 4
TimelineZoom: 2.4

[Metadata]
Title:Kimi Dattara
TitleUnicode:君だったら
Artist:HAPPY BIRTHDAY
ArtistUnicode:HAPPY BIRTHDAY
Creator:Uta
Version:Birthday
Source:
Tags:error- konya kimi ga kowai yume wo mimasen youni 今夜きみが怖い夢を見ませんように akkogorilla あっこゴリラ kisa sakaguchi 坂口喜咲
BeatmapID:1574703
BeatmapSetID:743126

[Difficulty]
HPDrainRate:5.7
CircleSize:4.3
OverallDifficulty:6
ApproachRate:6.5
SliderMultiplier:1.4
SliderTickRate:1

[Events]
//Background and Video events
0,0,"49143_anime_scenery_anime_nature_by_gmagames-d9ux2nj.jpg",0,0
//Break Periods
2,11569,12239
2,18525,19195
2,48526,49630
//Storyboard Layer 0 (Background)
//Storyboard Layer 1 (Fail)
//Storyboard Layer 2 (Pass)
//Storyboard Layer 3 (Foreground)
//Storyboard Sound Samples

[TimingPoints]
6587,869.565217391304,4,2,4,40,1,0
6587,-133.333333333333,4,2,4,40,0,0
7891,-133.333333333333,4,2,4,5,0,0
8326,-133.333333333333,4,2,4,40,0,0
9630,-133.333333333333,4,2,4,5,0,0
10065,-133.333333333333,4,2,4,40,0,0
11369,-133.333333333333,4,2,4,5,0,0
13543,-133.333333333333,4,2,4,40,0,0
14847,-133.333333333333,4,2,4,5,0,0
15282,-133.333333333333,4,2,4,40,0,0
16586,-133.333333333333,4,2,4,5,0,0
17021,-133.333333333333,4,2,4,40,0,0
18326,-133.333333333333,4,2,4,5,0,0
20500,-100,4,2,4,45,0,0
51804,-76.9230769230769,4,2,4,60,0,0
64847,-76.9230769230769,4,2,5,85,0,0
65717,-76.9230769230769,4,2,4,60,0,0
80934,-76.9230769230769,4,2,5,85,0,0
83108,-76.9230769230769,4,2,4,65,0,0
89195,-76.9230769230769,4,2,5,85,0,0
90065,-76.9230769230769,4,2,4,65,0,0
91369,-76.9230769230769,4,2,5,85,0,0
92673,-76.9230769230769,4,2,4,65,0,0
100500,-71.4285714285714,4,2,3,78,0,1
101804,-71.4285714285714,4,2,4,78,0,1
102239,-71.4285714285714,4,2,3,78,0,1
103326,-71.4285714285714,4,2,4,78,0,1
107456,-71.4285714285714,4,2,3,78,0,1
108760,-71.4285714285714,4,2,4,78,0,1
109195,-71.4285714285714,4,2,3,78,0,1
110500,-71.4285714285714,4,2,4,78,0,1
113543,-71.4285714285714,4,2,5,85,0,1
114413,-71.4285714285714,4,2,3,78,0,1
115717,-71.4285714285714,4,2,4,78,0,1
116152,-71.4285714285714,4,2,3,78,0,1
117021,-71.4285714285714,4,2,4,78,0,1
125934,-71.4285714285714,4,2,5,85,0,1
126586,-76.9230769230769,4,2,4,60,0,0
128760,-76.9230769230769,4,2,5,85,0,0
135282,-76.9230769230769,4,2,4,68,0,0
148326,-76.9230769230769,4,2,5,68,0,0
149195,-76.9230769230769,4,2,4,68,0,0
183978,-71.4285714285714,4,2,3,78,0,1
185282,-71.4285714285714,4,2,4,78,0,1
185717,-71.4285714285714,4,2,3,78,0,1
187021,-71.4285714285714,4,2,4,78,0,1
187456,-71.4285714285714,4,2,4,78,0,1
190934,-71.4285714285714,4,2,3,78,0,1
192239,-71.4285714285714,4,2,4,78,0,1
192673,-71.4285714285714,4,2,3,78,0,1
193978,-71.4285714285714,4,2,4,78,0,1
194413,-71.4285714285714,4,2,4,78,0,1
197021,-71.4285714285714,4,2,5,85,0,1
197891,-71.4285714285714,4,2,3,78,0,1
199195,-71.4285714285714,4,2,4,78,0,1
199630,-71.4285714285714,4,2,3,78,0,1
200934,-71.4285714285714,4,2,4,78,0,1
201369,-71.4285714285714,4,2,4,78,0,1
209195,-71.4285714285714,4,2,5,85,0,1
210934,-71.4285714285714,4,2,4,78,0,1
211804,-62.5,4,2,5,85,0,0
224847,-62.5,4,2,4,68,0,0
225717,-62.5,4,2,5,85,0,0
231804,-62.5,4,2,4,74,0,0
235934,-62.5,4,2,4,70,0,0
239630,-100,4,2,4,50,0,0
246369,-100,4,2,4,58,0,0
253543,-83.3333333333333,4,2,4,58,0,0
260065,-83.3333333333333,4,2,4,68,0,0
260500,-76.9230769230769,4,2,4,68,0,0
265717,-133.333333333333,4,2,4,58,0,0
267456,-71.4285714285714,4,2,3,78,0,1
268326,-71.4285714285714,4,2,4,78,0,1
269195,-71.4285714285714,4,2,3,78,0,1
270065,-71.4285714285714,4,2,4,78,0,1
274413,-71.4285714285714,4,2,3,78,0,1
274847,-71.4285714285714,4,2,4,78,0,1
275282,-71.4285714285714,4,2,4,78,0,1
276152,-71.4285714285714,4,2,3,78,0,1
277456,-71.4285714285714,4,2,4,78,0,1
279630,-71.4285714285714,4,2,5,85,0,1
281369,-71.4285714285714,4,2,3,78,0,1
282239,-71.4285714285714,4,2,4,78,0,1
283108,-71.4285714285714,4,2,3,78,0,1
284413,-71.4285714285714,4,2,4,78,0,1
284847,-71.4285714285714,4,2,4,78,0,1
287456,-71.4285714285714,4,2,5,85,0,1
288326,-71.4285714285714,4,2,4,78,0,1
293543,-100,4,2,4,78,0,0
297891,-100,4,2,4,40,0,0
298760,-133.333333333333,4,2,4,40,0,0
308815,909.090909090909,4,2,4,40,1,0
309269,888.888888888889,4,2,4,40,1,0
309713,944.88188976378,4,2,4,40,1,0
310185,975.609756097561,4,2,4,40,1,0
310680,1000,4,2,4,40,1,0
311180,1176.47058823529,4,2,4,40,1,0
313113,1090.90909090909,4,2,4,40,1,0
314476,1090.90909090909,4,2,4,40,1,0
318839,-100,4,2,0,5,0,0

[Colours]
Combo1 : 128,0,255
Combo2 : 128,255,255
Combo3 : 128,128,255
Combo4 : 255,0,128

[HitObjects]
128,176,6587,38,0,P|197:199|272:141,1,157.500006008148,2|0,0:0|0:0,0:0:0:0:
190,117,8326,2,0,B|178:207|229:173|201:286,1,157.500006008148,2|0,0:0|0:0,0:0:0:0:
152,320,10065,2,0,P|200:296|288:352,1,157.500006008148,2|0,0:0|0:0,0:0:0:0:
448,368,13543,6,0,B|432:288|480:312|448:200,1,157.500006008148,2|0,0:0|0:0,0:0:0:0:
392,152,15282,2,0,P|336:144|272:232,1,157.500006008148,2|0,0:0|0:0,0:0:0:0:
326,311,17021,2,0,L|158:295,1,157.500006008148,2|0,0:0|0:0,0:0:0:0:
169,296,20500,6,0,P|155:257|161:213,1,70,2|0,0:0|0:0,0:0:0:0:
107,143,21369,2,0,L|37:133,1,70,0|0,0:0|0:0,0:0:0:0:
152,72,22021,1,0,0:0:0:0:
152,72,22239,2,0,L|221:62,1,70,2|0,0:0|0:0,0:0:0:0:
283,4,22891,2,0,P|304:51|291:108,1,105,0|0,0:0|0:0,0:0:0:0:
221,143,23760,1,0,0:0:0:0:
221,143,23978,6,0,L|225:212,1,70,2|0,0:0|0:0,0:0:0:0:
296,280,24847,2,0,L|291:349,1,70,0|0,0:0|0:0,0:0:0:0:
367,213,25717,2,0,L|355:55,1,140,2|0,0:0|0:0,0:0:0:0:
270,119,27021,1,0,0:0:0:0:
270,119,27456,38,0,P|234:123|186:112,1,70,2|0,0:0|0:0,0:0:0:0:
124,77,28108,2,0,P|86:78|52:96,1,70,0|0,0:0|0:0,0:0:0:0:
110,159,28760,1,0,0:0:0:0:
110,159,28978,1,0,0:0:0:0:
64,231,29195,2,0,L|71:310,1,70,2|0,0:0|0:0,0:0:0:0:
135,357,29847,2,0,P|163:370|209:371,1,70,0|0,0:0|0:0,0:0:0:0:
185,287,30500,1,0,0:0:0:0:
288,257,30934,5,2,0:0:0:0:
288,257,31152,2,0,P|297:220|298:182,1,70,0|0,0:0|0:0,0:0:0:0:
258,111,31804,1,0,0:0:0:0:
258,111,32021,1,0,0:0:0:0:
307,32,32239,2,0,L|355:29,1,35,0|0,0:0|0:0,0:0:0:0:
258,111,32673,2,0,L|118:102,1,140,2|2,0:0|0:0,0:0:0:0:
24,144,33978,1,0,0:0:0:0:
24,144,34195,1,0,0:0:0:0:
75,212,34413,38,0,P|86:243|88:282,1,70,2|0,0:0|0:0,0:0:0:0:
141,371,35282,2,0,L|226:364,1,70,0|0,0:0|0:0,0:0:0:0:
301,311,36152,1,2,0:0:0:0:
392,362,36586,1,0,0:0:0:0:
469,290,37021,2,0,P|481:249|480:213,1,70,0|0,0:0|0:0,0:0:0:0:
439,146,37673,1,0,0:0:0:0:
439,146,37891,6,0,L|365:142,1,70,2|0,0:0|0:0,0:0:0:0:
407,65,38543,1,0,0:0:0:0:
323,82,38760,2,0,P|299:114|294:153,1,70,0|0,0:0|0:0,0:0:0:0:
337,217,39413,1,0,0:0:0:0:
337,217,39630,2,0,L|371:218,2,35,2|0|0,0:0|0:0|0:0,0:0:0:0:
256,245,40282,2,0,P|236:281|237:328,1,70,0|0,0:0|0:0,0:0:0:0:
319,303,40934,1,0,0:0:0:0:
165,356,41369,38,0,L|90:350,1,70,2|0,0:0|0:0,0:0:0:0:
5,303,42239,2,0,P|6:258|21:224,1,70,0|0,0:0|0:0,0:0:0:0:
129,185,43108,2,0,P|128:230|113:264,1,70,0|0,0:0|0:0,0:0:0:0:
76,133,43760,2,0,P|110:115|146:113,1,70,0|0,0:0|0:0,0:0:0:0:
220,135,44413,1,0,0:0:0:0:
324,159,44847,6,0,L|331:229,1,70,2|0,0:0|0:0,0:0:0:0:
235,150,45500,2,0,L|242:80,1,70,0|0,0:0|0:0,0:0:0:0:
308,25,46152,1,0,0:0:0:0:
308,25,46369,1,0,0:0:0:0:
382,67,46586,2,0,P|413:79|460:81,1,70,2|0,0:0|0:0,0:0:0:0:
505,147,47239,2,0,L|511:225,1,70,0|0,0:0|0:0,0:0:0:0:
487,299,47891,1,0,0:0:0:0:
349,332,48326,37,2,0:0:0:0:
198,110,50934,6,0,L|196:69,1,35,8|8,0:0|0:0,0:0:0:0:
238,11,51369,1,8,0:3:0:0:
96,106,51804,6,0,P|64:176|72:216,1,90.9999958343508,4|0,0:0|0:0,0:0:0:0:
102,261,52456,1,0,0:0:0:0:
102,261,52673,2,0,L|194:252,1,90.9999958343508,8|0,0:0|0:0,0:0:0:0:
264,272,53326,2,0,P|320:276|360:312,1,90.9999958343508,2|2,0:0|0:0,0:0:0:0:
392,356,53978,1,8,0:3:0:0:
456,204,54413,1,8,0:0:0:0:
304,128,54847,2,0,L|314:191,1,45.4999979171754,0|0,0:0|0:0,0:0:0:0:
342,64,55282,6,0,P|286:56|240:84,1,90.9999958343508,8|0,0:3|0:0,0:0:0:0:
193,175,56152,2,0,P|148:188|87:172,1,90.9999958343508,8|0,0:0|0:0,0:0:0:0:
32,147,56804,1,0,0:0:0:0:
32,147,57021,2,0,L|46:252,2,90.9999958343508,8|8|8,0:3|0:3|0:0,0:0:0:0:
101,42,58326,1,0,0:0:0:0:
218,95,58760,38,0,P|255:101|310:73,1,90.9999958343508,8|0,0:3|0:0,0:0:0:0:
383,27,59413,1,2,0:0:0:0:
383,27,59630,1,8,0:0:0:0:
480,95,60065,1,0,0:0:0:0:
395,176,60500,2,0,P|385:223|401:273,1,90.9999958343508,8|8,0:3|0:3,0:0:0:0:
477,345,61152,1,2,0:0:0:0:
477,345,61369,2,0,P|424:334|372:340,1,90.9999958343508,8|0,0:0|0:0,0:0:0:0:
296,360,62021,1,2,0:0:0:0:
296,360,62239,6,0,P|247:369|208:364,1,45.4999979171754,8|0,0:3|0:0,0:0:0:0:
186,307,62673,1,2,0:0:0:0:
186,307,62891,1,2,0:0:0:0:
186,307,63108,2,0,P|143:304|85:325,1,90.9999958343508,8|0,0:0|0:0,0:0:0:0:
10,361,63760,1,0,0:0:0:0:
10,361,63978,2,0,P|21:306|5:242,1,90.9999958343508,8|8,0:3|0:3,0:0:0:0:
0,152,64847,1,8,0:0:0:0:
0,152,65065,1,8,0:0:0:0:
0,152,65282,2,0,L|9:102,1,45.4999979171754,8|0,0:3|0:0,0:0:0:0:
88,16,65717,38,0,P|149:9|190:21,1,90.9999958343508,8|0,0:3|0:0,0:0:0:0:
223,114,66586,2,0,P|268:119|319:101,1,90.9999958343508,8|0,0:0|0:0,0:0:0:0:
397,65,67239,1,0,0:0:0:0:
397,65,67456,2,0,L|522:56,2,90.9999958343508,8|8|8,0:3|0:3|0:0,0:0:0:0:
352,205,68760,2,0,L|407:202,1,45.4999979171754,0|0,0:0|0:0,0:0:0:0:
314,143,69195,6,0,P|285:181|285:233,1,90.9999958343508,8|0,0:3|0:0,0:0:0:0:
364,289,69847,1,0,0:0:0:0:
364,289,70065,2,0,L|454:282,1,90.9999958343508,8|0,0:0|0:0,0:0:0:0:
498,362,70717,2,0,L|390:370,1,90.9999958343508,2|2,0:0|0:0,0:0:0:0:
328,355,71369,1,8,0:3:0:0:
328,355,71586,2,0,P|282:350|220:360,1,90.9999958343508,2|0,0:0|0:0,0:0:0:0:
163,381,72239,1,2,0:0:0:0:
114,273,72673,38,0,P|102:224|114:157,1,90.9999958343508,8|0,0:3|0:0,0:0:0:0:
204,121,73543,1,8,0:0:0:0:
284,220,73978,1,0,0:0:0:0:
367,123,74413,2,0,P|415:111|471:119,1,90.9999958343508,8|8,0:3|0:3,0:0:0:0:
497,180,75065,2,0,L|489:274,1,90.9999958343508,2|0,0:0|0:0,0:0:0:0:
431,323,75717,1,0,0:0:0:0:
344,249,76152,6,0,P|287:249|237:272,1,90.9999958343508,2|0,0:0|0:0,0:0:0:0:
197,314,76804,2,0,P|152:321|92:307,1,90.9999958343508,2|0,0:0|0:0,0:0:0:0:
65,249,77456,1,2,0:0:0:0:
157,148,77891,2,0,P|164:97|149:40,1,90.9999958343508,2|0,0:0|0:0,0:0:0:0:
215,16,78543,2,0,P|253:21|328:0,1,90.9999958343508,2|0,0:0|0:0,0:0:0:0:
355,70,79195,2,0,L|425:67,1,45.4999979171754,2|0,0:0|0:0,0:0:0:0:
496,128,79630,38,0,P|512:168|502:235,1,90.9999958343508,8|0,0:3|0:0,0:0:0:0:
406,293,80500,1,8,0:0:0:0:
314,203,80934,2,0,L|256:196,1,45.4999979171754,8|8,0:0|0:0,0:0:0:0:
200,242,81369,2,0,L|142:249,1,45.4999979171754,8|8,0:3|0:0,0:0:0:0:
94,174,81804,1,8,0:3:0:0:
2,288,82239,5,8,0:0:0:0:
2,288,82456,1,8,0:0:0:0:
63,338,82673,2,0,L|75:405,1,45.4999979171754,8|0,0:3|0:0,0:0:0:0:
143,296,83108,22,0,L|233:303,2,90.9999958343508,8|2|8,0:3|0:0|0:0,0:0:0:0:
251,227,84413,1,0,0:0:0:0:
251,227,84630,1,0,0:0:0:0:
307,280,84847,2,0,L|322:377,1,90.9999958343508,2|0,0:0|0:0,0:0:0:0:
398,376,85500,2,0,P|448:380|496:360,1,90.9999958343508,2|0,0:0|0:0,0:0:0:0:
437,305,86152,1,2,0:0:0:0:
437,305,86369,1,2,0:0:0:0:
344,214,86586,38,0,L|340:260,1,45.4999979171754,2|0,0:0|0:0,0:0:0:0:
447,219,87021,2,0,L|442:173,1,45.4999979171754,2|0,0:0|0:0,0:0:0:0:
357,95,87456,2,0,L|352:140,1,45.4999979171754,10|0,0:0|0:0,0:0:0:0:
482,88,87891,1,2,0:0:0:0:
482,88,88108,1,2,0:0:0:0:
398,13,88326,2,0,P|347:5|301:22,1,90.9999958343508,8|8,0:3|0:3,0:0:0:0:
190,90,89195,2,0,L|237:101,1,45.4999979171754,8|8,0:0|0:0,0:0:0:0:
233,195,89630,2,0,L|280:184,1,45.4999979171754,8|8,0:3|0:0,0:0:0:0:
363,145,90065,6,0,P|412:141|461:165,2,90.9999958343508,8|0|8,0:3|0:0|0:0,0:0:0:0:
320,256,91369,1,8,0:0:0:0:
320,256,91586,1,8,0:0:0:0:
362,320,91804,2,0,L|407:324,2,45.4999979171754,8|8|8,0:3|0:0|0:3,0:0:0:0:
256,300,92673,2,0,L|166:311,1,90.9999958343508,8|0,0:0|0:0,0:0:0:0:
89,325,93326,1,0,0:0:0:0:
89,325,93543,38,0,P|101:270|134:241,1,90.9999958343508,2|0,0:0|0:0,0:0:0:0:
207,181,94413,2,0,L|192:89,1,90.9999958343508,8|0,0:0|0:0,0:0:0:0:
147,27,95065,1,0,0:0:0:0:
77,60,95282,2,0,L|62:149,1,90.9999958343508,2|0,0:0|0:0,0:0:0:0:
67,227,95934,2,0,P|109:245|157:240,1,90.9999958343508,2|0,0:0|0:0,0:0:0:0:
244,214,96586,2,0,L|249:168,1,45.4999979171754,2|0,0:0|0:0,0:0:0:0:
308,283,97021,6,0,P|353:297|398:292,1,90.9999958343508,8|8,0:0|0:0,0:0:0:0:
458,161,97891,2,0,P|413:147|368:152,1,90.9999958343508,8|8,0:0|0:0,0:0:0:0:
298,271,98760,2,0,L|295:220,1,45.4999979171754,8|0,0:0|0:0,0:0:0:0:
203,313,99195,2,0,L|200:262,1,45.4999979171754,8|0,0:0|0:0,0:0:0:0:
128,198,99630,2,8,L|129:167,2,30.3333319447836,8|8|8,0:0|0:0|0:0,0:0:0:0:
33,157,100065,2,8,L|34:126,2,30.3333319447836,8|8|8,0:0|0:0|0:0,0:0:0:0:
109,92,100500,6,0,P|158:102|224:80,1,97.9999970092774,6|0,0:0|0:0,0:0:0:0:
275,19,101152,2,0,P|324:9|390:31,1,97.9999970092774,2|0,0:0|0:0,0:0:0:0:
441,103,101804,1,2,0:0:0:0:
441,103,102021,1,2,0:0:0:0:
378,233,102239,2,0,P|334:248|275:232,1,97.9999970092774,2|0,0:0|0:0,0:0:0:0:
223,158,102891,2,0,P|179:143|120:159,1,97.9999970092774,2|0,0:0|0:0,0:0:0:0:
58,228,103543,1,0,0:0:0:0:
106,347,103978,6,0,P|164:351|214:331,2,97.9999970092774,8|8|8,0:3|0:3|0:0,0:0:0:0:
171,224,105282,1,0,0:0:0:0:
274,336,105717,2,0,P|316:347|370:337,1,97.9999970092774,2|0,0:0|0:0,0:0:0:0:
420,257,106369,2,0,L|409:152,1,97.9999970092774,2|0,0:0|0:0,0:0:0:0:
360,80,107021,1,2,0:0:0:0:
360,80,107239,1,2,0:0:0:0:
236,98,107456,38,0,P|175:125|120:109,1,97.9999970092774,2|0,0:0|0:0,0:0:0:0:
70,62,108108,2,0,L|54:169,1,97.9999970092774,2|0,0:0|0:0,0:0:0:0:
107,232,108760,1,2,0:0:0:0:
107,232,108978,1,2,0:0:0:0:
128,368,109195,2,0,B|191:389|175:338|265:372,1,97.9999970092774,2|0,0:0|0:0,0:0:0:0:
308,330,109847,2,0,P|296:273|322:233,1,97.9999970092774,2|0,0:0|0:0,0:0:0:0:
400,240,110500,2,0,L|457:245,1,48.9999985046387,2|0,0:0|0:0,0:0:0:0:
505,174,110934,5,2,0:0:0:0:
505,174,111152,1,2,0:0:0:0:
505,174,111369,2,0,P|512:134|507:99,1,48.9999985046387,0|0,0:0|0:0,0:0:0:0:
448,48,111804,2,0,L|332:55,1,97.9999970092774,8|0,0:0|0:0,0:0:0:0:
305,128,112456,2,0,L|189:121,1,97.9999970092774,2|8,0:0|0:0,0:0:0:0:
134,80,113108,1,8,0:3:0:0:
80,216,113543,37,8,0:0:0:0:
80,216,113760,1,8,0:0:0:0:
66,292,113978,2,0,L|77:349,1,48.9999985046387,8|8,0:3|0:0,0:0:0:0:
186,320,114413,22,0,P|237:298|292:306,1,97.9999970092774,6|0,0:0|0:0,0:0:0:0:
345,331,115065,2,0,P|389:350|437:349,1,97.9999970092774,2|0,0:0|0:0,0:0:0:0:
498,307,115716,1,2,0:0:0:0:
498,307,115934,1,2,0:0:0:0:
463,202,116152,2,0,P|416:183|359:188,1,97.9999970092774,2|0,0:0|0:0,0:0:0:0:
312,231,116804,2,0,L|214:220,1,97.9999970092774,2|0,0:0|0:0,0:0:0:0:
152,182,117455,1,2,0:0:0:0:
200,41,117891,6,0,L|202:89,2,48.9999985046387,2|0|2,0:0|0:0|0:0,0:0:0:0:
88,117,118543,1,2,0:0:0:0:
88,117,118760,2,0,P|62:158|57:215,1,97.9999970092774,8|0,0:3|0:0,0:0:0:0:
145,187,119413,2,0,L|243:198,1,97.9999970092774,2|8,0:0|0:0,0:0:0:0:
341,192,120065,1,8,0:3:0:0:
296,271,120282,2,0,P|348:277|402:264,1,97.9999970092774,2|0,0:0|0:0,0:0:0:0:
492,236,120934,2,0,L|500:295,1,48.9999985046387,2|0,0:0|0:0,0:0:0:0:
394,187,121369,38,0,L|407:85,1,97.9999970092774,8|8,0:3|0:3,0:0:0:0:
229,98,122239,2,0,P|278:117|329:114,1,97.9999970092774,8|0,0:0|0:0,0:0:0:0:
245,23,122891,1,0,0:0:0:0:
245,23,123108,2,0,L|140:34,2,97.9999970092774,8|8|8,0:3|0:3|0:0,0:0:0:0:
103,98,124413,1,2,0:0:0:0:
71,200,124630,1,2,0:0:0:0:
162,256,124847,6,0,P|182:293|188:355,2,97.9999970092774,2|8|8,0:0|0:3|0:0,0:0:0:0:
242,173,125934,1,8,0:0:0:0:
242,173,126152,2,0,L|231:237,1,48.9999985046387,8|0,0:3|0:0,0:0:0:0:
294,268,126586,1,4,0:0:0:0:
256,192,126804,12,0,128326,0:0:0:0:
156,214,128760,37,2,0:0:0:0:
116,291,129195,2,0,P|166:297|218:277,1,90.9999958343508,8|8,0:0|0:0,0:0:0:0:
295,232,129847,1,8,0:0:0:0:
295,232,130065,2,0,L|302:288,1,45.4999979171754,8|8,0:3|0:0,0:0:0:0:
385,333,130500,2,0,L|392:277,1,45.4999979171754,8|0,0:3|0:0,0:0:0:0:
401,200,130934,2,0,P|398:151|379:112,1,90.9999958343508,8|0,0:0|0:0,0:0:0:0:
301,59,131586,1,0,0:0:0:0:
301,59,131804,6,0,L|190:49,2,90.9999958343508,8|8|8,0:3|0:3|0:0,0:0:0:0:
321,175,133108,1,8,0:0:0:0:
321,175,133326,1,8,0:0:0:0:
226,245,133543,2,0,L|230:198,1,45.4999979171754,8|8,0:3|0:0,0:0:0:0:
181,129,133978,1,8,0:3:0:0:
101,42,134413,2,0,L|43:46,2,45.4999979171754,8|8|8,0:0|0:0|0:0,0:0:0:0:
182,49,135065,1,0,0:0:0:0:
164,128,135282,6,0,P|144:184|159:244,1,90.9999958343508,4|0,0:0|0:0,0:0:0:0:
311,226,136152,2,0,P|271:189|207:183,1,90.9999958343508,8|0,0:0|0:0,0:0:0:0:
260,306,136804,1,0,0:0:0:0:
260,306,137021,2,0,L|384:321,1,90.9999958343508,8|8,0:3|0:3,0:0:0:0:
414,269,137673,2,0,P|430:222|423:162,1,90.9999958343508,2|0,0:0|0:0,0:0:0:0:
374,124,138326,2,0,L|314:120,1,45.4999979171754,2|0,0:0|0:0,0:0:0:0:
246,160,138760,6,0,B|198:170|206:134|125:162,1,90.9999958343508,8|0,0:3|0:0,0:0:0:0:
33,258,139630,2,0,P|86:242|111:200,1,90.9999958343508,8|0,0:0|0:0,0:0:0:0:
81,144,140282,2,0,P|63:99|75:33,1,90.9999958343508,2|0,0:0|0:0,0:0:0:0:
129,15,140934,2,0,L|239:9,2,90.9999958343508,2|8|0,0:0|0:0|0:0,0:0:0:0:
216,100,142239,38,0,P|276:88|306:45,1,90.9999958343508,8|0,0:3|0:0,0:0:0:0:
407,31,143108,2,0,P|394:85|413:128,1,90.9999958343508,8|0,0:0|0:0,0:0:0:0:
453,180,143760,1,0,0:0:0:0:
453,180,143978,2,0,P|467:236|450:287,1,90.9999958343508,8|8,0:3|0:3,0:0:0:0:
391,305,144630,2,0,L|294:300,1,90.9999958343508,2|0,0:0|0:0,0:0:0:0:
240,253,145282,1,2,0:0:0:0:
120,360,145717,5,2,0:0:0:0:
120,360,145934,1,2,0:0:0:0:
120,360,146152,2,0,L|56:365,1,45.4999979171754,0|0,0:0|0:0,0:0:0:0:
16,312,146586,2,0,B|11:279|11:279|18:254|18:254|12:182,1,90.9999958343508,8|0,0:0|0:0,0:0:0:0:
52,152,147239,1,0,0:0:0:0:
52,152,147456,2,0,B|107:167|97:127|161:146,1,90.9999958343508,8|8,0:3|0:3,0:0:0:0:
240,240,148326,1,8,0:0:0:0:
240,240,148543,1,8,0:0:0:0:
302,285,148760,2,0,L|355:282,1,45.4999979171754,8|0,0:3|0:0,0:0:0:0:
385,202,149195,38,0,P|396:149|381:94,1,90.9999958343508,4|0,0:0|0:0,0:0:0:0:
307,35,150065,2,0,L|183:44,1,90.9999958343508,8|0,0:0|0:0,0:0:0:0:
152,84,150717,2,0,P|92:96|56:140,1,90.9999958343508,2|0,0:0|0:0,0:0:0:0:
56,191,151369,2,0,L|63:251,1,45.4999979171754,2|0,0:0|0:0,0:0:0:0:
109,301,151804,2,0,P|153:300|210:263,1,90.9999958343508,8|0,0:0|0:0,0:0:0:0:
252,226,152456,1,2,0:0:0:0:
252,226,152673,6,0,P|293:208|368:215,1,90.9999958343508,8|0,0:3|0:0,0:0:0:0:
406,256,153326,1,2,0:0:0:0:
406,256,153543,2,0,P|447:274|522:267,1,90.9999958343508,8|0,0:0|0:0,0:0:0:0:
464,202,154195,2,0,L|457:107,1,90.9999958343508,2|0,0:0|0:0,0:0:0:0:
396,66,154847,1,2,0:0:0:0:
396,66,155065,2,0,P|331:88|280:66,1,90.9999958343508,2|2,0:0|0:0,0:0:0:0:
241,18,155717,2,0,L|166:30,1,45.4999979171754,2|0,0:0|0:0,0:0:0:0:
105,95,156152,38,0,P|93:143|102:192,2,90.9999958343508,8|8|8,0:3|0:3|0:0,0:0:0:0:
235,145,157456,2,0,L|170:143,1,45.4999979171754,0|0,0:0|0:0,0:0:0:0:
327,96,157891,2,0,P|339:144|330:193,1,90.9999958343508,8|8,0:3|0:3,0:0:0:0:
279,249,158543,2,0,P|228:257|179:244,1,90.9999958343508,2|0,0:0|0:0,0:0:0:0:
134,173,159195,2,0,L|69:171,1,45.4999979171754,2|0,0:0|0:0,0:0:0:0:
32,240,159630,6,0,P|29:302|48:344,1,90.9999958343508,2|0,0:0|0:0,0:0:0:0:
175,312,160282,2,0,P|134:282|80:282,1,90.9999958343508,2|0,0:0|0:0,0:0:0:0:
38,328,160934,1,2,0:0:0:0:
264,364,161369,2,0,L|365:354,1,90.9999958343508,2|0,0:0|0:0,0:0:0:0:
440,305,162021,2,0,P|443:250|424:209,1,90.9999958343508,2|0,0:0|0:0,0:0:0:0:
365,149,162673,2,0,L|368:91,1,45.4999979171754,2|0,0:0|0:0,0:0:0:0:
297,198,163108,38,0,P|248:206|219:199,1,45.4999979171754,8|0,0:3|0:0,0:0:0:0:
188,108,163543,2,0,P|217:113|257:108,1,45.4999979171754,8|0,0:3|0:0,0:0:0:0:
323,22,163978,2,0,L|209:29,1,90.9999958343508,8|0,0:0|0:0,0:0:0:0:
139,61,164630,1,8,0:3:0:0:
139,61,164847,2,0,L|33:53,2,90.9999958343508,8|8|8,0:3|0:3|0:0,0:0:0:0:
217,184,166152,5,8,0:0:0:0:
217,184,166369,1,8,0:0:0:0:
217,184,166586,22,0,L|329:168,2,90.9999958343508,4|0|8,0:0|0:0|0:0,0:0:0:0:
249,88,167891,1,2,0:0:0:0:
249,88,168108,1,2,0:0:0:0:
368,109,168326,2,0,P|388:147|381:219,1,90.9999958343508,2|0,0:0|0:0,0:0:0:0:
347,284,168978,2,0,L|251:272,1,90.9999958343508,2|0,0:0|0:0,0:0:0:0:
167,289,169630,1,2,0:0:0:0:
167,289,169847,1,2,0:0:0:0:
84,311,170065,38,0,P|57:313|36:309,1,45.4999979171754,2|0,0:0|0:0,0:0:0:0:
61,230,170500,2,0,P|58:207|61:185,1,45.4999979171754,2|0,0:0|0:0,0:0:0:0:
140,206,170934,2,0,P|163:203|185:206,1,45.4999979171754,2|0,0:0|0:0,0:0:0:0:
257,247,171369,1,2,0:0:0:0:
257,247,171586,1,2,0:0:0:0:
348,206,171804,2,0,L|352:104,2,90.9999958343508,8|8|8,0:3|0:3|0:0,0:0:0:0:
373,331,173108,2,0,L|425:331,1,45.4999979171754,2|0,0:0|0:0,0:0:0:0:
484,272,173543,6,0,P|501:310|499:367,2,90.9999958343508,8|8|8,0:3|0:3|0:0,0:0:0:0:
410,197,174847,1,2,0:0:0:0:
410,197,175065,1,2,0:0:0:0:
358,123,175282,2,0,P|405:111|451:122,1,90.9999958343508,2|0,0:0|0:0,0:0:0:0:
346,45,175934,2,0,P|301:53|258:41,1,90.9999958343508,2|0,0:0|0:0,0:0:0:0:
165,8,176586,1,2,0:0:0:0:
165,8,176804,1,2,0:0:0:0:
91,104,177021,38,0,L|1:111,2,90.9999958343508,8|8|8,0:3|0:3|0:0,0:0:0:0:
188,179,178326,1,0,0:0:0:0:
230,261,178760,2,0,P|184:267|139:255,1,90.9999958343508,2|0,0:0|0:0,0:0:0:0:
224,341,179413,2,0,P|268:334|312:344,1,90.9999958343508,2|0,0:0|0:0,0:0:0:0:
419,313,180064,1,2,0:0:0:0:
419,313,180282,1,2,0:0:0:0:
453,209,180500,6,0,L|466:102,2,90.9999958343508,8|8|8,0:0|0:0|0:0,0:0:0:0:
420,313,181804,1,8,0:0:0:0:
318,249,182239,2,0,L|328:195,1,45.4999979171754,8|0,0:0|0:0,0:0:0:0:
224,153,182673,2,0,L|232:197,1,45.4999979171754,8|0,0:0|0:0,0:0:0:0:
165,261,183108,2,0,L|135:285,2,30.3333319447836,8|8|8,0:0|0:0|0:0,0:0:0:0:
100,194,183543,2,0,L|62:188,2,30.3333319447836,8|8|8,0:0|0:0|0:0,0:0:0:0:
178,107,183978,6,0,L|288:114,1,97.9999970092774,6|0,0:0|0:0,0:0:0:0:
356,184,184630,2,0,P|363:243|347:291,1,97.9999970092774,2|0,0:0|0:0,0:0:0:0:
244,329,185282,1,2,0:0:0:0:
244,329,185500,1,2,0:0:0:0:
163,254,185717,2,0,P|114:241|40:259,1,97.9999970092774,2|0,0:0|0:0,0:0:0:0:
24,168,186369,2,0,P|55:106|44:51,1,97.9999970092774,2|0,0:0|0:0,0:0:0:0:
4,13,187021,1,2,0:0:0:0:
136,120,187456,6,0,P|192:109|224:56,1,97.9999970092774,8|8,0:3|0:3,0:0:0:0:
280,168,188326,2,0,P|264:241|293:291,1,97.9999970092774,8|0,0:0|0:0,0:0:0:0:
419,268,189195,2,0,P|432:212|417:167,1,97.9999970092774,2|0,0:0|0:0,0:0:0:0:
347,223,189847,2,0,L|340:353,1,97.9999970092774,2|0,0:0|0:0,0:0:0:0:
270,361,190500,1,2,0:0:0:0:
270,361,190717,1,2,0:0:0:0:
187,297,190934,38,0,P|135:287|69:324,1,97.9999970092774,2|0,0:0|0:0,0:0:0:0:
31,232,191586,2,0,P|53:173|38:114,1,97.9999970092774,2|0,0:0|0:0,0:0:0:0:
14,60,192239,1,2,0:0:0:0:
14,60,192456,1,2,0:0:0:0:
144,105,192673,2,0,P|194:110|255:76,1,97.9999970092774,2|0,0:0|0:0,0:0:0:0:
302,20,193326,2,0,P|356:7|405:18,1,97.9999970092774,2|0,0:0|0:0,0:0:0:0:
462,84,193978,1,2,0:0:0:0:
412,244,194413,6,0,L|358:250,1,48.9999985046387,2|0,0:0|0:0,0:0:0:0:
290,197,194847,2,0,L|216:184,1,48.9999985046387,2|0,0:0|0:0,0:0:0:0:
186,124,195282,2,0,P|180:67|196:16,1,97.9999970092774,8|0,0:0|0:0,0:0:0:0:
285,26,195934,2,0,P|296:78|284:142,1,97.9999970092774,8|8,0:3|0:0,0:0:0:0:
240,188,196586,1,8,0:3:0:0:
45,38,197021,38,0,L|93:40,1,48.9999985046387,8|8,0:0|0:0,0:0:0:0:
172,105,197456,2,0,L|108:110,1,48.9999985046387,8|0,0:3|0:0,0:0:0:0:
80,190,197891,6,0,L|203:180,1,97.9999970092774,6|0,0:0|0:0,0:0:0:0:
275,240,198543,2,0,L|372:248,1,97.9999970092774,2|0,0:0|0:0,0:0:0:0:
459,321,199195,1,2,0:0:0:0:
459,321,199413,1,2,0:0:0:0:
493,214,199630,2,0,P|502:169|500:115,1,97.9999970092774,2|0,0:0|0:0,0:0:0:0:
391,147,200282,2,2,L|293:138,1,97.9999970092774,2|0,0:0|0:0,0:0:0:0:
219,99,200934,1,2,0:0:0:0:
94,220,201369,6,0,P|92:193|87:171,1,48.9999985046387,2|0,0:0|0:0,0:0:0:0:
30,123,201804,1,2,0:0:0:0:
32,270,202021,2,0,P|75:295|133:289,1,97.9999970092774,2|0,0:0|0:0,0:0:0:0:
223,243,202673,1,2,0:0:0:0:
307,315,202891,2,0,P|356:315|403:280,1,97.9999970092774,2|0,0:0|0:0,0:0:0:0:
370,186,203543,1,2,0:0:0:0:
463,132,203760,2,0,P|474:82|476:19,1,97.9999970092774,2|0,0:0|0:0,0:0:0:0:
373,68,204413,1,2,0:0:0:0:
373,68,204630,1,2,0:0:0:0:
286,107,204847,6,0,L|185:100,2,97.9999970092774,8|8|8,0:3|0:3|0:0,0:0:0:0:
373,68,206152,1,2,0:0:0:0:
260,183,206586,2,0,L|159:176,1,97.9999970092774,8|8,0:3|0:3,0:0:0:0:
57,162,207456,2,0,P|42:115|41:66,1,97.9999970092774,8|0,0:0|0:0,0:0:0:0:
127,100,208108,1,2,0:0:0:0:
162,176,208326,38,0,P|176:218|175:287,1,97.9999970092774,2|0,0:0|0:0,0:0:0:0:
116,373,209195,1,8,0:0:0:0:
116,373,209413,1,8,0:0:0:0:
211,351,209630,2,0,L|278:358,1,48.9999985046387,8|0,0:3|0:0,0:0:0:0:
331,288,210065,2,0,P|380:268|433:275,1,97.9999970092774,4|0,0:0|0:0,0:0:0:0:
481,192,210717,1,0,0:0:0:0:
481,192,210934,6,0,L|499:160,2,32.6666656697591,8|8|8,0:0|0:0|0:0,0:0:0:0:
402,118,211369,2,0,L|400:79,2,32.6666656697591,8|8|8,0:0|0:0|0:0,0:0:0:0:
306,154,211804,6,0,P|241:175|163:60,1,224,2|8,0:0|0:0,0:0:0:0:
294,35,213108,2,0,L|363:41,1,56,8|8,0:0|0:0,0:0:0:0:
472,111,213543,2,0,L|402:121,1,56,8|8,0:3|0:0,0:0:0:0:
308,155,213978,1,0,0:0:0:0:
421,266,214413,1,2,0:0:0:0:
290,354,214847,1,2,0:0:0:0:
197,267,215282,6,0,P|126:253|73:297,1,112,8|8,0:3|0:3,0:0:0:0:
148,361,216152,1,8,0:0:0:0:
158,179,216586,2,0,P|115:181|79:198,1,56,8|8,0:0|0:0,0:0:0:0:
197,267,217021,2,0,P|224:273|252:272,1,56,8|8,0:3|0:0,0:0:0:0:
319,199,217456,1,2,0:0:0:0:
400,320,217891,2,0,P|440:328|510:284,1,112,2|2,0:0|0:0,0:0:0:0:
429,207,218760,38,0,P|416:136|457:70,1,112,8|8,0:3|0:3,0:0:0:0:
325,29,219630,1,8,0:0:0:0:
249,122,220065,2,0,L|194:128,1,56,8|8,0:0|0:0,0:0:0:0:
131,62,220500,2,0,L|45:55,1,56,8|8,0:3|0:0,0:0:0:0:
12,122,220934,1,0,0:0:0:0:
193,128,221369,1,2,0:0:0:0:
43,230,221804,1,2,0:0:0:0:
165,344,222239,6,0,P|226:351|285:312,1,112,8|8,0:3|0:3,0:0:0:0:
205,227,223108,1,8,0:0:0:0:
284,134,223543,2,0,L|363:129,1,56,8|8,0:0|0:0,0:0:0:0:
397,192,223978,2,0,L|472:201,1,56,8|8,0:3|0:0,0:0:0:0:
489,103,224413,1,0,0:0:0:0:
336,31,224847,37,8,0:0:0:0:
336,31,225065,1,8,0:0:0:0:
336,31,225282,1,8,0:3:0:0:
180,112,225717,38,0,L|171:235,2,112,8|8|8,0:3|0:3|0:0,0:0:0:0:
294,80,227021,2,0,P|327:80|366:89,1,56,8|8,0:0|0:0,0:0:0:0:
413,154,227456,2,0,P|441:170|470:197,1,56,8|8,0:3|0:0,0:0:0:0:
461,279,227891,1,0,0:0:0:0:
332,260,228326,1,2,0:0:0:0:
332,260,228543,1,2,0:0:0:0:
203,325,228760,2,0,L|258:330,1,56,2|0,0:0|0:0,0:0:0:0:
135,368,229195,38,0,P|130:296|157:256,2,112,8|8|8,0:3|0:3|0:0,0:0:0:0:
228,253,230500,1,8,0:0:0:0:
228,253,230717,1,8,0:0:0:0:
173,176,230934,2,0,L|163:115,2,56,8|8|0,0:3|0:0|0:0,0:0:0:0:
286,133,231804,2,0,P|316:140|354:142,1,56,2|0,0:0|0:0,0:0:0:0:
456,208,232239,2,0,P|426:215|388:217,1,56,2|0,0:0|0:0,0:0:0:0:
224,260,232673,6,0,P|292:275|378:280,1,112,2|2,0:0|0:0,0:0:0:0:
150,221,233543,2,0,P|81:236|-4:241,1,112,2|2,0:0|0:0,0:0:0:0:
239,182,234413,2,0,P|307:197|393:202,1,112,2|2,0:0|0:0,0:0:0:0:
136,142,235283,2,0,P|67:157|-18:162,1,112,2|2,0:0|0:0,0:0:0:0:
127,61,235934,1,8,0:3:0:0:
127,61,236152,38,0,P|157:68|195:70,1,56,8|0,0:0|0:0,0:0:0:0:
266,111,236586,2,0,P|293:108|321:101,1,56,8|0,0:0|0:0,0:0:0:0:
401,157,237021,2,0,P|431:156|461:149,2,56,8|0|8,0:0|0:0|0:0,0:0:0:0:
329,218,237673,1,0,0:0:0:0:
291,304,237891,2,0,P|261:303|231:296,1,56,8|0,0:0|0:0,0:0:0:0:
168,231,238326,1,8,0:0:0:0:
168,231,238543,1,0,0:0:0:0:
86,183,238761,2,0,L|75:264,2,74.6666666666667,8|8|8,0:0|0:0|0:0,0:0:0:0:
206,157,239630,22,0,B|249:140|290:153|290:153|316:136|316:136|355:176|422:152,1,210,2|0,0:0|0:0,0:0:0:0:
488,141,241369,2,0,B|489:109|459:88|459:88|437:114|426:158|436:201|468:243,1,210,2|0,0:0|0:0,0:0:0:0:
499,305,243108,2,0,B|372:321|427:240|292:260,1,210,2|0,0:0|0:0,0:0:0:0:
232,299,244847,1,2,0:0:0:0:
130,57,245717,1,2,0:0:0:0:
29,214,246586,6,0,P|83:230|141:204,1,105,2|0,0:0|0:0,0:0:0:0:
175,161,247456,1,2,0:0:0:0:
217,287,247891,1,2,0:0:0:0:
337,112,248326,2,0,P|292:100|223:124,1,105,2|0,0:0|0:0,0:0:0:0:
175,161,249195,1,2,0:0:0:0:
291,239,249630,1,2,0:0:0:0:
436,162,250065,38,0,L|444:114,2,35,2|2|2,0:0|0:0|0:0,0:0:0:0:
403,226,250717,1,0,0:0:0:0:
403,226,250934,2,0,P|424:271|423:324,1,70,2|0,0:0|0:0,0:0:0:0:
373,364,251586,1,0,0:0:0:0:
373,364,251804,2,0,P|314:376|250:355,1,105,2|0,0:0|0:0,0:0:0:0:
216,292,252673,2,0,P|173:276|97:296,1,105,2|0,0:0|0:0,0:0:0:0:
52,325,253543,5,2,0:0:0:0:
27,160,253978,2,0,L|21:101,1,41.9999987182618,2|0,0:0|0:0,0:0:0:0:
96,115,254413,2,0,L|101:157,1,41.9999987182618,2|0,0:0|0:0,0:0:0:0:
178,158,254847,1,2,0:0:0:0:
330,98,255282,1,2,0:0:0:0:
445,214,255717,2,0,P|451:244|448:273,1,41.9999987182618,2|0,0:0|0:0,0:0:0:0:
371,244,256152,2,0,P|372:275|362:303,1,41.9999987182618,2|0,0:0|0:0,0:0:0:0:
298,265,256586,1,2,0:0:0:0:
197,159,257021,38,0,L|128:163,2,41.9999987182618,2|2|2,0:0|0:0|0:0,0:0:0:0:
261,101,257673,2,0,P|282:163|263:216,1,83.9999974365235,2|0,0:0|0:0,0:0:0:0:
217,238,258326,1,2,0:0:0:0:
269,309,258543,2,0,L|384:296,1,83.9999974365235,2|0,0:0|0:0,0:0:0:0:
432,256,259195,2,0,L|440:208,1,41.9999987182618,2|0,0:0|0:0,0:0:0:0:
328,160,259630,6,0,L|312:104,1,41.9999987182618,8|8,0:3|0:3,0:0:0:0:
377,21,260065,1,8,0:0:0:0:
262,61,260500,22,0,L|164:54,1,90.9999958343508,2|2,0:0|0:0,0:0:0:0:
10,26,261369,2,0,L|100:19,1,90.9999958343508,8|2,0:0|0:0,0:0:0:0:
69,170,262239,1,8,0:3:0:0:
69,170,262456,1,8,0:0:0:0:
38,93,262673,2,0,L|93:89,1,45.4999979171754,8|8,0:3|0:3,0:0:0:0:
155,126,263108,2,0,L|245:132,1,90.9999958343508,8|8,0:0|0:3,0:0:0:0:
334,179,263760,1,8,0:0:0:0:
372,91,263978,38,0,P|421:81|466:84,1,90.9999958343508,8|8,0:3|0:3,0:0:0:0:
428,159,264630,1,8,0:3:0:0:
428,159,264847,2,0,L|429:189,2,30.3333319447836,8|8|8,0:0|0:0|0:0,0:0:0:0:
355,222,265282,2,0,L|353:252,2,30.3333319447836,8|8|8,0:0|0:0|0:0,0:0:0:0:
321,320,265717,2,0,B|356:332|388:319|388:319|432:338|482:317,1,157.500006008148,2|0,0:0|0:0,0:0:0:0:
429,251,267456,6,0,L|423:128,1,97.9999970092774,6|0,0:0|0:0,0:0:0:0:
368,101,268108,1,2,0:0:0:0:
368,101,268326,2,0,P|415:80|466:89,1,97.9999970092774,8|2,0:0|0:0,0:0:0:0:
341,174,268978,1,2,0:0:0:0:
341,174,269195,2,0,P|306:145|291:89,1,97.9999970092774,2|0,0:0|0:0,0:0:0:0:
192,156,269847,1,2,0:0:0:0:
192,156,270065,2,0,L|94:152,1,97.9999970092774,8|0,0:0|0:0,0:0:0:0:
23,26,270934,38,0,L|120:29,2,97.9999970092774,8|8|8,0:3|0:3|0:0,0:0:0:0:
164,86,272239,1,2,0:0:0:0:
226,138,272673,2,0,P|183:163|131:161,1,97.9999970092774,2|2,0:0|0:0,0:0:0:0:
54,210,273326,2,0,L|51:316,1,97.9999970092774,2|0,0:0|0:0,0:0:0:0:
124,365,273978,1,2,0:0:0:0:
124,365,274195,1,2,0:0:0:0:
217,291,274413,6,0,P|270:284|336:288,1,97.9999970092774,6|2,0:0|0:0,0:0:0:0:
399,328,275065,1,2,0:0:0:0:
473,269,275282,2,0,L|477:166,1,97.9999970092774,8|2,0:0|0:0,0:0:0:0:
449,84,275934,1,2,0:0:0:0:
449,84,276152,2,0,P|408:113|346:111,1,97.9999970092774,2|0,0:0|0:0,0:0:0:0:
283,62,276804,2,0,L|183:70,1,97.9999970092774,2|0,0:0|0:0,0:0:0:0:
110,42,277456,1,2,0:0:0:0:
52,121,277891,38,0,P|34:151|28:189,1,48.9999985046387,2|0,0:0|0:0,0:0:0:0:
122,183,278326,2,0,P|140:213|146:251,1,48.9999985046387,2|0,0:0|0:0,0:0:0:0:
34,248,278760,2,0,P|16:278|10:316,1,48.9999985046387,8|0,0:3|0:0,0:0:0:0:
40,364,279195,1,2,0:0:0:0:
40,364,279413,1,2,0:0:0:0:
106,324,279630,2,0,L|155:330,2,48.9999985046387,8|8|8,0:0|0:0|0:3,0:0:0:0:
141,248,280282,1,2,0:0:0:0:
141,248,280500,2,0,L|190:254,1,48.9999985046387,8|8,0:0|0:0,0:0:0:0:
242,321,280934,2,0,L|291:315,1,48.9999985046387,10|10,0:0|0:0,0:0:0:0:
376,258,281369,6,0,P|428:253|485:283,1,97.9999970092774,2|0,0:0|0:0,0:0:0:0:
412,329,282021,1,2,0:0:0:0:
497,201,282239,2,0,L|488:100,1,97.9999970092774,8|2,0:0|0:0,0:0:0:0:
492,20,282891,1,2,0:0:0:0:
388,86,283108,2,0,L|283:76,1,97.9999970092774,2|0,0:0|0:0,0:0:0:0:
235,24,283760,2,0,P|216:63|227:119,1,97.9999970092774,2|0,0:0|0:0,0:0:0:0:
268,183,284413,1,2,0:0:0:0:
229,286,284847,38,0,P|205:285|181:282,2,48.9999985046387,2|2|2,0:0|0:0|0:0,0:0:0:0:
121,210,285500,2,0,P|172:207|223:200,1,97.9999970092774,2|0,0:0|0:0,0:0:0:0:
303,183,286152,1,2,0:0:0:0:
303,183,286370,2,0,P|351:184|400:191,1,97.9999970092774,2|0,0:0|0:0,0:0:0:0:
477,227,287021,1,2,0:0:0:0:
477,227,287239,1,2,0:0:0:0:
492,145,287456,2,0,L|500:96,1,48.9999985046387,8|8,0:0|0:0,0:0:0:0:
411,44,287891,2,0,L|422:97,1,48.9999985046387,8|8,0:3|0:0,0:0:0:0:
329,189,288326,6,0,L|340:92,1,97.9999970092774,4|0,0:0|0:0,0:0:0:0:
231,34,289195,2,0,P|189:48|134:45,1,97.9999970092774,8|0,0:0|0:0,0:0:0:0:
59,18,289847,1,2,0:0:0:0:
10,84,290065,2,0,L|22:190,1,97.9999970092774,8|8,0:3|0:3,0:0:0:0:
89,269,290934,1,8,0:0:0:0:
89,269,291152,1,8,0:0:0:0:
163,222,291369,2,0,L|230:228,1,48.9999985046387,8|0,0:3|0:0,0:0:0:0:
282,180,291804,38,0,P|364:176|417:229,1,146.999995513916,2|0,0:0|0:0,0:0:0:0:
431,292,292673,1,8,0:0:0:0:
431,292,292891,1,8,0:0:0:0:
341,352,293108,2,0,P|290:341|277:342,1,48.9999985046387,8|0,0:3|0:0,0:0:0:0:
218,348,293543,5,2,0:0:0:0:
256,192,293760,12,0,298108,0:0:0:0:
113,117,298326,21,2,0:0:0:0:
113,117,298543,1,2,0:0:0:0:
113,117,298760,2,0,P|101:162|105:185,1,52.5000020027161,2|2,0:0|0:0,0:0:0:0:
152,222,299413,2,0,P|176:224|209:214,1,52.5000020027161,2|0,0:0|0:0,0:0:0:0:
261,166,300065,2,0,L|298:171,1,26.2500010013581,2|2,0:0|0:0,0:0:0:0:
341,220,300500,2,0,P|382:220|412:211,1,52.5000020027161,2|2,0:0|0:0,0:0:0:0:
460,246,301152,2,0,P|468:289|468:318,1,52.5000020027161,2|0,0:0|0:0,0:0:0:0:
416,350,301804,2,0,L|369:352,1,26.2500010013581,2|2,0:0|0:0,0:0:0:0:
326,316,302239,37,2,0:0:0:0:
212,355,302673,1,2,0:0:0:0:
130,275,303108,1,2,0:0:0:0:
38,337,303543,1,2,0:0:0:0:
5,232,303978,2,0,P|2:193|10:161,1,52.5000020027161,2|2,0:0|0:0,0:0:0:0:
36,64,304847,2,0,P|40:104|34:128,1,52.5000020027161,2|2,0:0|0:0,0:0:0:0:
109,193,305717,6,0,P|142:181|177:184,1,52.5000020027161,2|2,0:0|0:0,0:0:0:0:
220,213,306369,2,0,P|258:217|291:211,1,52.5000020027161,2|0,0:0|0:0,0:0:0:0:
340,178,307021,1,2,0:0:0:0:
415,258,307456,2,0,P|416:288|410:322,1,52.5000020027161,0|2,0:0|0:0,0:0:0:0:
357,358,308108,2,0,P|326:368|290:369,1,52.5000020027161,2|0,0:0|0:0,0:0:0:0:
236,328,308815,1,2,0:0:0:0:
133,370,309269,37,2,0:0:0:0:
69,300,309713,1,2,0:0:0:0:
100,203,310185,2,0,P|110:147|98:112,1,70,2|2,0:0|0:0,0:0:0:0:
51,46,311180,2,0,P|102:53|133:42,1,70,2|2,0:0|0:0,0:0:0:0:
205,110,312356,1,2,0:0:0:0:
297,33,313113,1,2,0:0:0:0:
367,71,314203,6,0,L|383:69,2,8.75,2|2|2,0:0|0:0|0:0,0:0:0:0:
256,192,314476,12,0,318839,0:0:0:0:
