osu file format v14

[General]
AudioFilename: audio.mp3
AudioLeadIn: 0
PreviewTime: -1
Countdown: 0
SampleSet: Normal
StackLeniency: 0.4
Mode: 0
LetterboxInBreaks: 0
WidescreenStoryboard: 0

[Editor]
DistanceSpacing: 0.8
BeatDivisor: 8
GridSize: 8
TimelineZoom: 2.999999

[Metadata]
Title:Eyecatch! Too Much!
TitleUnicode:Eyecatch! Too Much!
Artist:HANA MIYAKOSHI
ArtistUnicode:宮越華(CV:戸松 遥)
Creator:Tralen
Version:Insane
Source:WWW.Working!!
Tags:opening tv size fimoree wagnaria
BeatmapID:1128682
BeatmapSetID:532686

[Difficulty]
HPDrainRate:7
CircleSize:4
OverallDifficulty:7
ApproachRate:9.1
SliderMultiplier:1.8
SliderTickRate:1

[Events]
//Background and Video events
Video,2047,"Op.mp4"
0,0,"Daisuke-Higashida-PV-1000x600.jpg",0,0
//Break Periods
2,30230,31451
//Storyboard Layer 0 (Background)
//Storyboard Layer 1 (Fail)
//Storyboard Layer 2 (Pass)
//Storyboard Layer 3 (Foreground)
//Storyboard Layer 4 (Overlay)
//Storyboard Sound Samples

[TimingPoints]
2030,500,4,1,1,60,1,0
8030,-76.9230769230769,4,1,1,60,0,0
58030,-62.5,4,1,1,60,0,0
58530,-55.5555555555556,4,1,1,60,0,0
60030,-76.9230769230769,4,1,1,60,0,1
77030,-199.004975124378,4,1,1,60,0,0
77780,-76.9230769230769,4,1,1,60,0,0

[HitObjects]
48,112,2030,6,8,L|100:112,1,45,8|0,0:0|0:0,0:0:0:0:
164,248,2405,2,0,L|124:292,1,45,0|0,0:0|0:0,0:0:0:0:
172,120,3030,2,8,L|184:172,1,45,8|0,0:0|0:0,0:0:0:0:
328,144,3405,2,0,P|340:116|352:84,1,45,0|0,0:0|0:0,0:0:0:0:
440,308,4030,2,8,L|396:336,1,45,8|0,0:0|0:0,0:0:0:0:
140,280,4530,6,8,L|200:288,1,45,8|0,0:0|0:0,0:0:0:0:
224,68,5029,1,8,0:0:0:0:
372,172,5280,1,2,0:0:0:0:
136,168,5529,1,8,0:0:0:0:
280,268,5780,1,2,0:0:0:0:
417,255,6030,5,8,0:0:0:0:
372,172,6196,2,0,P|339:105|333:73,1,90
215,241,6696,1,0,0:0:0:0:
180,75,6946,2,0,L|173:45,1,30
215,241,7280,5,0,0:0:0:0:
380,173,7530,1,8,0:0:0:0:
248,62,7780,1,2,0:0:0:0:
140,96,8030,6,0,B|81:168,1,58.4999973220826,8|0,0:0|0:0,0:0:0:0:
135,248,8280,2,0,B|172:202,1,58.4999973220826,2|0,0:0|0:0,0:0:0:0:
309,133,8530,2,0,B|250:205,1,58.4999973220826,8|0,0:0|0:0,0:0:0:0:
210,107,8780,2,0,B|247:61,1,58.4999973220826,2|0,0:0|0:0,0:0:0:0:
140,96,9030,2,0,P|92:171|97:221,1,116.999994644165,2|2,0:0|0:0,0:0:0:0:
398,140,9530,1,8,0:0:0:0:
398,140,9780,2,0,L|390:204,1,58.4999973220826,2|0,0:0|0:0,0:0:0:0:
480,97,10030,6,0,L|488:39,1,58.4999973220826,8|0,0:0|0:0,0:0:0:0:
398,140,10280,2,0,L|390:204,1,58.4999973220826,2|0,0:0|0:0,0:0:0:0:
302,256,10530,2,0,L|309:197,1,58.4999973220826,8|0,0:0|0:0,0:0:0:0:
246,112,10780,2,0,L|238:176,1,58.4999973220826,2|0,0:0|0:0,0:0:0:0:
148,226,11030,2,0,P|131:160|141:104,1,116.999994644165,8|2,0:0|0:0,0:0:0:0:
308,197,11530,2,0,P|314:139|297:83,1,116.999994644165,8|2,0:0|0:0,0:0:0:0:
138,112,12030,1,8,0:0:0:0:
105,296,12280,1,2,0:0:0:0:
9,131,12530,2,0,L|89:112,1,58.4999973220826,8|0,0:0|0:0,0:0:0:0:
224,76,12780,2,8,L|165:81,1,58.4999973220826,2|0,0:0|0:0,0:0:0:0:
280,144,13030,6,0,L|352:160,1,58.4999973220826,8|0,0:0|0:0,0:0:0:0:
196,260,13280,2,0,L|152:300,1,58.4999973220826,2|0,0:0|0:0,0:0:0:0:
320,244,13530,2,0,L|376:288,1,58.4999973220826,8|0,0:0|0:0,0:0:0:0:
252,328,13780,2,0,L|208:376,1,58.4999973220826,2|0,0:0|0:0,0:0:0:0:
396,308,14030,5,8,0:0:0:0:
384,208,14280,2,2,L|420:156,1,58.4999973220826,2|0,0:0|0:0,0:0:0:0:
256,160,14530,1,8,0:0:0:0:
160,212,14780,2,2,L|116:148,1,58.4999973220826,0|0,0:0|0:0,0:0:0:0:
104,300,15030,1,8,0:0:0:0:
72,152,15280,2,2,L|8:152,1,58.4999973220826,2|0,0:0|0:0,0:0:0:0:
8,72,15530,5,8,0:0:0:0:
44,58,15613,1,8,0:0:0:0:
83,59,15696,1,8,0:0:0:0:
122,62,15780,1,8,0:0:0:0:
159,52,15863,1,8,0:0:0:0:
192,30,15946,1,8,0:0:0:0:
220,44,16030,6,8,P|280:28|280:28,1,58.4999973220826,8|0,0:0|0:0,0:0:0:0:
424,84,16280,2,0,L|352:108,1,58.4999973220826,2|0,0:0|0:0,0:0:0:0:
216,160,16530,2,8,L|293:200,1,58.4999973220826,8|0,0:0|0:0,0:0:0:0:
432,244,16780,2,0,L|364:272,1,58.4999973220826,2|0,0:0|0:0,0:0:0:0:
236,304,17030,2,0,P|305:340|359:337,1,116.999994644165,8|2,0:0|0:0,0:0:0:0:
384,147,17530,1,0,0:0:0:0:
384,147,17780,2,0,L|395:213,1,58.4999973220826,2|0,0:0|0:0,0:0:0:0:
488,48,18030,6,8,P|480:96|452:136,1,58.4999973220826,8|2,0:0|0:0,0:0:0:0:
328,152,18280,2,0,P|284:104|280:92,1,58.4999973220826,2|0,0:0|0:0,0:0:0:0:
460,140,18530,2,0,P|488:204|484:240,1,58.4999973220826,8|0,0:0|0:0,0:0:0:0:
368,256,18780,2,2,P|332:256|280:208,1,58.4999973220826,2|0,0:0|0:0,0:0:0:0:
236,176,19030,2,8,P|200:172|128:216,1,116.999994644165,0|2,0:0|0:0,0:0:0:0:
52,168,19405,2,0,L|8:112,1,58.4999973220826,0|8,0:0|0:0,0:0:0:0:
85,64,19655,2,0,P|99:38|128:22,1,58.4999973220826
212,228,20030,5,8,0:0:0:0:
400,140,20280,1,0,0:0:0:0:
204,34,20530,1,0,0:0:0:0:
142,146,20696,5,8,0:0:0:0:
130,175,20780,1,8,0:0:0:0:
118,203,20863,1,8,0:0:0:0:
102,229,20946,1,8,0:0:0:0:
81,252,21030,1,8,0:0:0:0:
205,209,21280,1,2,0:0:0:0:
267,293,21530,5,8,0:0:0:0:
298,278,21613,1,8,0:0:0:0:
318,250,21696,1,8,0:0:0:0:
333,219,21779,1,8,0:0:0:0:
340,185,21863,1,8,0:0:0:0:
335,151,21946,1,8,0:0:0:0:
324,117,22030,1,8,0:0:0:0:
205,209,22196,5,8,0:0:0:0:
205,209,22280,2,0,P|153:161|155:103,1,116.999994644165,2|8,0:0|0:0,0:0:0:0:
338,39,22696,1,8,0:0:0:0:
338,39,22780,2,0,P|394:81|401:134,1,116.999994644165,2|8,0:0|0:0,0:0:0:0:
336,320,23196,1,8,0:0:0:0:
336,320,23280,2,0,P|270:340|216:310,1,116.999994644165,2|8,0:0|0:0,0:0:0:0:
150,117,23696,1,8,0:0:0:0:
150,117,23780,2,0,L|218:81,1,38.9999982147218,2|0,0:0|0:0,0:0:0:0:
392,39,24030,5,8,0:0:0:0:
335,200,24196,1,0,0:0:0:0:
335,200,24280,1,2,0:0:0:0:
150,117,24446,1,0,0:0:0:0:
150,117,24530,1,2,0:0:0:0:
304,41,24696,1,0,0:0:0:0:
304,41,24780,1,2,0:0:0:0:
290,293,24946,1,0,0:0:0:0:
290,293,25030,2,8,P|392:277|401:134,1,233.999989288331
76,196,26030,2,0,L|108:286,1,77.9999964294435,8|2,0:0|0:0,0:0:0:0:
128,128,26446,1,8,0:0:0:0:
212,48,26696,1,2,0:0:0:0:
324,84,26946,1,8,0:0:0:0:
392,124,27030,6,0,L|435:220,1,77.9999964294435,10|0,0:0|0:0,0:0:0:0:
452,112,27446,1,8,0:0:0:0:
360,40,27696,1,2,0:0:0:0:
255,48,27946,1,8,0:0:0:0:
255,48,28030,1,2,0:0:0:0:
184,112,28196,5,8,0:0:0:0:
177,151,28280,1,8,0:0:0:0:
182,189,28363,1,8,0:0:0:0:
199,224,28446,1,8,0:0:0:0:
226,253,28529,1,8,0:0:0:0:
321,258,28696,5,8,0:0:0:0:
347,241,28779,1,8,0:0:0:0:
367,208,28862,1,8,0:0:0:0:
374,168,28945,1,8,0:0:0:0:
367,129,29029,1,8,0:0:0:0:
204,72,29280,5,2,0:0:0:0:
96,212,29530,1,0,0:0:0:0:
388,328,30030,1,8,0:0:0:0:
44,108,34029,5,8,0:0:0:0:
196,280,34279,1,2,0:0:0:0:
308,100,34530,1,8,0:0:0:0:
120,196,34780,1,2,0:0:0:0:
212,68,34905,2,0,L|261:8,1,58.4999973220826,8|0,0:0|0:0,0:0:0:0:
308,100,35155,2,0,L|246:177,1,58.4999973220826,8|0,0:0|0:0,0:0:0:0:
192,252,35404,1,2,0:0:0:0:
192,252,35529,1,8,0:0:0:0:
32,116,35780,1,10,0:0:0:0:
224,32,36030,5,8,0:0:0:0:
300,228,36280,1,2,0:0:0:0:
224,32,36530,1,8,0:0:0:0:
300,228,36780,2,0,P|327:220|347:199,2,58.4999973220826,2|0|8,0:0|0:0|0:0,0:0:0:0:
96,280,37196,2,0,P|64:272|40:252,2,38.9999982147218,0|2|0,0:0|0:0|0:0,0:0:0:0:
296,304,37530,1,8,0:0:0:0:
156,144,37780,1,2,0:0:0:0:
350,62,38030,2,0,L|418:34,1,58.4999973220826,8|0,0:0|0:0,0:0:0:0:
72,336,39780,2,2,L|72:268,1,58.4999973220826,2|0,0:0|0:0,0:0:0:0:
55,246,40030,5,8,0:0:0:0:
36,223,40155,1,0,0:0:0:0:
21,147,40405,1,0,0:0:0:0:
38,123,40530,1,8,0:0:0:0:
106,82,40780,5,2,0:0:0:0:
106,82,40905,2,0,B|115:49|115:49|210:64,1,116.999994644165
335,138,41280,2,0,P|293:170|219:182,1,116.999994644165,2|8,0:0|0:0,0:0:0:0:
41,221,41780,1,2,0:0:0:0:
41,221,42030,5,8,0:0:0:0:
80,12,42280,1,2,0:0:0:0:
264,116,42530,1,8,0:0:0:0:
68,192,42780,1,2,0:0:0:0:
320,164,42905,2,0,L|386:150,1,58.4999973220826,0|0,0:0|0:0,0:0:0:0:
340,64,43155,2,0,L|266:78,1,58.4999973220826,0|0,0:0|0:0,0:0:0:0:
82,121,43405,1,0,0:0:0:0:
82,121,43530,1,8,0:0:0:0:
217,236,43780,5,2,0:0:0:0:
428,260,44030,1,8,0:0:0:0:
174,154,44280,1,2,0:0:0:0:
289,305,44530,1,0,0:0:0:0:
342,99,44780,1,0,0:0:0:0:
342,99,44905,1,0,0:0:0:0:
362,245,45196,1,0,0:0:0:0:
362,245,45280,2,0,L|316:295,1,58.4999973220826,0|0,0:0|0:0,0:0:0:0:
125,320,45530,5,8,0:0:0:0:
131,285,45613,1,0,0:0:0:0:
147,254,45696,1,0,0:0:0:0:
169,226,45780,2,2,P|190:203|239:173,1,58.4999973220826,2|0,0:0|0:0,0:0:0:0:
26,140,46030,5,8,0:0:0:0:
238,147,46280,1,2,0:0:0:0:
143,61,46530,1,0,0:0:0:0:
143,61,46780,1,0,0:0:0:0:
89,252,47030,5,8,0:0:0:0:
262,9,47405,1,0,0:0:0:0:
438,176,47655,1,0,0:0:0:0:
196,84,47905,1,8,0:0:0:0:
196,84,48030,5,8,0:0:0:0:
366,262,48280,1,2,0:0:0:0:
193,212,48530,5,0,0:0:0:0:
193,212,48780,1,0,0:0:0:0:
128,161,49030,5,0,0:0:0:0:
133,138,49113,1,0,0:0:0:0:
143,117,49196,1,0,0:0:0:0:
156,97,49280,1,0,0:0:0:0:
172,80,49363,1,0,0:0:0:0:
191,67,49446,1,0,0:0:0:0:
212,56,49530,1,0,0:0:0:0:
235,49,49613,1,0,0:0:0:0:
258,46,49696,1,0,0:0:0:0:
281,45,49780,1,0,0:0:0:0:
179,220,50030,5,8,0:0:0:0:
400,108,50280,1,2,0:0:0:0:
93,248,50530,5,8,0:0:0:0:
107,270,50613,1,8,0:0:0:0:
127,290,50696,1,8,0:0:0:0:
149,305,50780,1,8,0:0:0:0:
174,316,50863,1,8,0:0:0:0:
200,322,50946,1,8,0:0:0:0:
228,323,51030,1,8,0:0:0:0:
388,218,51280,1,0,0:0:0:0:
388,218,51446,6,0,L|429:148,1,77.9999964294435,2|0,0:0|0:0,0:0:0:0:
358,29,51696,2,0,P|325:79|257:102,1,116.999994644165,2|0,0:0|0:0,0:0:0:0:
173,129,52030,6,0,B|141:153|147:208,1,77.9999964294435,8|0,0:0|0:0,0:0:0:0:
224,240,52280,2,0,P|276:204|283:162,1,77.9999964294435,2|0,0:0|0:0,0:0:0:0:
274,101,52530,2,0,P|202:113|173:139,1,77.9999964294435,8|0,0:0|0:0,0:0:0:0:
146,198,52780,1,2,0:0:0:0:
162,238,52863,1,0,0:0:0:0:
202,258,52946,1,0,0:0:0:0:
303,294,53030,6,0,P|352:238|361:210,1,77.9999964294435,8|0,0:0|0:0,0:0:0:0:
384,121,53280,2,0,P|355:49|324:30,1,77.9999964294435,2|0,0:0|0:0,0:0:0:0:
216,22,53530,2,0,P|186:53|139:72,1,77.9999964294435,8|0,0:0|0:0,0:0:0:0:
44,137,53780,1,2,0:0:0:0:
60,176,53863,1,0,0:0:0:0:
97,195,53946,1,0,0:0:0:0:
150,217,54030,2,0,L|239:185,1,77.9999964294435,8|0,0:0|0:0,0:0:0:0:
301,90,54280,2,0,L|223:118,1,77.9999964294435,2|8,0:0|0:0,0:0:0:0:
327,180,54530,2,0,L|414:205,1,77.9999964294435,8|0,0:0|0:0,0:0:0:0:
434,223,54780,5,2,0:0:0:0:
446,259,54863,1,0,0:0:0:0:
447,297,54946,1,0,0:0:0:0:
435,334,55030,1,8,0:0:0:0:
314,108,55280,1,2,0:0:0:0:
272,337,55530,1,8,0:0:0:0:
254,193,55696,1,0,0:0:0:0:
238,156,55780,1,2,0:0:0:0:
211,127,55863,1,0,0:0:0:0:
176,108,55946,1,0,0:0:0:0:
133,119,56030,6,0,P|85:151|72:193,1,77.9999964294435,8|0,0:0|0:0,0:0:0:0:
164,280,56280,2,0,P|224:248|239:213,1,77.9999964294435,2|0,0:0|0:0,0:0:0:0:
191,35,56530,2,0,P|139:39|94:72,1,77.9999964294435,8|0,0:0|0:0,0:0:0:0:
69,191,56780,1,2,0:0:0:0:
67,232,56863,1,0,0:0:0:0:
76,277,56946,1,0,0:0:0:0:
151,354,57030,6,0,P|195:354|248:317,1,77.9999964294435,8|0,0:0|0:0,0:0:0:0:
353,116,57280,2,2,P|297:92|245:90,1,77.9999964294435,2|0,0:0|0:0,0:0:0:0:
140,183,57530,2,0,P|172:243|212:258,1,77.9999964294435,8|0,0:0|0:0,0:0:0:0:
384,222,57780,1,0,0:0:0:0:
405,200,57863,1,0,0:0:0:0:
415,170,57946,1,0,0:0:0:0:
240,32,58030,6,8,L|183:93,1,72,2|0,0:0|0:0,0:0:0:0:
128,299,58280,2,0,L|200:223,1,72,2|0,0:0|0:0,0:0:0:0:
372,35,58530,1,8,0:0:0:0:
304,277,58696,2,0,L|287:311,2,26.9999991760254
430,94,58946,2,0,L|477:22,1,53.9999983520508,2|0,0:0|0:0,0:0:0:0:
445,229,59280,5,2,0:0:0:0:
276,31,59530,1,8,0:0:0:0:
56,168,59780,1,2,0:0:0:0:
204,332,60030,6,0,L|248:288,1,58.4999973220826,8|0,0:0|0:0,0:0:0:0:
319,151,60280,2,0,L|277:192,1,58.4999973220826,2|0,0:0|0:0,0:0:0:0:
153,226,60530,2,0,L|194:184,1,58.4999973220826,8|0,0:0|0:0,0:0:0:0:
215,57,60780,2,0,L|171:109,1,58.4999973220826,2|0,0:0|0:0,0:0:0:0:
319,151,61030,2,0,P|339:215|340:276,1,116.999994644165,8|2,0:0|0:0,0:0:0:0:
145,150,61530,1,2,0:0:0:0:
145,150,61780,2,0,L|189:81,1,58.4999973220826,2|0,0:0|0:0,0:0:0:0:
264,112,62030,6,0,L|220:168,1,58.4999973220826,8|0,0:0|0:0,0:0:0:0:
242,286,62280,2,0,L|298:210,1,58.4999973220826,2|0,0:0|0:0,0:0:0:0:
389,176,62530,2,0,L|345:232,1,58.4999973220826,8|0,0:0|0:0,0:0:0:0:
242,286,62780,2,0,L|174:286,1,58.4999973220826,2|0,0:0|0:0,0:0:0:0:
320,336,63030,2,0,P|394:344|446:312,1,116.999994644165,8|2,0:0|0:0,0:0:0:0:
337,99,63530,2,0,P|297:155|305:203,1,116.999994644165,10|0,0:0|0:0,0:0:0:0:
468,184,64030,5,8,0:0:0:0:
222,261,64280,1,2,0:0:0:0:
471,323,64530,2,8,P|419:375|363:383,1,116.999994644165,8|2,0:0|0:0,0:0:0:0:
125,330,65030,1,8,0:0:0:0:
358,224,65279,1,2,0:0:0:0:
104,173,65530,1,8,0:0:0:0:
318,68,65780,1,2,0:0:0:0:
318,68,66030,5,8,0:0:0:0:
388,41,66196,1,8,0:0:0:0:
388,41,66280,2,0,L|443:29,1,38.9999982147218,2|0,0:0|0:0,0:0:0:0:
180,191,66530,1,8,0:0:0:0:
112,204,66696,1,8,0:0:0:0:
112,204,66780,2,0,L|57:216,1,38.9999982147218,2|0,0:0|0:0,0:0:0:0:
60,48,67030,1,8,0:0:0:0:
154,84,67196,1,8,0:0:0:0:
154,84,67280,2,0,L|194:58,1,38.9999982147218
232,40,67530,5,8,0:0:0:0:
270,36,67613,1,8,0:0:0:0:
308,43,67696,1,8,0:0:0:0:
343,61,67779,1,8,0:0:0:0:
371,88,67863,1,8,0:0:0:0:
390,121,67946,1,8,0:0:0:0:
412,148,68030,6,8,L|452:208,1,58.4999973220826,8|0,0:0|0:0,0:0:0:0:
364,280,68280,2,0,L|284:308,1,58.4999973220826,2|0,0:0|0:0,0:0:0:0:
216,232,68530,2,0,L|288:212,1,58.4999973220826,8|0,0:0|0:0,0:0:0:0:
192,136,68780,2,0,L|124:156,1,58.4999973220826,2|0,0:0|0:0,0:0:0:0:
40,88,69030,2,0,P|146:62|182:68,1,116.999994644165
391,156,69530,1,8,0:0:0:0:
391,156,69780,2,0,L|335:197,1,58.4999973220826,2|0,0:0|0:0,0:0:0:0:
224,106,70030,6,0,L|271:71,1,58.4999973220826,8|0,0:0|0:0,0:0:0:0:
391,156,70280,2,0,L|335:197,1,58.4999973220826,2|0,0:0|0:0,0:0:0:0:
276,320,70530,2,0,L|336:272,1,58.4999973220826,8|0,0:0|0:0,0:0:0:0:
468,268,70780,2,0,L|400:316,1,58.4999973220826,2|0,0:0|0:0,0:0:0:0:
397,156,71030,2,0,P|368:68|337:52,1,116.999994644165,8|2,0:0|0:0,0:0:0:0:
305,196,71405,2,0,P|240:116|246:77,1,116.999994644165,8|8,0:0|0:0,0:0:0:0:
189,242,71779,5,2,0:0:0:0:
468,327,72029,1,8,0:0:0:0:
299,86,72280,1,2,0:0:0:0:
299,86,72530,1,8,0:0:0:0:
176,232,72780,2,2,P|240:228|260:188,1,58.4999973220826,0|0,0:0|0:0,0:0:0:0:
304,192,73030,1,8,0:0:0:0:
408,260,73280,1,2,0:0:0:0:
464,144,73530,5,8,0:0:0:0:
448,108,73613,1,8,0:0:0:0:
420,80,73696,1,8,0:0:0:0:
388,56,73780,1,8,0:0:0:0:
352,40,73863,1,8,0:0:0:0:
312,36,73946,1,8,0:0:0:0:
274,47,74030,1,8,0:0:0:0:
112,171,74196,1,8,0:0:0:0:
112,171,74280,6,0,L|179:127,1,58.4999973220826,2|0,0:0|0:0,0:0:0:0:
173,196,74530,1,8,0:0:0:0:
435,220,74696,1,8,0:0:0:0:
435,220,74780,2,0,L|381:171,1,58.4999973220826,2|0,0:0|0:0,0:0:0:0:
441,150,75030,1,8,0:0:0:0:
264,324,75196,1,8,0:0:0:0:
264,324,75280,2,0,L|288:255,1,58.4999973220826,2|0,0:0|0:0,0:0:0:0:
227,286,75530,1,8,0:0:0:0:
272,57,75696,1,8,0:0:0:0:
272,57,75780,2,0,L|285:15,1,38.9999982147218,2|0,0:0|0:0,0:0:0:0:
455,248,76030,5,2,0:0:0:0:
227,198,76196,1,8,0:0:0:0:
227,198,76280,1,2,0:0:0:0:
293,356,76446,1,8,0:0:0:0:
293,356,76530,1,2,0:0:0:0:
406,178,76696,1,8,0:0:0:0:
406,178,76780,1,10,0:0:0:0:
258,120,76946,1,8,0:0:0:0:
258,120,77030,6,0,B|209:99,1,52.762500201273,10|2,0:0|0:0,0:0:0:0:
88,312,77530,1,8,0:0:0:0:
88,100,77781,1,2,0:0:0:0:
384,104,78030,6,8,L|336:188,1,58.4999973220826,8|0,0:0|0:0,0:0:0:0:
416,248,78280,2,8,L|445:197,1,58.4999973220826,2|0,0:0|0:0,0:0:0:0:
464,315,78530,2,0,L|392:359,1,58.4999973220826,8|0,0:0|0:0,0:0:0:0:
292,292,78780,2,0,L|368:244,1,58.4999973220826,2|0,0:0|0:0,0:0:0:0:
445,197,79030,2,0,P|481:129|459:80,1,116.999994644165,8|0,0:0|0:0,0:0:0:0:
348,86,79530,2,0,P|286:85|227:46,1,116.999994644165,8|2,0:0|0:0,0:0:0:0:
130,224,80030,6,0,L|54:268,1,58.4999973220826,8|0,0:0|0:0,0:0:0:0:
74,348,80280,2,0,L|162:296,1,58.4999973220826,2|0,0:0|0:0,0:0:0:0:
242,171,80530,2,0,L|242:75,1,58.4999973220826,8|0,0:0|0:0,0:0:0:0:
313,244,80780,2,0,L|313:302,1,58.4999973220826,2|0,0:0|0:0,0:0:0:0:
101,280,81030,2,0,P|40:233|24:194,1,116.999994644165,8|2,0:0|0:0,0:0:0:0:
135,185,81405,2,0,P|196:231|212:271,1,116.999994644165,8|8,0:0|0:0,0:0:0:0:
388,255,81780,6,0,L|442:308,1,58.4999973220826,2|0,0:0|0:0,0:0:0:0:
228,362,82030,1,8,0:0:0:0:
316,157,82280,2,0,L|341:88,1,58.4999973220826,2|0,0:0|0:0,0:0:0:0:
326,31,82530,1,8,0:0:0:0:
326,31,82655,1,0,0:0:0:0:
209,206,82780,2,0,L|197:133,1,58.4999973220826,2|0,0:0|0:0,0:0:0:0:
117,256,83030,1,8,0:0:0:0:
164,36,83280,6,2,P|216:24|260:32,1,58.4999973220826,2|0,0:0|0:0,0:0:0:0:
280,28,83530,1,8,0:0:0:0:
316,44,83613,1,8,0:0:0:0:
344,72,83696,1,8,0:0:0:0:
368,104,83780,1,8,0:0:0:0:
384,140,83863,1,8,0:0:0:0:
364,216,84029,5,8,0:0:0:0:
294,343,84196,1,8,0:0:0:0:
294,343,84280,2,0,L|337:373,1,38.9999982147218,2|0,0:0|0:0,0:0:0:0:
220,166,84530,1,8,0:0:0:0:
108,291,84696,1,8,0:0:0:0:
108,291,84780,2,0,L|65:256,1,38.9999982147218,2|0,0:0|0:0,0:0:0:0:
53,114,85030,1,8,0:0:0:0:
302,217,85196,5,8,0:0:0:0:
302,217,85280,2,2,L|261:157,1,38.9999982147218,2|0,0:0|0:0,0:0:0:0:
343,26,85530,1,8,0:0:0:0:
512,146,85696,1,8,0:0:0:0:
512,146,85780,2,0,L|461:100,1,38.9999982147218,2|0,0:0|0:0,0:0:0:0:
416,304,86030,6,8,L|496:304,1,58.4999973220826,8|0,0:0|0:0,0:0:0:0:
272,180,86280,2,2,L|200:180,1,58.4999973220826,2|0,0:0|0:0,0:0:0:0:
424,112,86530,2,8,L|500:112,1,58.4999973220826,8|0,0:0|0:0,0:0:0:0:
276,36,86780,2,2,L|200:36,1,58.4999973220826,2|0,0:0|0:0,0:0:0:0:
292,224,87030,5,8,0:0:0:0:
108,140,87279,1,2,0:0:0:0:
172,320,87529,1,8,0:0:0:0:
125,78,87779,1,2,0:0:0:0:
112,44,88029,5,8,0:0:0:0:
112,44,88154,1,2,0:0:0:0:
368,112,88405,1,8,0:0:0:0:
368,112,88530,1,2,0:0:0:0:
108,216,88780,1,8,0:0:0:0:
108,216,88905,1,2,0:0:0:0:
360,280,89155,1,8,0:0:0:0:
360,280,89280,1,2,0:0:0:0:
244,348,89530,1,8,0:0:0:0:
371,165,89780,1,2,0:0:0:0:
164,221,90030,2,0,P|132:157|121:121,1,58.4999973220826,0|0,0:0|0:0,0:0:0:0:
