osu file format v14

[General]
AudioFilename: audio.mp3
AudioLeadIn: 0
PreviewTime: -1
Countdown: 0
SampleSet: Normal
StackLeniency: 0.2
Mode: 0
LetterboxInBreaks: 0
WidescreenStoryboard: 1

[Editor]
DistanceSpacing: 1.4
BeatDivisor: 4
GridSize: 8
TimelineZoom: 2.1

[Metadata]
Title:Eyecatch! Too Much!
TitleUnicode:Eyecatch! Too Much!
Artist:HANA MIYAKOSHI
ArtistUnicode:宮越華(CV:戸松 遥)
Creator:Tralen
Version:Hard
Source:WWW.Working!!
Tags:opening tv size fimoree wagnaria
BeatmapID:1129521
BeatmapSetID:532686

[Difficulty]
HPDrainRate:5.5
CircleSize:4
OverallDifficulty:6
ApproachRate:7.5
SliderMultiplier:1.6
SliderTickRate:1

[Events]
//Background and Video events
Video,2047,"Op.mp4"
0,0,"Kisaki-Kondo-pv-1000x600.jpg",0,0
//Break Periods
2,30230,33205
2,78230,82705
//Storyboard Layer 0 (Background)
//Storyboard Layer 1 (Fail)
//Storyboard Layer 2 (Pass)
//Storyboard Layer 3 (Foreground)
//Storyboard Sound Samples

[TimingPoints]
2030,500,4,1,1,60,1,0
8030,-83.3333333333333,4,1,1,60,0,0
17530,-83.3333333333333,4,1,1,60,0,0
29780,-83.3333333333333,4,1,1,60,0,0
30030,-83.3333333333333,4,1,1,60,0,0
60030,-83.3333333333333,4,1,1,60,0,1
78280,-83.3333333333333,4,1,1,60,0,0

[HitObjects]
48,60,2030,5,8,0:0:0:0:
143,226,3030,1,8,0:0:0:0:
218,49,4030,1,8,0:0:0:0:
218,49,4530,5,8,0:0:0:0:
420,180,5030,1,8,0:0:0:0:
405,225,5280,1,2,0:0:0:0:
379,265,5530,1,8,0:0:0:0:
340,293,5780,1,2,0:0:0:0:
244,297,6030,6,0,P|200:293|152:269,1,80,8|0,0:0|0:0,0:0:0:0:
255,211,6446,2,0,P|310:192|358:187,2,80,8|0|0,0:0|0:0|0:0,0:0:0:0:
186,233,7280,5,2,0:0:0:0:
142,175,7530,2,0,L|90:91,1,80,8|2,0:0|0:0,0:0:0:0:
143,36,8030,5,8,0:0:0:0:
279,81,8280,1,2,0:0:0:0:
142,127,8530,1,8,0:0:0:0:
270,191,8780,1,2,0:0:0:0:
129,223,9030,2,8,P|96:258|76:301,1,95.9999970703126,2|2,0:0|0:0,0:0:0:0:
212,347,9530,2,0,P|264:281|305:262,1,95.9999970703126,8|2,0:0|0:0,0:0:0:0:
368,383,10030,5,8,0:0:0:0:
349,240,10280,1,2,0:0:0:0:
486,282,10530,1,8,0:0:0:0:
478,138,10780,1,2,0:0:0:0:
337,169,11030,2,0,P|313:125|296:67,1,95.9999970703126,8|2,0:0|0:0,0:0:0:0:
172,49,11530,2,0,P|186:94|210:136,1,95.9999970703126,8|2,0:0|0:0,0:0:0:0:
82,41,12030,6,0,B|35:54|35:54|40:114,1,95.9999970703126,8|2,0:0|0:0,0:0:0:0:
155,186,12530,2,0,B|203:184|203:184|213:125,1,95.9999970703126,8|2,0:0|0:0,0:0:0:0:
73,180,13030,6,0,B|40:215|40:215|75:264,1,95.9999970703126,8|2,0:0|0:0,0:0:0:0:
199,313,13530,2,0,B|245:299|245:299|241:251,1,95.9999970703126,8|2,0:0|0:0,0:0:0:0:
167,130,14030,5,8,0:0:0:0:
167,130,14280,1,2,0:0:0:0:
384,208,14530,5,8,0:0:0:0:
384,208,14780,1,0,0:0:0:0:
220,108,15030,5,8,0:0:0:0:
220,108,15280,1,2,0:0:0:0:
118,209,15530,2,0,L|93:234,5,31.9999990234375,8|8|8|8|8|8,0:0|0:0|0:0|0:0|0:0|0:0,0:0:0:0:
181,258,16030,5,8,0:0:0:0:
317,213,16280,1,2,0:0:0:0:
186,152,16530,1,8,0:0:0:0:
320,101,16780,1,2,0:0:0:0:
248,225,17030,1,8,0:0:0:0:
320,101,17280,1,2,0:0:0:0:
248,225,17530,6,0,P|253:151|236:93,1,95.9999970703126,0|2,0:0|0:0,0:0:0:0:
339,18,18030,1,8,0:0:0:0:
422,135,18280,1,2,0:0:0:0:
283,175,18530,1,8,0:0:0:0:
178,63,18780,1,2,0:0:0:0:
132,199,19030,2,0,P|157:262|302:311,1,191.999994140625,0|8,0:0|0:0,0:0:0:0:
283,175,19780,5,2,0:0:0:0:
283,175,20030,1,8,0:0:0:0:
406,249,20280,2,0,P|436:295|434:353,2,95.9999970703126,0|0|8,0:0|0:0|0:0,0:0:0:0:
283,175,21030,1,8,0:0:0:0:
149,121,21280,2,0,P|92:114|53:77,2,95.9999970703126,2|8|8,0:0|0:0|0:0,0:0:0:0:
289,93,22030,1,8,0:0:0:0:
411,187,22280,6,0,L|347:275,1,95.9999970703126,2|8,0:0|0:0,0:0:0:0:
406,130,22780,2,0,L|348:207,1,95.9999970703126,2|8,0:0|0:0,0:0:0:0:
388,68,23280,2,0,L|324:160,1,95.9999970703126,2|8,0:0|0:0,0:0:0:0:
340,2,23780,1,2,0:0:0:0:
204,49,24030,6,0,L|142:73,1,47.9999985351563,8|0,0:0|0:0,0:0:0:0:
274,59,24280,2,0,L|318:41,1,47.9999985351563,2|0,0:0|0:0,0:0:0:0:
235,135,24530,2,0,L|173:159,1,47.9999985351563,2|0,0:0|0:0,0:0:0:0:
307,130,24780,2,0,L|351:112,1,47.9999985351563,2|0,0:0|0:0,0:0:0:0:
269,199,25030,2,0,B|203:223|191:290|272:317|352:274|381:217|381:217|325:216,1,287.999991210938,8|0,0:0|0:0,0:0:0:0:
173,93,26030,6,0,P|208:120|286:101,1,95.9999970703126,8|0,0:0|0:0,0:0:0:0:
332,59,26446,1,8,0:0:0:0:
434,160,26696,5,2,0:0:0:0:
311,235,26946,1,8,0:0:0:0:
311,235,27030,2,0,P|263:287|263:311,1,95.9999970703126,10|0,0:0|0:0,0:0:0:0:
180,358,27446,1,8,0:0:0:0:
98,239,27696,5,2,0:0:0:0:
212,151,27946,1,8,0:0:0:0:
212,151,28030,1,2,0:0:0:0:
275,195,28196,6,0,L|319:230,4,31.9999990234375,8|8|8|8|8,0:0|0:0|0:0|0:0|0:0,0:0:0:0:
211,222,28696,2,0,L|186:272,4,31.9999990234375,8|8|8|8|8,0:0|0:0|0:0|0:0|0:0,0:0:0:0:
203,69,29280,5,2,0:0:0:0:
203,69,29530,2,0,P|275:65|311:45,1,95.9999970703126,0|0,0:0|0:0,0:0:0:0:
434,17,30030,1,8,0:0:0:0:
76,48,34030,5,8,0:0:0:0:
161,163,34280,1,2,0:0:0:0:
211,28,34530,1,8,0:0:0:0:
296,143,34780,1,2,0:0:0:0:
296,143,34905,1,8,0:0:0:0:
375,23,35155,1,8,0:0:0:0:
415,161,35405,1,2,0:0:0:0:
415,161,35530,1,8,0:0:0:0:
492,39,35780,1,10,0:0:0:0:
415,161,36030,5,8,0:0:0:0:
479,289,36280,1,2,0:0:0:0:
350,353,36530,1,8,0:0:0:0:
281,226,36780,1,2,0:0:0:0:
188,335,37030,2,0,P|116:378|75:366,1,95.9999970703126,8|2,0:0|0:0,0:0:0:0:
211,276,37530,1,8,0:0:0:0:
211,276,37780,1,2,0:0:0:0:
134,153,38030,1,8,0:0:0:0:
237,325,40030,6,0,P|301:297|336:218,1,143.999995605469,8|0,0:0|0:0,0:0:0:0:
348,162,40530,1,8,0:0:0:0:
252,54,40780,1,2,0:0:0:0:
252,54,40905,1,0,0:0:0:0:
134,127,41155,1,0,0:0:0:0:
134,127,41280,1,2,0:0:0:0:
267,181,41530,2,0,P|233:243|182:271,1,95.9999970703126,8|2,0:0|0:0,0:0:0:0:
351,304,42030,5,8,0:0:0:0:
214,257,42280,1,2,0:0:0:0:
344,195,42530,1,8,0:0:0:0:
233,121,42779,1,2,0:0:0:0:
233,121,42904,1,0,0:0:0:0:
365,65,43154,1,0,0:0:0:0:
230,14,43404,1,0,0:0:0:0:
230,14,43529,1,8,0:0:0:0:
145,131,43780,1,2,0:0:0:0:
250,229,44030,5,8,0:0:0:0:
145,131,44280,1,2,0:0:0:0:
174,272,44530,1,0,0:0:0:0:
174,272,44696,2,0,L|135:230,1,31.9999990234375,0|0,0:0|0:0,0:0:0:0:
90,183,44946,5,0,0:0:0:0:
90,183,45155,2,0,L|147:135,1,47.9999985351563,0|0,0:0|0:0,0:0:0:0:
291,21,45530,2,0,L|336:-13,3,31.9999990234375,8|0|0|2,0:0|0:0|0:0|0:0,0:0:0:0:
184,140,46030,5,8,0:0:0:0:
184,140,46280,1,2,0:0:0:0:
47,95,46530,2,0,P|55:35|83:23,1,95.9999970703126,0|0,0:0|0:0,0:0:0:0:
184,140,47030,1,8,0:0:0:0:
300,76,47280,1,0,0:0:0:0:
300,76,47405,2,0,P|340:88|372:116,2,47.9999985351563,0|0|0,0:0|0:0|0:0,0:0:0:0:
285,292,48030,1,8,0:0:0:0:
285,292,48280,1,2,0:0:0:0:
128,180,48530,6,0,P|165:152|188:147,1,47.9999985351563,0|0,0:0|0:0,0:0:0:0:
212,139,48780,2,0,P|248:143|264:151,1,47.9999985351563,0|0,0:0|0:0,0:0:0:0:
292,179,49030,2,0,P|268:215|200:243,1,95.9999970703126,0|0,0:0|0:0,0:0:0:0:
176,255,49405,2,0,P|120:247|84:211,1,95.9999970703126,0|0,0:0|0:0,0:0:0:0:
13,20,50030,5,8,0:0:0:0:
13,20,50280,1,2,0:0:0:0:
152,36,50530,2,0,L|179:19,4,31.9999990234375,8|8|8|8|8,0:0|0:0|0:0|0:0|0:0,0:0:0:0:
232,88,51030,6,0,P|296:100|340:128,1,95.9999970703126,8|2,0:0|0:0,0:0:0:0:
349,181,51405,2,0,P|305:160|258:154,1,95.9999970703126,0|0,0:0|0:0,0:0:0:0:
264,226,51780,6,0,P|327:240|348:254,1,47.9999985351563,0|0,0:0|0:0,0:0:0:0:
352,293,52030,1,8,0:0:0:0:
209,312,52280,1,2,0:0:0:0:
190,169,52530,1,8,0:0:0:0:
291,67,52780,2,0,L|344:52,3,31.9999990234375,2|0|0|8,0:0|0:0|0:0|0:0,0:0:0:0:
156,11,53280,1,2,0:0:0:0:
69,126,53530,1,8,0:0:0:0:
212,124,53780,2,0,L|264:125,3,31.9999990234375,2|0|0|8,0:0|0:0|0:0|0:0,0:0:0:0:
76,52,54280,5,2,0:0:0:0:
142,179,54530,1,8,0:0:0:0:
30,270,54780,2,0,L|4:289,3,31.9999990234375,2|0|0|8,0:0|0:0|0:0|0:0,0:0:0:0:
138,235,55280,2,0,L|186:239,1,47.9999985351563,2|0,0:0|0:0,0:0:0:0:
304,170,55530,2,0,L|256:166,1,47.9999985351563,8|0,0:0|0:0,0:0:0:0:
187,143,55780,2,0,L|141:135,3,31.9999990234375,2|0|0|8,0:0|0:0|0:0|0:0,0:0:0:0:
330,74,56280,1,2,0:0:0:0:
256,166,56530,1,8,0:0:0:0:
342,144,56696,6,0,L|387:110,4,31.9999990234375,0|2|0|0|8,0:0|0:0|0:0|0:0|0:0,0:0:0:0:
243,270,57196,1,0,0:0:0:0:
243,270,57280,2,0,P|195:294|155:306,1,95.9999970703126,2|8,0:0|0:0,0:0:0:0:
299,304,57780,1,2,0:0:0:0:
160,260,58030,6,0,L|160:200,1,47.9999985351563,2|0,0:0|0:0,0:0:0:0:
197,112,58280,2,0,L|197:176,1,47.9999985351563,2|0,0:0|0:0,0:0:0:0:
248,216,58530,1,8,0:0:0:0:
248,216,58655,1,0,0:0:0:0:
267,83,58905,2,0,L|267:35,1,47.9999985351563,0|0,0:0|0:0,0:0:0:0:
423,152,59280,6,0,P|387:188|327:208,1,95.9999970703126,2|8,0:0|0:0,0:0:0:0:
191,201,59780,1,2,0:0:0:0:
191,201,60030,5,8,0:0:0:0:
207,48,60280,1,2,0:0:0:0:
114,170,60530,1,8,0:0:0:0:
95,17,60780,1,2,0:0:0:0:
32,157,61030,2,0,P|22:218|43:283,1,95.9999970703126,8|2,0:0|0:0,0:0:0:0:
105,253,61405,2,0,P|105:157|118:137,1,95.9999970703126
132,99,61780,1,2,0:0:0:0:
248,172,62030,5,8,0:0:0:0:
349,287,62280,1,2,0:0:0:0:
342,133,62530,1,8,0:0:0:0:
446,245,62780,1,2,0:0:0:0:
421,93,63030,2,0,P|377:55|310:52,1,95.9999970703126,8|2,0:0|0:0,0:0:0:0:
292,107,63405,2,0,P|246:92|212:59,1,95.9999970703126
150,13,63780,1,0,0:0:0:0:
140,228,64030,6,0,P|196:196|232:188,1,95.9999970703126,8|2,0:0|0:0,0:0:0:0:
310,229,64530,2,0,P|250:269|182:277,1,95.9999970703126,8|2,0:0|0:0,0:0:0:0:
160,208,65030,2,8,P|212:176|280:184,1,95.9999970703126,8|2,0:0|0:0,0:0:0:0:
315,237,65530,2,8,P|263:265|215:277,1,95.9999970703126,8|2,0:0|0:0,0:0:0:0:
245,173,66030,5,8,0:0:0:0:
245,173,66280,2,0,L|245:69,1,95.9999970703126,2|8,0:0|0:0,0:0:0:0:
101,23,66780,1,2,0:0:0:0:
101,23,67030,1,8,0:0:0:0:
198,128,67280,1,0,0:0:0:0:
101,235,67530,6,0,L|67:265,6,31.9999990234375,8|8|8|8|8|8|8,0:0|0:0|0:0|0:0|0:0|0:0|0:0,0:0:0:0:
198,128,68280,1,2,0:0:0:0:
200,271,68530,1,8,0:0:0:0:
291,160,68780,1,2,0:0:0:0:
386,255,69030,2,0,P|419:218|434:157,1,95.9999970703126
384,48,69530,2,0,L|347:136,1,95.9999970703126
235,60,70030,5,8,0:0:0:0:
278,187,70280,1,2,0:0:0:0:
143,183,70530,1,8,0:0:0:0:
194,307,70780,1,2,0:0:0:0:
89,222,71030,2,0,P|50:181|24:132,1,95.9999970703126,8|0,0:0|0:0,0:0:0:0:
139,68,71530,2,0,P|178:120|227:135,1,95.9999970703126
330,181,72030,1,8,0:0:0:0:
220,259,72280,6,0,L|144:303,2,47.9999985351563,2|0|8,0:0|0:0|0:0,0:0:0:0:
330,181,72780,1,0,0:0:0:0:
330,181,73030,1,8,0:0:0:0:
289,52,73280,2,0,L|349:-4,2,47.9999985351563,2|0|8,0:0|0:0|0:0,0:0:0:0:
261,113,73655,6,0,L|257:161,3,31.9999990234375
194,165,74030,6,0,P|142:133|134:85,1,95.9999970703126,8|2,0:0|0:0,0:0:0:0:
125,34,74530,2,0,P|177:22|225:54,1,95.9999970703126,8|2,0:0|0:0,0:0:0:0:
262,165,75030,2,0,P|262:229|210:261,1,95.9999970703126,8|2,0:0|0:0,0:0:0:0:
127,179,75530,2,0,P|67:147|51:103,1,95.9999970703126,8|2,0:0|0:0,0:0:0:0:
167,49,76030,5,2,0:0:0:0:
182,182,76280,1,2,0:0:0:0:
76,98,76530,1,2,0:0:0:0:
182,182,76780,1,10,0:0:0:0:
248,65,77030,2,0,P|316:65|364:93,2,95.9999970703126,10|2|8,0:0|0:0|0:0,0:0:0:0:
276,196,77780,5,2,0:0:0:0:
276,196,78030,1,8,0:0:0:0:
152,80,83530,6,0,L|112:88,5,31.9999990234375,8|8|8|8|8|0,0:0|0:0|0:0|0:0|0:0|0:0,0:0:0:0:
167,76,84030,6,0,P|219:72|267:88,1,95.9999970703126,8|2,0:0|0:0,0:0:0:0:
167,195,84530,2,0,P|119:219|63:219,1,95.9999970703126,8|2,0:0|0:0,0:0:0:0:
207,160,85030,2,0,P|243:124|295:116,1,95.9999970703126,8|2,0:0|0:0,0:0:0:0:
231,248,85530,2,0,P|207:300|155:328,1,95.9999970703126,8|2,0:0|0:0,0:0:0:0:
270,213,86030,5,8,0:0:0:0:
326,80,86280,1,2,0:0:0:0:
270,213,86530,1,8,0:0:0:0:
326,80,86780,1,2,0:0:0:0:
104,77,87030,6,0,P|144:93|156:133,1,47.9999985351563,8|0,0:0|0:0,0:0:0:0:
136,141,87280,2,0,P|157:174|192:185,1,47.9999985351563,2|0,0:0|0:0,0:0:0:0:
212,145,87530,2,0,P|248:165|264:201,1,47.9999985351563,8|0,0:0|0:0,0:0:0:0:
184,221,87780,2,0,P|205:254|248:261,1,47.9999985351563,2|0,0:0|0:0,0:0:0:0:
211,257,88030,5,8,0:0:0:0:
211,257,88155,1,2,0:0:0:0:
350,222,88405,1,8,0:0:0:0:
350,222,88530,1,2,0:0:0:0:
229,142,88780,1,8,0:0:0:0:
229,142,88905,1,2,0:0:0:0:
363,91,89155,1,8,0:0:0:0:
363,91,89280,1,2,0:0:0:0:
227,41,89530,5,8,0:0:0:0:
121,138,89780,1,2,0:0:0:0:
225,289,90030,1,0,0:0:0:0:
