osu file format v14

[General]
AudioFilename: audio.mp3
AudioLeadIn: 0
PreviewTime: -1
Countdown: 0
SampleSet: Normal
StackLeniency: 0.7
Mode: 0
LetterboxInBreaks: 0
WidescreenStoryboard: 1

[Editor]
Bookmarks: 36530
DistanceSpacing: 0.8
BeatDivisor: 2
GridSize: 4
TimelineZoom: 1.3

[Metadata]
Title:Eyecatch! Too Much!
TitleUnicode:Eyecatch! Too Much!
Artist:HANA MIYAKOSHI
ArtistUnicode:宮越華(CV:戸松 遥)
Creator:Tralen
Version:Fimoree's Easy
Source:WWW.Working!!
Tags:opening tv size fimoree wagnaria
BeatmapID:1214764
BeatmapSetID:532686

[Difficulty]
HPDrainRate:2
CircleSize:3
OverallDifficulty:2
ApproachRate:3
SliderMultiplier:1
SliderTickRate:1

[Events]
//Background and Video events
Video,2047,"Op.mp4"
0,0,"working-ban-5-PV-1000x600.jpg",0,0
//Break Periods
2,78230,82590
//Storyboard Layer 0 (Background)
//Storyboard Layer 1 (Fail)
//Storyboard Layer 2 (Pass)
//Storyboard Layer 3 (Foreground)
//Storyboard Sound Samples

[TimingPoints]
2030,500,4,1,1,60,1,0
46030,-100,4,1,1,60,0,0
60030,-100,4,1,1,60,0,1
78030,-100,4,1,1,60,0,0

[HitObjects]
136,128,2030,6,0,P|196:136|260:168,1,100,8|0,0:0|0:0,0:0:0:0:
288,236,3030,2,0,P|344:240|400:208,1,100,8|0,0:0|0:0,0:0:0:0:
460,156,4030,5,8,0:0:0:0:
404,76,4530,1,8,0:0:0:0:
312,36,5030,2,0,P|212:16|116:36,1,200,8|8,0:0|0:0,0:0:0:0:
36,332,8030,6,0,P|140:308|256:328,1,200,8|8,0:0|0:0,0:0:0:0:
328,344,9530,1,8,0:0:0:0:
424,320,10030,6,0,P|380:240|396:132,1,200,8|8,0:0|0:0,0:0:0:0:
428,64,11530,1,8,0:0:0:0:
348,52,12030,6,0,P|296:68|248:104,3,100,8|8|8|8,0:0|0:0|0:0|0:0,0:0:0:0:
172,148,14030,1,8,0:0:0:0:
72,132,14530,1,8,0:0:0:0:
4,208,15030,1,8,0:0:0:0:
32,304,15530,1,0,0:0:0:0:
128,328,16030,6,0,P|180:320|240:328,3,100,8|8|8|8,0:0|0:0|0:0|0:0,0:0:0:0:
328,332,18030,2,0,P|344:280|380:232,3,100,8|8|8|8,0:0|0:0|0:0|0:0,0:0:0:0:
424,160,20030,2,0,B|448:108|448:108|448:56,1,100
348,72,21030,2,0,B|348:114|348:114|324:166,1,100
260,120,22030,6,0,L|148:96,3,100,8|8|8|8,0:0|0:0|0:0|0:0,0:0:0:0:
64,96,24030,1,8,0:0:0:0:
24,188,24530,1,2,0:0:0:0:
68,276,25030,2,0,P|104:308|196:316,1,100,8|0,0:0|0:0,0:0:0:0:
248,320,26030,2,0,L|376:320,1,100
344,228,27030,2,0,L|232:228,1,100
188,192,28030,6,0,L|128:128,2,50
240,252,29030,2,0,P|273:288|316:313,1,100
396,308,30030,6,0,P|340:360|204:380,1,200
144,360,31530,1,0,0:0:0:0:
76,316,32030,1,0,0:0:0:0:
44,244,32530,2,0,P|104:166|199:144,1,200
280,140,34030,2,0,L|240:96,1,50
244,64,34530,2,0,L|288:16,1,50
316,28,35030,6,0,P|364:28|448:-12,1,100,0|8,0:0|0:0,0:0:0:0:
484,48,36030,2,0,L|516:96,1,50
492,124,36530,2,0,L|469:191,1,50
456,208,37030,2,0,P|500:256|512:296,1,100
436,312,38030,6,0,P|416:372|336:296,1,200,8|0,0:0|0:0,0:0:0:0:
336,240,39530,1,0,0:0:0:0:
376,172,40030,2,0,P|416:128|436:80,1,100,8|8,0:0|0:0,0:0:0:0:
396,20,41030,1,8,0:0:0:0:
316,24,41530,1,0,0:0:0:0:
240,40,42030,2,0,L|191:53,1,50
160,76,42530,2,0,L|144:124,1,50
143,163,43030,2,0,P|159:227|223:255,1,100
340,268,44030,6,0,L|389:255,1,50
424,236,44530,2,0,L|460:192,1,50
456,156,45030,2,0,P|432:100|400:72,1,100
324,56,46030,1,0,0:0:0:0:
276,120,46530,6,0,P|243:156|239:205,1,100,0|8,0:0|0:0,0:0:0:0:
228,284,47530,1,8,0:0:0:0:
168,336,48030,5,8,0:0:0:0:
88,336,48530,2,0,P|36:332|20:264,1,100,8|0,0:0|0:0,0:0:0:0:
72,236,49530,1,0,0:0:0:0:
124,176,50030,5,8,0:0:0:0:
176,116,50530,2,0,L|272:152,1,100
348,148,51530,1,8,0:0:0:0:
364,228,52030,2,0,P|380:280|344:332,1,100,8|8,0:0|0:0,0:0:0:0:
284,340,53030,5,8,0:0:0:0:
204,336,53530,1,8,0:0:0:0:
188,256,54030,2,0,P|244:260|300:228,1,100,8|8,0:0|0:0,0:0:0:0:
336,184,55030,1,8,0:0:0:0:
400,140,55530,1,8,0:0:0:0:
432,216,56030,6,0,P|376:216|312:236,1,100,8|8,0:0|0:0,0:0:0:0:
260,256,57030,2,0,P|200:248|152:200,1,100,8|8,0:0|0:0,0:0:0:0:
112,168,58030,2,0,P|148:140|212:144,1,100,2|2,0:0|0:0,0:0:0:0:
272,176,59030,1,0,0:0:0:0:
440,240,60030,6,0,L|404:112,1,100,8|8,0:0|0:0,0:0:0:0:
332,84,61030,2,0,P|280:52|208:48,1,100,8|8,0:0|0:0,0:0:0:0:
156,92,62030,1,8,0:0:0:0:
176,192,62530,1,8,0:0:0:0:
104,264,63030,2,0,P|148:296|224:288,1,100,8|8,0:0|0:0,0:0:0:0:
272,300,64030,6,0,P|336:312|360:284,1,100
392,220,65030,2,0,P|440:128|440:108,1,100
364,104,66030,5,8,0:0:0:0:
288,80,66530,1,8,0:0:0:0:
208,64,67030,2,0,P|128:48|88:16,1,100,8|0,0:0|0:0,0:0:0:0:
32,36,68030,6,0,P|20:83|47:123,1,100,8|8,0:0|0:0,0:0:0:0:
124,148,69030,2,0,L|236:160,1,100,8|8,0:0|0:0,0:0:0:0:
304,168,70030,6,0,P|328:220|316:260,1,100,8|8,0:0|0:0,0:0:0:0:
260,316,71030,2,0,L|136:336,1,100,8|8,0:0|0:0,0:0:0:0:
88,300,72030,2,0,L|16:232,2,100
168,304,73530,1,0,0:0:0:0:
192,228,74030,2,0,L|104:136,2,100
264,192,75530,1,8,0:0:0:0:
304,260,76030,2,0,P|248:264|200:300,1,100,2|2,0:0|0:0,0:0:0:0:
132,304,77030,2,0,P|36:276|16:188,1,200,8|0,0:0|0:0,0:0:0:0:
72,108,84030,6,0,L|192:92,1,100,0|8,0:0|0:0,0:0:0:0:
240,168,85030,2,0,L|152:240,1,100,8|8,0:0|0:0,0:0:0:0:
220,312,86030,1,8,0:0:0:0:
220,312,86530,1,8,0:0:0:0:
320,312,87030,2,0,P|368:288|392:224,1,100,8|8,0:0|0:0,0:0:0:0:
412,152,88030,5,8,0:0:0:0:
320,108,88530,1,2,0:0:0:0:
404,52,89030,1,0,0:0:0:0:
308,20,89530,1,8,0:0:0:0:
208,40,90030,2,8,L|128:136,1,100,0|0,0:0|0:0,0:0:0:0:
