osu file format v14

[General]
AudioFilename: audio.mp3
AudioLeadIn: 0
PreviewTime: 730207
Countdown: 0
SampleSet: Soft
StackLeniency: 0.2
Mode: 0
LetterboxInBreaks: 0
EpilepsyWarning: 1
WidescreenStoryboard: 1

[Editor]
Bookmarks: 885,51794,88717,89043,122630,151962,186241,209902,238147,269780,305924,346332,372369,423278,446135,476135,506596,537653,577182,603432,632458,663708,689977,730529,757625,788122,822495
DistanceSpacing: 1.2
BeatDivisor: 4
GridSize: 4
TimelineZoom: 2.599999

[Metadata]
Title:Songs Compilation
TitleUnicode:Songs Compilation
Artist:HAG
ArtistUnicode:H△G
Creator:Andrea
Version:Starlight
Source:
Tags:osuplayer111 Sekaii Sekai Sekai-nyan Half Chiho ORESAMA アオイハルカゼ Aoi Harukaze 夏の在りか Natsu no Arika 少年と魔法のロボット Shounen to Mahou no Robot 40mP 40㍍P 40meterp vocaloid megpoid gumi さよならガール Sayonara Girl 蛍案内図 Hotaru Uchizu 星見る頃を過ぎても Hoshi Miru Koro o Sugite mo Past the Stargazing Season Mili Everlasting Night of Teenage Girls J-pop Deemo Jpop 桜の唄 Sakura no Uta イタズラなKiss と ラブソング。 Itazura na Kiss to Love song. ミルク Milk from Y to Y JimmythumbP Hatsune Miku ジミーサムP 初音ミク Project DIVA 2nd jimmy thumb p ゆめわずらいのバードマン Yume wazurai no bad man 約束のうた Yakusoku no Uta タイムマシン Time Machine ピリオドノック Period Knock ソルフェージュ Solfege 独白 Dokuhaku glow keeno 声 Koe 少女たちの終わらない夜 Shoujotachi no Owaranai Yoru カラフル Colorful 星屑オーケストラ Hoshikuzu Orchestra 星のパンフレット Hoshi no Pamphlet 地球最後の告白を Chikyuu Saigo no Kokuhaku o kemu suzumu アロー Arrow
BeatmapID:1928680
BeatmapSetID:923540

[Difficulty]
HPDrainRate:6
CircleSize:5
OverallDifficulty:8
ApproachRate:9
SliderMultiplier:1.6
SliderTickRate:1

[Events]
//Background and Video events
0,0,"BG.jpg",0,0
//Break Periods
2,269619,270625
2,345050,345732
2,372569,375405
2,506796,508113
//Storyboard Layer 0 (Background)
//Storyboard Layer 1 (Fail)
//Storyboard Layer 2 (Pass)
//Storyboard Layer 3 (Foreground)
//Storyboard Sound Samples

[TimingPoints]
885,454.545454545455,4,2,3,50,1,0
998,-133.333333333333,4,2,1,60,0,0
1794,-133.333333333333,4,2,3,50,0,0
1907,-133.333333333333,4,2,1,60,0,0
2703,-133.333333333333,4,2,3,50,0,0
2816,-133.333333333333,4,2,1,60,0,0
3612,-133.333333333333,4,2,3,50,0,0
3725,-133.333333333333,4,2,1,60,0,0
4521,-133.333333333333,4,2,3,50,0,0
4635,-133.333333333333,4,2,1,60,0,0
5430,-133.333333333333,4,2,3,50,0,0
5544,-133.333333333333,4,2,1,60,0,0
6339,-133.333333333333,4,2,3,50,0,0
6453,-133.333333333333,4,2,1,60,0,0
7248,-133.333333333333,4,2,3,50,0,0
7362,-133.333333333333,4,2,1,60,0,0
8157,-100,4,2,1,70,0,0
11794,-100,4,2,4,70,0,0
11907,-100,4,2,1,70,0,0
12930,-100,4,2,3,70,0,0
13044,-100,4,2,1,70,0,0
13385,-100,4,2,3,70,0,0
13953,-100,4,2,1,70,0,0
15885,-100,4,2,3,70,0,0
15998,-100,4,2,1,70,0,0
16566,-100,4,2,3,80,0,0
16680,-100,4,2,1,70,0,0
45657,-100,4,2,3,60,0,0
45771,-100,4,2,1,70,0,0
47475,-100,4,2,3,60,0,0
47589,-100,4,2,1,70,0,0
49748,-100,4,2,3,60,0,0
49862,-100,4,2,1,70,0,0
51794,461.538461538462,4,2,4,70,1,0
51909,-100,4,2,1,70,0,0
54332,-100,4,2,3,70,0,0
55370,-100,4,2,1,70,0,0
69101,-100,4,2,3,70,0,0
70140,-100,4,2,1,70,0,0
79486,-100,4,2,1,5,0,0
81101,-100,4,2,1,50,0,0
81332,-100,4,2,1,70,0,0
88717,434.782608695652,4,2,4,60,1,0
88825,-100,4,2,1,70,0,0
90456,-100,4,2,3,60,0,0
90564,-100,4,2,1,70,0,0
92195,-100,4,2,3,60,0,0
92303,-100,4,2,1,70,0,0
93934,-100,4,2,3,70,0,0
94043,-100,4,2,1,70,0,0
94803,-100,4,2,3,70,0,0
94912,-100,4,2,1,70,0,0
95673,-100,4,2,3,60,0,0
95782,-100,4,2,1,70,0,0
96977,-100,4,2,3,70,0,0
97303,-100,4,2,1,70,0,0
101108,-100,4,2,3,60,0,0
101651,-100,4,2,1,70,0,0
101760,-100,4,2,1,50,0,0
101977,-100,4,2,1,60,0,0
102195,-100,4,2,1,70,0,0
104369,-100,4,2,3,70,0,0
104477,-100,4,2,1,70,0,0
105238,-100,4,2,3,70,0,0
105347,-100,4,2,1,70,0,0
106108,-100,4,2,3,60,0,0
106217,-100,4,2,1,70,0,0
107195,-100,4,2,3,60,0,0
107303,-100,4,2,1,70,0,0
108499,-100,4,2,3,80,0,0
108825,-100,4,2,1,70,0,0
116543,-100,4,2,3,60,0,0
116651,-100,4,2,1,70,0,0
117195,-100,4,2,3,80,0,0
117738,-100,4,2,1,70,0,0
118064,-100,4,2,3,60,0,0
118173,-100,4,2,1,70,0,0
118934,-100,4,2,3,80,0,0
119477,-100,4,2,1,70,0,0
120021,-100,4,2,3,60,0,0
120130,-100,4,2,1,70,0,0
121108,-100,4,2,3,60,0,0
121216,-100,4,2,1,70,0,0
122630,444.444444444444,4,2,1,70,1,8
123518,444.444444444444,4,2,4,70,1,0
123629,-100,4,2,1,70,0,0
151962,428.571428571429,4,2,4,70,1,0
152069,-100,4,2,1,70,0,0
154104,-100,4,2,3,60,0,0
154212,-100,4,2,1,70,0,0
154962,-100,4,2,3,60,0,0
155069,-100,4,2,1,70,0,0
157533,-100,4,2,3,60,0,0
157640,-100,4,2,1,70,0,0
158390,-100,4,2,3,60,0,0
158497,-100,4,2,1,70,0,0
159462,-100,4,2,3,70,0,0
159569,-100,4,2,1,70,0,0
160533,-100,4,2,3,70,0,0
160640,-100,4,2,1,70,0,0
162890,-100,4,2,3,70,0,0
162997,-100,4,2,1,70,0,0
166319,-100,4,2,3,60,0,0
166426,-100,4,2,1,70,0,0
167819,-100,4,2,3,70,0,0
167926,-100,4,2,1,70,0,0
168676,-100,4,2,3,70,0,0
168783,-100,4,2,1,70,0,0
171247,-100,4,2,3,70,0,0
171354,-100,4,2,1,70,0,0
172104,-100,4,2,3,70,0,0
172212,-100,4,2,1,70,0,0
173176,-100,4,2,3,70,0,0
173283,-100,4,2,1,70,0,0
174247,-100,4,2,3,70,0,0
174354,-100,4,2,1,70,0,0
178212,-100,4,2,1,5,0,0
178319,-100,4,2,1,70,0,0
180033,-100,4,2,3,60,0,0
180140,-100,4,2,1,70,0,0
180462,-100,4,2,3,80,0,0
180569,-100,4,2,1,70,0,0
181747,-100,4,2,3,80,0,0
181854,-100,4,2,1,70,0,0
183462,-100,4,2,3,60,0,0
183569,-100,4,2,1,70,0,0
183890,-100,4,2,3,80,0,0
183997,-100,4,2,1,70,0,0
185819,422.535211267606,4,2,1,70,1,8
186241,422.535211267606,4,2,4,70,1,0
186346,-100,4,2,1,70,0,0
206522,-100,4,2,3,50,0,0
208212,-100,4,2,1,70,0,0
209902,352.941176470588,4,2,4,70,1,0
209990,-100,4,2,1,70,0,0
237784,363.636363636364,4,2,1,70,1,8
238147,363.636363636364,4,2,4,70,1,0
238237,-100,4,2,1,70,0,0
258237,-100,4,2,1,50,0,0
258510,-100,4,2,3,60,0,0
259601,-100,4,2,3,50,0,0
259965,-100,4,2,3,80,0,0
260056,-100,4,2,3,60,0,0
261056,-100,4,2,3,50,0,0
261419,-100,4,2,3,80,0,0
261510,-100,4,2,3,60,0,0
262510,-100,4,2,3,50,0,0
262601,-100,4,2,3,60,0,0
266147,-100,4,2,3,90,0,0
266237,-100,4,2,3,60,0,0
266874,-100,4,2,3,90,0,0
266965,-100,4,2,3,60,0,0
269056,-100,4,2,3,90,0,0
269147,-100,4,2,3,60,0,0
269419,361.44578313253,4,2,1,70,1,8
269780,361.44578313253,4,2,1,70,1,0
271225,-100,4,2,4,70,0,0
271316,-100,4,2,1,70,0,0
293635,-100,4,2,3,70,0,0
293996,-100,4,2,1,50,0,0
294087,-100,4,2,3,50,0,0
296526,-100,4,2,1,50,0,0
296617,-100,4,2,3,70,0,0
297249,-100,4,2,1,50,0,0
297340,-100,4,2,3,50,0,0
297972,-100,4,2,1,50,0,0
298063,-100,4,2,3,50,0,0
299418,-100,4,2,1,50,0,0
299508,-100,4,2,3,70,0,0
300141,-100,4,2,1,50,0,0
300231,-100,4,2,3,50,0,0
300864,-100,4,2,1,50,0,0
300954,-100,4,2,3,50,0,0
302310,-100,4,2,1,50,0,0
302400,-100,4,2,3,70,0,0
303033,-100,4,2,1,50,0,0
303123,-100,4,2,3,70,0,0
303755,-100,4,2,1,50,0,0
303846,-100,4,2,3,70,0,0
305743,-100,4,2,1,30,0,0
305924,612.244897959184,4,2,4,70,1,0
305924,-133.333333333333,4,2,4,70,0,0
306077,-133.333333333333,4,2,1,70,0,0
306842,-133.333333333333,4,2,3,70,0,0
306995,-133.333333333333,4,2,1,70,0,0
307760,-133.333333333333,4,2,3,70,0,0
307913,-133.333333333333,4,2,1,70,0,0
308679,-133.333333333333,4,2,3,70,0,0
308832,-133.333333333333,4,2,1,70,0,0
309597,-133.333333333333,4,2,3,70,0,0
309750,-133.333333333333,4,2,1,70,0,0
311740,-133.333333333333,4,2,3,70,0,0
311893,-133.333333333333,4,2,1,70,0,0
312658,-133.333333333333,4,2,3,70,0,0
312811,-133.333333333333,4,2,1,70,0,0
313577,-133.333333333333,4,2,3,70,0,0
313730,-133.333333333333,4,2,1,70,0,0
314495,-133.333333333333,4,2,3,70,0,0
314648,-133.333333333333,4,2,1,70,0,0
316638,-133.333333333333,4,2,3,70,0,0
316791,-133.333333333333,4,2,1,70,0,0
317556,-133.333333333333,4,2,3,70,0,0
317709,-133.333333333333,4,2,1,70,0,0
321077,-133.333333333333,4,2,1,5,0,0
321230,-133.333333333333,4,2,1,50,0,0
323066,-133.333333333333,4,2,1,60,0,0
324597,-133.333333333333,4,2,1,70,0,0
325821,-133.333333333333,4,2,3,70,0,0
325975,-133.333333333333,4,2,1,70,0,0
326740,-133.333333333333,4,2,3,70,0,0
326893,-133.333333333333,4,2,1,70,0,0
327658,-133.333333333333,4,2,3,70,0,0
327811,-133.333333333333,4,2,1,70,0,0
328577,-133.333333333333,4,2,3,70,0,0
328730,-133.333333333333,4,2,1,70,0,0
330719,-133.333333333333,4,2,3,70,0,0
330872,-133.333333333333,4,2,1,70,0,0
331638,-133.333333333333,4,2,3,70,0,0
331791,-133.333333333333,4,2,1,70,0,0
332556,-133.333333333333,4,2,3,70,0,0
332709,-133.333333333333,4,2,1,70,0,0
333475,-133.333333333333,4,2,3,70,0,0
333628,-133.333333333333,4,2,1,70,0,0
340209,-133.333333333333,4,2,1,60,0,0
342352,-133.333333333333,4,2,1,70,0,0
343883,645.161290322581,4,2,1,70,1,0
344850,741.198270537369,4,2,1,70,1,8
346332,566.037735849057,4,2,2,70,1,8
346898,566.037735849057,3,2,2,60,1,0
349162,-100,3,2,2,50,0,0
349445,-100,3,2,2,60,0,0
352558,-100,3,2,2,50,0,0
352841,-100,3,2,2,60,0,0
355954,-100,3,2,2,50,0,0
356237,-100,3,2,2,60,0,0
359350,-100,3,2,2,50,0,0
359492,-100,3,2,2,60,0,0
362747,-100,3,2,2,50,0,0
362888,-100,3,2,2,60,0,0
366143,-100,3,2,2,50,0,0
366284,-100,3,2,2,60,0,0
369539,-100,3,2,2,50,0,0
369681,-100,3,2,2,60,0,0
371237,-100,3,2,2,50,0,0
372369,454.545454545455,4,2,1,50,1,0
376005,-100,4,2,4,50,0,0
376119,-100,4,2,1,50,0,0
376914,-100,4,2,1,55,0,0
377823,-100,4,2,1,60,0,0
378732,-100,4,2,1,65,0,0
379641,-100,4,2,1,70,0,0
380550,-100,4,2,3,70,0,0
380664,-100,4,2,1,70,0,0
381459,-100,4,2,3,80,0,0
381573,-100,4,2,1,70,0,0
382369,-100,4,2,3,70,0,0
382482,-100,4,2,1,70,0,0
383278,-100,4,2,3,70,0,0
383391,-100,4,2,1,70,0,0
385096,-100,4,2,3,80,0,0
385209,-100,4,2,1,70,0,0
386005,-100,4,2,3,70,0,0
386119,-100,4,2,1,70,0,0
386914,-100,4,2,3,60,0,0
387028,-100,4,2,1,70,0,0
387596,-100,4,2,3,70,0,0
387709,-100,4,2,1,70,0,0
388732,-100,4,2,3,60,0,0
388846,-100,4,2,1,70,0,0
389414,-100,4,2,3,70,0,0
389528,-100,4,2,1,70,0,0
390550,-100,4,2,3,80,0,0
390664,-100,4,2,1,70,0,0
391459,-100,4,2,3,60,0,0
391573,-100,4,2,1,70,0,0
395096,-100,4,2,3,70,0,0
395209,-100,4,2,1,70,0,0
396005,-100,4,2,3,80,0,0
396119,-100,4,2,1,70,0,0
396914,-100,4,2,3,80,0,0
397028,-100,4,2,1,70,0,0
400550,-100,4,2,3,70,0,0
400664,-100,4,2,1,70,0,0
410550,-100,4,2,3,90,0,0
410664,-100,4,2,1,70,0,0
411459,-100,4,2,3,80,0,0
411573,-100,4,2,1,70,0,0
412369,-100,4,2,3,70,0,0
412482,-100,4,2,1,70,0,0
415096,-100,4,2,3,90,0,0
415209,-100,4,2,1,70,0,0
416005,-100,4,2,3,80,0,0
416119,-100,4,2,1,70,0,0
417823,-100,4,2,3,90,0,0
417937,-100,4,2,1,70,0,0
419641,-100,4,2,3,80,0,0
419755,-100,4,2,1,70,0,0
421459,-100,4,2,3,70,0,0
421573,-100,4,2,1,70,0,0
423278,476.190476190476,4,2,4,70,1,0
423397,-100,4,2,1,70,0,0
435420,-100,4,2,3,80,0,0
435539,-100,4,2,1,70,0,0
437325,-100,4,2,3,80,0,0
437444,-100,4,2,1,70,0,0
438992,-100,4,2,3,70,0,0
439111,-100,4,2,1,70,0,0
439706,-100,4,2,3,80,0,0
439825,-100,4,2,1,70,0,0
440063,-100,4,2,3,70,0,0
440182,-100,4,2,1,70,0,0
440778,-100,4,2,3,80,0,0
440897,-100,4,2,1,70,0,0
441611,-100,4,2,3,70,0,0
441730,-100,4,2,1,70,0,0
442325,-100,4,2,3,80,0,0
442682,-100,4,2,1,70,0,0
443039,-100,4,2,3,70,0,0
443158,-100,4,2,1,70,0,0
443516,-100,4,2,3,80,0,0
443635,-100,4,2,1,70,0,0
443992,-100,4,2,3,70,0,0
444111,-100,4,2,1,70,0,0
444587,-100,4,2,3,60,0,0
445063,-100,4,2,1,70,0,0
446135,428.571428571429,4,2,4,70,1,0
446242,-100,4,2,1,70,0,0
448170,-100,4,2,1,5,0,0
448277,-100,4,2,1,70,0,0
449885,-100,4,2,1,5,0,0
449992,-100,4,2,1,70,0,0
453313,-100,4,2,1,5,0,0
453420,-100,4,2,1,70,0,0
455027,-100,4,2,1,5,0,0
455135,-100,4,2,1,70,0,0
461885,-100,4,2,1,5,0,0
461992,-100,4,2,1,70,0,0
463599,-100,4,2,1,5,0,0
463706,-100,4,2,1,70,0,0
465313,-100,4,2,1,5,0,0
465420,-100,4,2,1,70,0,0
468742,-100,4,2,1,5,0,0
468849,-100,4,2,1,70,0,0
470456,-100,4,2,1,5,0,0
470563,-100,4,2,1,70,0,0
473777,-100,4,2,3,70,0,0
473885,-100,4,2,1,70,0,0
474420,-100,4,2,3,70,0,0
474527,-100,4,2,1,70,0,0
475063,-100,4,2,3,70,0,0
475170,-100,4,2,1,70,0,0
476135,461.538461538462,4,2,1,70,1,8
477058,461.538461538462,4,2,4,70,1,0
477173,-100,4,2,1,70,0,0
479365,-100,4,2,3,80,0,0
479481,-100,4,2,1,70,0,0
482365,-100,4,2,3,80,0,0
482711,-100,4,2,1,70,0,0
486288,-100,4,2,3,70,0,0
486404,-100,4,2,1,70,0,0
488827,-100,4,2,3,70,0,0
488942,-100,4,2,1,70,0,0
490904,-100,4,2,3,80,0,0
491019,-100,4,2,1,70,0,0
491365,-100,4,2,3,70,0,0
491481,-100,4,2,1,70,0,0
496442,-100,4,2,3,80,0,0
496558,-100,4,2,1,70,0,0
497827,-100,4,2,1,50,0,0
499211,-100,4,2,3,60,0,0
499327,-100,4,2,1,70,0,0
499673,-100,4,2,3,80,0,0
499788,-100,4,2,1,70,0,0
500134,-100,4,2,3,80,0,0
500250,-100,4,2,1,70,0,0
501058,-100,4,2,3,80,0,0
501173,-100,4,2,1,70,0,0
501519,-100,4,2,3,70,0,0
501634,-100,4,2,1,70,0,0
501981,-100,4,2,3,80,0,0
502096,-100,4,2,1,70,0,0
502904,-100,4,2,3,80,0,0
503019,-100,4,2,1,70,0,0
503596,-100,4,2,3,80,0,0
503711,-100,4,2,1,70,0,0
504750,-100,4,2,3,70,0,0
504865,-100,4,2,1,70,0,0
505442,-100,4,2,3,80,0,0
505558,-100,4,2,1,70,0,0
506596,352.941176470588,4,2,1,70,1,0
515684,-100,4,2,1,5,0,0
515772,-100,4,2,1,70,0,0
517448,-100,4,2,1,5,0,0
517537,-100,4,2,1,70,0,0
518154,-100,4,2,1,5,0,0
518243,-100,4,2,1,70,0,0
520978,-100,4,2,1,5,0,0
521066,-100,4,2,1,70,0,0
521684,-100,4,2,1,5,0,0
521772,-100,4,2,1,70,0,0
522390,-100,4,2,1,5,0,0
522478,-100,4,2,1,70,0,0
523096,-100,4,2,1,5,0,0
523184,-100,4,2,1,70,0,0
526625,-100,4,2,1,5,0,0
526713,-100,4,2,1,70,0,0
527331,-100,4,2,1,5,0,0
527419,-100,4,2,1,70,0,0
528743,-100,4,2,1,5,0,0
528831,-100,4,2,1,70,0,0
537301,352.941176470588,4,2,1,60,1,8
537653,352.941176470588,4,2,4,60,1,0
537741,-100,4,2,1,60,0,0
546123,-100,4,2,1,70,0,0
577182,340.909090909091,4,2,4,70,1,0
577267,-100,4,2,1,70,0,0
581272,-100,4,2,3,80,0,0
581699,-100,4,2,1,70,0,0
584682,-100,4,2,3,70,0,0
584767,-100,4,2,1,70,0,0
586727,-100,4,2,3,80,0,0
586812,-100,4,2,1,70,0,0
587238,-100,4,2,3,80,0,0
587324,-100,4,2,1,70,0,0
591329,-100,4,2,3,80,0,0
591414,-100,4,2,1,70,0,0
592182,-100,4,2,3,80,0,0
592267,-100,4,2,1,70,0,0
592693,-100,4,2,3,80,0,0
592778,-100,4,2,1,70,0,0
596784,-100,4,2,3,70,0,0
596869,-100,4,2,1,70,0,0
597295,-100,4,2,3,70,0,0
597380,-100,4,2,1,70,0,0
599341,-100,4,2,3,80,0,0
599426,-100,4,2,1,70,0,0
599682,-100,4,2,3,70,0,0
599767,-100,4,2,1,70,0,0
600193,-100,4,2,3,70,0,0
600278,-100,4,2,1,70,0,0
600875,-100,4,2,3,70,0,0
600960,-100,4,2,1,70,0,0
602068,-100,4,2,3,80,0,0
602153,-100,4,2,1,70,0,0
602409,-100,4,2,3,70,0,0
602494,-100,4,2,1,70,0,0
602920,-100,4,2,3,80,0,0
603005,-100,4,2,1,70,0,0
603261,-100,4,2,3,70,0,0
603346,-100,4,2,1,70,0,0
603432,322.58064516129,4,2,1,70,1,8
604399,322.58064516129,4,2,4,70,1,0
604479,-100,4,2,1,70,0,0
619882,-100,4,2,3,55,0,0
619963,-100,4,2,1,70,0,0
620528,-100,4,2,3,50,0,0
620608,-100,4,2,1,70,0,0
621173,-100,4,2,3,45,0,0
621253,-100,4,2,1,70,0,0
621818,-100,4,2,3,40,0,0
621899,-100,4,2,1,70,0,0
622463,-100,4,2,3,70,0,0
622544,-100,4,2,1,70,0,0
623753,-100,4,2,3,80,0,0
623834,-100,4,2,1,70,0,0
624399,-100,4,2,3,80,0,0
624479,-100,4,2,1,70,0,0
625044,-100,4,2,3,80,0,0
625124,-100,4,2,1,70,0,0
625528,-100,4,2,3,80,0,0
625608,-100,4,2,1,70,0,0
626173,-100,4,2,3,80,0,0
626253,-100,4,2,1,70,0,0
627624,-100,4,2,3,70,0,0
627705,-100,4,2,1,70,0,0
628915,-100,4,2,3,80,0,0
628995,-100,4,2,1,70,0,0
629560,-100,4,2,3,80,0,0
629640,-100,4,2,1,70,0,0
630689,-100,4,2,3,70,0,0
630769,-100,4,2,1,70,0,0
631173,-100,4,2,3,80,0,0
631253,-100,4,2,1,70,0,0
632302,312.5,4,2,1,70,1,8
632458,312.5,4,2,1,70,1,8
633083,312.5,4,2,1,70,1,0
633395,-100,4,2,3,70,0,0
633473,-100,4,2,1,70,0,0
633708,-100,4,2,3,70,0,0
633786,-100,4,2,1,70,0,0
634333,-100,4,2,4,70,0,0
634411,-100,4,2,1,70,0,0
648708,-100,4,2,3,70,0,0
648786,-100,4,2,1,70,0,0
649958,-100,4,2,3,70,0,0
650036,-100,4,2,1,70,0,0
651208,-100,4,2,3,70,0,0
651286,-100,4,2,1,70,0,0
653395,-100,4,2,3,60,0,0
653629,-100,4,2,1,70,0,0
663708,324.324324324324,4,2,1,70,1,8
664356,324.324324324324,4,2,4,70,1,0
664437,-100,4,2,1,70,0,0
664842,-100,4,2,3,70,0,0
664923,-100,4,2,1,70,0,0
665653,-100,4,2,3,80,0,0
665734,-100,4,2,1,70,0,0
666139,-100,4,2,3,70,0,0
666220,-100,4,2,1,70,0,0
666950,-100,4,2,3,80,0,0
667031,-100,4,2,1,70,0,0
667599,-100,4,2,3,70,0,0
667680,-100,4,2,1,70,0,0
668247,-100,4,2,3,80,0,0
668328,-100,4,2,1,70,0,0
668896,-100,4,2,3,70,0,0
668977,-100,4,2,1,70,0,0
669545,-100,4,2,3,90,0,0
669626,-100,4,2,1,70,0,0
670193,-100,4,2,3,70,0,0
670274,-100,4,2,1,70,0,0
670842,-100,4,2,3,80,0,0
670923,-100,4,2,1,70,0,0
671328,-100,4,2,3,70,0,0
671410,-100,4,2,1,70,0,0
672626,-100,4,2,3,70,0,0
672707,-100,4,2,1,70,0,0
673437,-100,4,2,3,80,0,0
673518,-100,4,2,1,70,0,0
675220,-100,4,2,3,70,0,0
675301,-100,4,2,1,70,0,0
676031,-100,4,2,3,80,0,0
676112,-100,4,2,1,70,0,0
676518,-100,4,2,3,70,0,0
676599,-100,4,2,1,70,0,0
677328,-100,4,2,3,80,0,0
677410,-100,4,2,1,70,0,0
677977,-100,4,2,3,70,0,0
678058,-100,4,2,1,70,0,0
679274,-100,4,2,3,70,0,0
679356,-100,4,2,1,70,0,0
679923,-100,4,2,3,80,0,0
680004,-100,4,2,1,70,0,0
681220,-100,4,2,3,80,0,0
681301,-100,4,2,1,70,0,0
682518,-100,4,2,3,80,0,0
682599,-100,4,2,1,70,0,0
683491,-100,4,2,3,70,0,0
683572,-100,4,2,1,70,0,0
684139,-100,4,2,3,80,0,0
684220,-100,4,2,1,70,0,0
687707,-100,4,2,3,80,0,0
687950,-100,4,2,1,5,0,0
688031,-100,4,2,1,70,0,0
689977,346.820809248555,4,2,1,70,1,8
690323,346.820809248555,4,2,4,70,1,0
690409,-100,4,2,1,70,0,0
691016,-100,4,2,3,70,0,0
691103,-100,4,2,1,70,0,0
691710,-100,4,2,3,75,0,0
691796,-100,4,2,1,70,0,0
692403,-100,4,2,3,70,0,0
692490,-100,4,2,1,70,0,0
693791,-100,4,2,3,70,0,0
693877,-100,4,2,1,70,0,0
694484,-100,4,2,3,75,0,0
694571,-100,4,2,1,70,0,0
695178,-100,4,2,3,70,0,0
695265,-100,4,2,1,70,0,0
696565,-100,4,2,3,70,0,0
696652,-100,4,2,1,70,0,0
697259,-100,4,2,3,75,0,0
697346,-100,4,2,1,70,0,0
697953,-100,4,2,3,70,0,0
698039,-100,4,2,1,70,0,0
699340,-100,4,2,3,70,0,0
699427,-100,4,2,1,70,0,0
700033,-100,4,2,3,80,0,0
700120,-100,4,2,1,70,0,0
700727,-100,4,2,3,60,0,0
700814,-100,4,2,1,70,0,0
702114,-100,4,2,3,70,0,0
702201,-100,4,2,1,70,0,0
702808,-100,4,2,3,80,0,0
702895,-100,4,2,1,70,0,0
703155,-100,4,2,3,90,0,0
703242,-100,4,2,1,70,0,0
703502,-100,4,2,3,90,0,0
703588,-100,4,2,1,70,0,0
703849,-100,4,2,3,80,0,0
703935,-100,4,2,1,70,0,0
704195,-100,4,2,3,80,0,0
704282,-100,4,2,1,70,0,0
704889,-100,4,2,3,80,0,0
704976,-100,4,2,1,70,0,0
705583,-100,4,2,3,80,0,0
705669,-100,4,2,1,70,0,0
706276,-100,4,2,3,70,0,0
706363,-100,4,2,1,70,0,0
708357,-100,4,2,3,80,0,0
708444,-100,4,2,1,70,0,0
711132,-100,4,2,3,80,0,0
711218,-100,4,2,1,70,0,0
711652,-100,4,2,3,70,0,0
711739,-100,4,2,1,70,0,0
712346,-100,4,2,3,70,0,0
712432,-100,4,2,1,70,0,0
730207,322.58064516129,4,2,1,70,1,8
730529,322.58064516129,4,2,4,70,1,0
730609,-100,4,2,1,70,0,0
731819,-100,4,2,3,80,0,0
731899,-100,4,2,1,70,0,0
733109,-100,4,2,3,80,0,0
733190,-100,4,2,1,70,0,0
734399,-100,4,2,3,80,0,0
734480,-100,4,2,1,70,0,0
735690,-100,4,2,3,80,0,0
735770,-100,4,2,1,70,0,0
736980,-100,4,2,3,80,0,0
737061,-100,4,2,1,70,0,0
738270,-100,4,2,3,80,0,0
738351,-100,4,2,1,70,0,0
739561,-100,4,2,3,80,0,0
739641,-100,4,2,1,70,0,0
740851,-100,4,2,3,80,0,0
740932,-100,4,2,1,70,0,0
742141,-100,4,2,3,80,0,0
742222,-100,4,2,1,70,0,0
743432,-100,4,2,3,80,0,0
743512,-100,4,2,1,70,0,0
744883,-100,4,2,3,80,0,0
744964,-100,4,2,1,70,0,0
745529,-100,4,2,3,80,0,0
745609,-100,4,2,1,70,0,0
746174,-100,4,2,3,80,0,0
746254,-100,4,2,1,70,0,0
746658,-100,4,2,3,90,0,0
746738,-100,4,2,1,70,0,0
747303,-100,4,2,3,80,0,0
747383,-100,4,2,1,70,0,0
749238,-100,4,2,3,90,0,0
749319,-100,4,2,1,70,0,0
749883,-100,4,2,3,80,0,0
749964,-100,4,2,1,70,0,0
750529,-100,4,2,3,70,0,0
750609,-100,4,2,1,70,0,0
751174,-100,4,2,3,80,0,0
751254,-100,4,2,1,70,0,0
751980,-100,4,2,3,80,0,0
752061,-100,4,2,1,70,0,0
752787,-100,4,2,3,80,0,0
752948,-100,4,2,3,40,0,0
753029,-100,4,2,1,70,0,0
753754,-100,4,2,3,80,0,0
753835,-100,4,2,1,70,0,0
754238,-100,4,2,3,70,0,0
754319,-100,4,2,1,70,0,0
754561,-100,4,2,3,70,0,0
754641,-100,4,2,1,70,0,0
755690,-100,4,2,3,70,0,0
755770,-100,4,2,1,70,0,0
757303,-100,4,2,3,80,0,0
757383,-100,4,2,1,70,0,0
757625,331.491712707182,4,2,1,70,1,0
758950,-100,4,2,3,70,0,0
759199,-100,4,2,3,80,0,0
759531,-100,4,2,1,70,0,0
760608,-100,4,2,3,70,0,0
760691,-100,4,2,1,70,0,0
765415,-100,4,2,1,40,0,0
766906,-133.333333333333,4,2,3,50,0,0
766989,-133.333333333333,4,2,1,60,0,0
768232,-133.333333333333,4,2,3,50,0,0
768315,-133.333333333333,4,2,1,60,0,0
769558,-133.333333333333,4,2,3,50,0,0
769641,-133.333333333333,4,2,1,60,0,0
770884,-133.333333333333,4,2,3,50,0,0
770967,-133.333333333333,4,2,1,60,0,0
772210,-133.333333333333,4,2,3,50,0,0
772293,-133.333333333333,4,2,1,60,0,0
773536,-133.333333333333,4,2,3,50,0,0
773619,-133.333333333333,4,2,1,60,0,0
774862,-133.333333333333,4,2,3,50,0,0
774945,-133.333333333333,4,2,1,60,0,0
776188,-133.333333333333,4,2,3,50,0,0
776271,-133.333333333333,4,2,1,60,0,0
776851,-133.333333333333,4,2,3,50,0,0
777100,-133.333333333333,4,2,1,60,0,0
777514,-100,4,2,1,70,0,0
777845,-100,4,2,3,60,0,0
778011,-100,4,2,1,70,0,0
778508,-100,4,2,3,60,0,0
778840,-100,4,2,1,70,0,0
779503,-100,4,2,3,60,0,0
779669,-100,4,2,1,70,0,0
780166,-100,4,2,3,60,0,0
780249,-100,4,2,1,70,0,0
781160,-100,4,2,3,60,0,0
781326,-100,4,2,1,70,0,0
786796,-100,4,2,1,75,0,0
787127,-100,4,2,1,80,0,0
787459,-100,4,2,1,85,0,0
787790,-100,4,2,1,70,0,0
806188,-100,4,2,3,60,0,0
806685,-100,4,2,1,70,0,0
807183,-100,4,2,3,70,0,0
807265,-100,4,2,1,70,0,0
807845,-100,4,2,3,80,0,0
807928,-100,4,2,1,70,0,0
808840,-100,4,2,3,70,0,0
808923,-100,4,2,1,70,0,0
809834,-100,4,2,3,80,0,0
809917,-100,4,2,1,70,0,0
810497,-100,4,2,3,70,0,0
810580,-100,4,2,1,70,0,0
811326,-100,4,2,3,90,0,0
811409,-100,4,2,1,70,0,0
812321,-100,4,2,3,80,0,0
812404,-100,4,2,1,70,0,0
812818,-100,4,2,3,70,0,0
812901,-100,4,2,1,70,0,0
813149,-100,4,2,3,80,0,0
813232,-100,4,2,1,70,0,0
813978,-100,4,2,3,70,0,0
814061,-100,4,2,1,70,0,0
814973,-100,4,2,3,80,0,0
815055,-100,4,2,1,70,0,0
815470,-100,4,2,3,70,0,0
815553,-100,4,2,1,70,0,0
815967,-100,4,2,3,80,0,0
816050,-100,4,2,1,70,0,0
816630,-100,4,2,3,90,0,0
816713,-100,4,2,1,70,0,0
817625,-100,4,2,3,30,0,0
819613,339.174674957603,4,2,3,30,1,0
820291,347.624565469293,4,2,3,30,1,8
820638,344.827586206897,4,2,3,30,1,8
820982,353.356890459364,4,2,3,30,1,8
821335,356.50623885918,4,2,3,30,1,0
821691,380.469245402663,4,2,3,30,1,8
822071,424.328147100424,4,2,3,30,1,8
822495,331.491712707182,4,2,3,30,1,8

[Colours]
Combo1 : 126,176,222
Combo2 : 50,94,148
SliderBorder : 58,111,173
SliderTrackOverride : 140,186,226

[HitObjects]
116,192,885,5,2,0:0:0:0:
74,62,1112,1,0,0:0:0:0:
183,142,1339,1,0,0:0:0:0:
48,142,1566,1,0,0:0:0:0:
158,62,1794,1,2,0:0:0:0:
396,192,2248,5,0,0:0:0:0:
438,62,2475,1,0,0:0:0:0:
329,142,2702,1,2,0:0:0:0:
464,142,2929,1,0,0:0:0:0:
354,62,3157,1,0,0:0:0:0:
192,296,3612,6,0,B|160:296|160:296|136:312,1,60.0000022888184,2|0,0:0|0:0,0:0:0:0:
320,296,4066,2,0,B|352:296|352:296|376:312,1,60.0000022888184
256,220,4521,2,0,B|236:160|276:160|256:100,1,120.000004577637,2|0,0:0|0:0,0:0:0:0:
324,188,5203,1,0,0:0:0:0:
188,128,5430,2,0,P|152:128|132:112,1,60.0000022888184,2|0,0:0|0:0,0:0:0:0:
324,188,5885,2,0,P|360:188|380:204,1,60.0000022888184
336,284,6339,5,2,0:0:0:0:
256,332,6566,1,0,0:0:0:0:
176,284,6794,2,0,B|132:284|132:284|100:300|100:300|52:300,2,120.000004577637,0|2|0,0:0|0:0|0:0,0:0:0:0:
256,236,7930,1,0,0:0:0:0:
256,236,8157,6,0,B|236:156|280:156|256:76,1,160,4|2,0:0|0:0,0:0:0:0:
336,24,8839,1,0,0:0:0:0:
336,24,8953,1,0,0:0:0:0:
336,24,9066,2,0,B|380:24|380:24|412:48,1,80,8|8,0:0|0:0,0:0:0:0:
476,116,9521,1,2,0:0:0:0:
476,116,9748,6,0,B|449:192|449:192|476:268,1,160,4|0,0:0|0:0,0:0:0:0:
367,266,10430,1,2,0:0:0:0:
367,266,10657,2,0,B|341:192|341:192|368:116,1,160
332,28,11339,1,8,0:0:0:0:
300,64,11453,1,8,0:0:0:0:
256,80,11566,1,8,0:0:0:0:
212,64,11680,1,8,0:0:0:0:
180,28,11794,6,0,P|100:28|40:80,1,160,4|8,0:0|0:0,0:0:0:0:
68,212,12475,2,0,P|148:212|208:160,1,160,2|2,0:0|0:0,0:0:0:0:
256,80,13157,1,8,0:0:0:0:
305,162,13385,2,0,P|365:212|444:212,1,160,2|2,0:0|0:0,0:0:0:0:
400,128,14066,1,8,0:0:0:0:
400,128,14294,2,0,L|340:280,1,160,2|0,0:0|0:0,0:0:0:0:
296,360,14975,1,8,0:0:0:0:
136,284,15203,1,0,0:0:0:0:
136,284,15316,1,0,0:0:0:0:
136,284,15430,6,0,B|96:284|96:284|64:256,1,80,2|0,0:0|0:0,0:0:0:0:
65,127,15885,1,10,0:0:0:0:
65,127,16112,2,0,B|123:127|123:127|164:108|164:108|224:108,1,160,2|2,0:0|0:0,0:0:0:0:
336,52,16794,1,8,0:0:0:0:
336,52,17021,6,0,B|278:52|278:52|237:33|237:33|180:33,1,160,4|4,0:0|0:0,0:0:0:0:
196,196,17703,1,8,0:0:0:0:
196,196,17930,2,0,P|256:240|316:196,1,160,2|4,0:0|0:0,0:0:0:0:
256,120,18612,1,8,0:0:0:0:
368,292,18839,1,8,0:0:0:0:
368,292,18953,1,8,0:0:0:0:
368,292,19066,6,0,P|340:324|296:340,1,80,4|0,0:0|0:0,0:0:0:0:
144,292,19521,2,0,P|172:324|216:340,1,80,8|0,0:0|0:0,0:0:0:0:
256,120,19975,2,0,L|256:280,1,160,2|8,0:0|0:0,0:0:0:0:
180,204,20657,1,0,0:0:0:0:
180,204,20885,2,0,L|180:124,1,80,2|0,0:0|0:0,0:0:0:0:
316,52,21339,6,0,P|256:7|195:51,1,160,8|2,0:0|0:0,0:0:0:0:
332,124,22021,1,0,0:0:0:0:
332,124,22248,2,0,L|332:204,1,80,8|0,0:0|0:0,0:0:0:0:
192,300,22703,2,0,B|232:300|256:259|256:259|280:300|320:300,1,160,2|8,0:0|0:0,0:0:0:0:
180,204,23385,1,0,0:0:0:0:
332,204,23612,2,0,B|356:168|356:168|356:132,1,80,2|0,0:0|0:0,0:0:0:0:
328,40,24066,1,8,0:0:0:0:
328,40,24294,6,0,B|286:66|286:66|216:66|216:66|184:40,1,160,2|0,0:0|0:0,0:0:0:0:
292,156,24975,2,0,B|256:139|256:139|220:156,1,80,8|0,0:0|0:0,0:0:0:0:
332,248,25430,2,0,B|256:221|256:221|182:247,1,160,2|8,0:0|0:0,0:0:0:0:
332,344,26112,1,8,0:0:0:0:
332,344,26225,1,8,0:0:0:0:
332,344,26339,6,0,B|376:344|376:344|408:364,1,80,4|0,0:0|0:0,0:0:0:0:
180,344,26794,2,0,B|136:344|136:344|104:364,1,80,8|0,0:0|0:0,0:0:0:0:
256,268,27248,2,0,B|256:200|256:200|252:192|252:192|260:192|260:192|256:184|256:184|256:116,1,160,2|8,0:0|0:0,0:0:0:0:
316,44,27930,1,0,0:0:0:0:
196,44,28157,1,2,0:0:0:0:
340,44,28385,1,0,0:0:0:0:
172,44,28612,2,0,P|128:44|100:72,1,80,8|0,0:0|0:0,0:0:0:0:
64,248,29066,6,0,P|124:292|184:248,1,160,2|8,0:0|0:0,0:0:0:0:
256,184,29748,1,0,0:0:0:0:
327,247,29975,2,0,P|387:291|448:248,1,160,4|8,0:0|0:0,0:0:0:0:
388,172,30657,1,0,0:0:0:0:
292,108,30885,2,0,B|256:91|256:91|220:108,1,80,2|0,0:0|0:0,0:0:0:0:
124,172,31339,1,8,0:0:0:0:
219,108,31566,1,0,0:0:0:0:
220,240,31794,6,0,B|256:257|256:257|292:240,1,80,4|8,0:0|0:0,0:0:0:0:
358,255,32135,1,8,0:0:0:0:
358,255,32248,2,0,L|402:327,1,80,10|0,0:0|0:0,0:0:0:0:
332,140,32703,1,8,0:0:0:0:
300,104,32817,1,8,0:0:0:0:
256,88,32930,1,8,0:0:0:0:
212,104,33044,1,8,0:0:0:0:
180,140,33157,2,0,P|140:140|108:164,1,80,10|0,0:0|0:0,0:0:0:0:
148,320,33612,6,0,P|188:320|220:296,1,80,4|0,0:0|0:0,0:0:0:0:
364,320,34066,2,0,P|324:320|292:296,1,80,8|0,0:0|0:0,0:0:0:0:
404,256,34521,2,0,P|476:236|505:162,1,160,2|8,0:0|0:0,0:0:0:0:
376,120,35203,1,0,0:0:0:0:
376,120,35430,2,0,L|432:180,1,80,2|0,0:0|0:0,0:0:0:0:
320,68,35885,6,0,B|280:68|256:109|256:109|232:68|192:68,1,160,8|2,0:0|0:0,0:0:0:0:
192,180,36566,1,0,0:0:0:0:
320,180,36794,2,0,B|352:180|352:180|356:184|356:184|356:176|356:176|360:180|360:180|392:180,1,80,8|0,0:0|0:0,0:0:0:0:
256,280,37248,2,0,B|196:280|196:280|160:300|160:300|100:300,1,160,4|8,0:0|0:0,0:0:0:0:
220,352,37930,1,0,0:0:0:0:
220,352,38157,2,0,L|300:352,1,80,2|0,0:0|0:0,0:0:0:0:
132,224,38612,2,0,L|52:224,1,80,8|0,0:0|0:0,0:0:0:0:
220,96,39066,6,0,P|256:81|292:96,1,80,4|0,0:0|0:0,0:0:0:0:
256,192,39521,1,8,0:0:0:0:
220,288,39748,1,8,0:0:0:0:
220,288,39862,1,8,0:0:0:0:
220,288,39975,2,0,B|220:336|256:354|256:354|292:336|292:288,1,160,2|8,0:0|0:0,0:0:0:0:
292,96,40657,1,8,0:0:0:0:
292,96,40771,1,8,0:0:0:0:
292,96,40885,5,4,0:0:0:0:
368,192,41112,1,0,0:0:0:0:
368,192,41339,1,2,0:0:0:0:
220,96,41566,1,8,0:0:0:0:
220,96,41680,1,8,0:0:0:0:
220,96,41794,1,8,0:0:0:0:
144,192,42021,1,0,0:0:0:0:
144,192,42248,1,2,0:0:0:0:
256,348,42475,6,0,B|232:272|280:272|256:192,1,160,4|2,0:0|0:0,0:0:0:0:
320,308,43157,1,0,0:0:0:0:
192,232,43385,2,0,B|116:256|116:208|36:232,1,160,4|2,0:0|0:0,0:0:0:0:
152,164,44066,1,8,0:0:0:0:
192,136,44180,1,8,0:0:0:0:
232,108,44294,1,8,0:0:0:0:
272,80,44407,1,8,0:0:0:0:
312,52,44521,6,0,B|392:52|392:52|452:104,1,160,4|8,0:0|0:0,0:0:0:0:
452,280,45203,2,0,B|392:332|392:332|312:332,1,160,2|2,0:0|0:0,0:0:0:0:
201,332,45885,1,8,0:0:0:0:
201,332,46112,2,0,B|160:332|128:300|128:300|44:300,1,160,2|0,0:0|0:0,0:0:0:0:
12,192,46794,1,8,0:0:0:0:
49,84,47021,2,0,B|128:84|128:84|160:52|201:52,1,160,2|2,0:0|0:0,0:0:0:0:
256,252,47703,1,8,0:0:0:0:
256,252,47930,6,0,P|300:192|256:132,1,160,2|0,0:0|0:0,0:0:0:0:
180,192,48612,1,8,0:0:0:0:
180,192,48839,2,0,L|340:192,1,160,2|0,0:0|0:0,0:0:0:0:
256,324,49521,1,8,0:0:0:0:
256,324,49748,6,0,B|196:324|196:324|160:344|160:344|100:344,1,160,6|0,0:0|0:0,0:0:0:0:
36,192,50430,1,8,0:0:0:0:
164,250,50657,2,0,B|136:272|136:272|92:272,1,80,4|0,0:0|0:0,0:0:0:0:
92,112,51112,2,0,B|136:112|136:112|164:133,1,80,2|8,0:0|0:0,0:0:0:0:
347,133,51566,1,8,0:0:0:0:
347,133,51680,1,8,0:0:0:0:
347,133,51794,6,0,B|387:133|411:174|411:174|435:133|475:133,1,160,4|8,0:0|0:0,0:0:0:0:
344,216,52486,1,0,0:0:0:0:
468,216,52717,2,0,B|485:252|485:252|468:288,1,80,2|0,0:0|0:0,0:0:0:0:
343,288,53178,2,0,B|326:252|326:252|343:216,1,80,8|0,0:0|0:0,0:0:0:0:
188,28,53640,6,0,P|148:92|186:158,1,160,2|8,0:0|0:0,0:0:0:0:
344,92,54332,1,2,0:0:0:0:
344,92,54447,1,2,0:0:0:0:
344,92,54563,2,0,B|280:76|280:112|224:92,2,120,2|2|2,0:0|0:0|0:0,0:0:0:0:
192,284,55486,6,0,B|232:284|256:243|256:243|280:284|320:284,1,160,2|8,0:0|0:0,0:0:0:0:
256,368,56178,1,2,0:0:0:0:
192,284,56409,2,0,B|168:248|168:248|168:212,1,80
320,284,56870,2,0,B|344:248|344:248|344:212,1,80,8|0,0:0|0:0,0:0:0:0:
256,172,57332,5,2,0:0:0:0:
185,101,57563,1,0,0:0:0:0:
256,30,57794,1,8,0:0:0:0:
326,101,58024,1,0,0:0:0:0:
185,101,58255,2,0,L|146:101,2,40,8|8|8,0:0|0:0|0:0,0:0:0:0:
256,30,58717,1,8,0:0:0:0:
326,101,58947,1,8,0:0:0:0:
326,101,59063,1,8,0:0:0:0:
326,101,59178,6,0,B|402:74|402:74|476:100,1,160,4|8,0:0|0:0,0:0:0:0:
366,181,59870,1,2,0:0:0:0:
366,181,60101,2,0,B|402:164|402:164|438:181,1,80
326,269,60563,2,0,B|290:286|290:286|254:269,1,80,8|0,0:0|0:0,0:0:0:0:
52,104,61024,6,0,B|126:78|126:78|202:105,1,160,2|8,0:0|0:0,0:0:0:0:
124,208,61717,1,2,0:0:0:0:
52,104,61947,2,0,L|16:136,2,40,8|8|8,0:0|0:0|0:0,0:0:0:0:
65,262,62409,2,0,L|129:202,1,80,8|0,0:0|0:0,0:0:0:0:
256,380,62870,5,2,0:0:0:0:
256,249,63101,1,0,0:0:0:0:
321,314,63332,1,8,0:0:0:0:
190,314,63563,1,0,0:0:0:0:
360,256,63794,2,0,L|380:208,2,40,2|0|0,0:0|0:0|0:0,0:0:0:0:
256,380,64255,1,8,0:0:0:0:
152,256,64486,6,0,B|128:220|128:220|128:184,1,80,12|0,0:0|0:0,0:0:0:0:
256,68,64947,1,8,0:0:0:0:
256,68,65063,1,8,0:0:0:0:
256,68,65178,2,0,B|256:100|256:100|252:104|252:104|260:104|260:104|256:108|256:108|256:140,1,80,8|0,0:0|0:0,0:0:0:0:
384,296,65640,5,8,0:0:0:0:
415,272,65755,1,8,0:0:0:0:
427,235,65870,1,8,0:0:0:0:
415,198,65986,1,8,0:0:0:0:
383,175,66101,1,8,0:0:0:0:
343,172,66217,1,8,0:0:0:0:
311,195,66332,1,8,0:0:0:0:
299,232,66448,1,8,0:0:0:0:
300,272,66563,6,0,P|269:296|230:294,1,80,4|0,0:0|0:0,0:0:0:0:
343,172,67024,2,0,P|373:147|412:149,1,80,8|0,0:0|0:0,0:0:0:0:
256,44,67486,2,0,L|256:128,1,80,2|0,0:0|0:0,0:0:0:0:
169,172,67947,2,0,P|138:147|99:149,1,80,8|0,0:0|0:0,0:0:0:0:
304,248,68409,5,2,0:0:0:0:
208,248,68640,1,0,0:0:0:0:
312,344,68870,1,8,0:0:0:0:
200,344,69101,1,2,0:0:0:0:
200,344,69217,1,2,0:0:0:0:
200,344,69332,2,0,B|132:344|132:344|88:308,2,120,2|2|2,0:0|0:0|0:0,0:0:0:0:
313,175,70255,6,0,P|322:213|304:248,1,80,2|0,0:0|0:0,0:0:0:0:
207,247,70717,2,0,P|188:214|197:175,1,80,8|0,0:0|0:0,0:0:0:0:
353,175,71178,2,0,P|362:213|344:248,1,80,2|0,0:0|0:0,0:0:0:0:
167,247,71640,2,0,P|149:213|158:175,1,80,8|0,0:0|0:0,0:0:0:0:
192,320,72101,6,0,B|232:320|256:279|256:279|280:320|320:320,1,160,2|8,0:0|0:0,0:0:0:0:
256,192,72794,1,2,0:0:0:0:
320,320,73024,2,0,L|344:284,2,40,8|8|8,0:0|0:0|0:0,0:0:0:0:
256,192,73486,1,8,0:0:0:0:
191,320,73717,1,8,0:0:0:0:
191,320,73832,1,8,0:0:0:0:
191,320,73947,6,0,B|167:284|167:284|167:248,1,80,4|0,0:0|0:0,0:0:0:0:
117,94,74410,1,8,0:0:0:0:
248,189,74640,1,2,0:0:0:0:
87,189,74871,1,0,0:0:0:0:
217,94,75102,1,0,0:0:0:0:
167,248,75332,2,0,B|167:284|167:284|191:320,1,80,8|0,0:0|0:0,0:0:0:0:
217,94,75794,6,0,B|275:94|275:94|316:75|316:75|372:75,1,160,2|8,0:0|0:0,0:0:0:0:
496,140,76486,2,0,B|439:140|439:140|398:159|398:159|340:159,1,160,2|0,0:0|0:0,0:0:0:0:
196,240,77178,1,8,0:0:0:0:
219,271,77293,1,8,0:0:0:0:
256,283,77408,1,8,0:0:0:0:
293,271,77524,1,8,0:0:0:0:
316,239,77640,6,0,B|342:165|342:165|315:89,1,160,4|8,0:0|0:0,0:0:0:0:
196,239,78332,2,0,B|170:165|170:165|197:89,1,160,2|0,0:0|0:0,0:0:0:0:
256,12,79024,1,8,0:0:0:0:
314,88,79255,1,2,0:0:0:0:
256,192,79486,12,2,81101,0:0:0:0:
196,132,81332,6,0,P|152:192|196:252,1,160,4|8,0:0|0:0,0:0:0:0:
288,192,82024,1,2,0:0:0:0:
196,132,82255,2,0,L|104:132,1,80
116,252,82717,2,0,L|196:252,1,80,8|2,0:0|0:0,0:0:0:0:
348,250,83178,2,0,B|376:272|376:272|420:272,1,80
420,112,83640,2,0,B|376:112|376:112|348:133,1,80,8|0,0:0|0:0,0:0:0:0:
348,250,84101,2,0,L|348:294,2,40,8|8|8,0:0|0:0|0:0,0:0:0:0:
420,112,84563,2,0,B|437:76|437:76|420:40,1,80,8|8,0:0|0:0,0:0:0:0:
348,40,84909,1,8,0:0:0:0:
348,40,85024,6,0,B|331:76|331:76|348:112,1,80,2|0,0:0|0:0,0:0:0:0:
164,40,85486,2,0,B|181:76|181:76|164:112,1,80,8|2,0:0|0:0,0:0:0:0:
348,40,85947,2,0,B|331:76|331:76|348:112,1,80
256,292,86409,2,0,B|256:263|256:263|260:259|260:259|252:259|252:259|256:255|256:255|256:223,1,80,8|2,0:0|0:0,0:0:0:0:
182,344,86870,6,0,B|256:318|256:318|332:345,2,160,0|8|2,0:0|0:0|0:0,0:0:0:0:
92,252,88024,1,8,0:0:0:0:
59,229,88139,1,8,0:0:0:0:
47,192,88254,1,8,0:0:0:0:
59,154,88370,1,8,0:0:0:0:
91,131,88485,1,8,0:0:0:0:
192,68,88717,6,0,B|232:68|256:27|256:27|280:68|320:68,1,160,6|8,0:0|0:0,0:0:0:0:
256,140,89369,2,0,B|280:220|232:220|256:296,1,160,2|0,0:0|0:0,0:0:0:0:
188,184,90021,1,8,0:0:0:0:
324,256,90238,1,0,0:0:0:0:
188,184,90456,2,0,B|132:184|132:184|84:164|84:164|20:164,1,160,2|8,0:0|0:0,0:0:0:0:
144,116,91108,1,0,0:0:0:0:
144,116,91217,1,0,0:0:0:0:
144,116,91325,2,0,B|188:116|188:116|220:92,1,80,2|0,0:0|0:0,0:0:0:0:
368,116,91760,2,0,B|324:116|324:116|292:92,1,80,8|0,0:0|0:0,0:0:0:0:
396,44,92195,6,0,L|396:212,1,160,6|8,0:0|0:0,0:0:0:0:
292,336,92847,1,0,0:0:0:0:
292,336,93064,2,0,P|255:351|219:336,1,80,2|0,0:0|0:0,0:0:0:0:
220,192,93499,2,0,P|256:176|292:192,1,80,8|0,0:0|0:0,0:0:0:0:
356,264,93934,1,2,0:0:0:0:
156,264,94151,1,0,0:0:0:0:
356,264,94369,2,0,P|440:264|472:200,1,160,8|2,0:0|0:0,0:0:0:0:
471,203,95021,1,0,0:0:0:0:
345,142,95238,2,0,L|401:206,1,80,8|8,0:0|0:0,0:0:0:0:
400,92,95564,1,8,0:0:0:0:
400,92,95673,6,0,L|344:28,1,80,6|0,0:0|0:0,0:0:0:0:
112,92,96108,2,0,L|168:28,1,80,8|0,0:0|0:0,0:0:0:0:
256,84,96543,2,0,B|280:164|232:164|256:240,1,160,2|10,0:0|0:0,0:0:0:0:
192,128,97195,1,0,0:0:0:0:
320,200,97412,2,0,P|400:200|452:256,1,160,6|8,0:0|0:0,0:0:0:0:
360,280,98064,1,0,0:0:0:0:
360,280,98173,1,0,0:0:0:0:
360,280,98282,2,0,L|324:352,1,80,2|0,0:0|0:0,0:0:0:0:
152,280,98717,2,0,L|188:352,1,80,8|0,0:0|0:0,0:0:0:0:
256,268,99151,6,0,B|256:208|256:208|280:164|280:164|280:112,1,160,4|8,0:0|0:0,0:0:0:0:
376,0,99803,2,0,B|376:60|376:60|352:104|352:104|352:156,1,160,2|8,0:0|0:0,0:0:0:0:
160,153,100456,1,8,0:0:0:0:
160,153,100564,1,8,0:0:0:0:
160,153,100673,2,0,P|117:153|86:175,1,80,8|2,0:0|0:0,0:0:0:0:
196,284,101108,6,0,P|256:328|316:284,1,160,14|10,0:0|0:0,0:0:0:0:
256,208,101760,1,2,0:0:0:0:
256,176,101869,1,0,0:0:0:0:
256,144,101977,1,0,0:0:0:0:
256,112,102086,1,0,0:0:0:0:
256,80,102195,1,2,0:0:0:0:
164,48,102412,1,0,0:0:0:0:
348,48,102630,6,0,P|432:48|476:108,1,160,4|8,0:0|0:0,0:0:0:0:
475,280,103282,2,0,P|425:339|348:336,1,160,2|0,0:0|0:0,0:0:0:0:
256,268,103934,1,8,0:0:0:0:
256,268,104151,1,0,0:0:0:0:
163,336,104369,2,0,P|86:339|36:280,1,160,2|8,0:0|0:0,0:0:0:0:
104,140,105021,1,0,0:0:0:0:
104,140,105130,1,0,0:0:0:0:
104,140,105238,2,0,P|144:140|176:116,1,80,2|0,0:0|0:0,0:0:0:0:
408,140,105673,2,0,P|368:140|336:116,1,80,8|0,0:0|0:0,0:0:0:0:
256,24,106108,6,0,B|280:104|232:104|256:180,1,160,6|8,0:0|0:0,0:0:0:0:
332,240,106760,2,0,B|256:267|256:267|182:241,1,160,2|10,0:0|0:0,0:0:0:0:
136,224,107303,1,8,0:0:0:0:
92,204,107412,1,8,0:0:0:0:
48,184,107521,1,8,0:0:0:0:
4,164,107630,6,0,B|24:104|76:104|76:104|136:104,1,160,6|0,0:0|0:0,0:0:0:0:
256,32,108282,1,8,0:0:0:0:
378,104,108499,1,2,0:0:0:0:
378,104,108608,1,0,0:0:0:0:
378,104,108717,2,0,B|420:104|420:104|452:128,1,80,2|8,0:0|0:0,0:0:0:0:
378,280,109151,2,0,B|420:280|420:280|452:256,1,80,8|0,0:0|0:0,0:0:0:0:
330,192,109586,6,0,B|264:192|264:192|256:196|256:196|256:188|256:188|248:192|248:192|180:192,1,160,4|2,0:0|0:0,0:0:0:0:
134,104,110238,1,0,0:0:0:0:
134,280,110456,2,0,B|92:280|92:280|60:256,1,80,8|8,0:0|0:0,0:0:0:0:
134,104,110890,2,0,B|92:104|92:104|61:126,1,80
255,193,111325,5,2,0:0:0:0:
386,98,111543,1,0,0:0:0:0:
336,252,111760,1,0,0:0:0:0:
286,98,111977,1,8,0:0:0:0:
416,193,112195,2,0,P|457:193|488:220,1,80,8|8,0:0|0:0,0:0:0:0:
336,252,112630,1,8,0:0:0:0:
286,98,112847,1,8,0:0:0:0:
286,98,112956,1,8,0:0:0:0:
286,98,113064,6,0,B|224:98|224:98|192:84|192:84|128:84,1,160,6|8,0:0|0:0,0:0:0:0:
240,24,113717,1,0,0:0:0:0:
240,24,113825,1,0,0:0:0:0:
240,24,113934,2,0,B|272:24|272:24|276:28|276:28|276:20|276:20|280:24|280:24|312:24,1,80,2|0,0:0|0:0,0:0:0:0:
168,160,114369,1,8,0:0:0:0:
168,160,114477,1,8,0:0:0:0:
168,160,114586,1,8,0:0:0:0:
256,284,114803,6,0,B|256:316|256:316|260:320|260:320|252:320|252:320|256:324|256:324|256:356,1,80,4|8,0:0|0:0,0:0:0:0:
256,352,115238,1,0,0:0:0:0:
292,216,115456,2,0,P|256:201|220:216,1,80,2|0,0:0|0:0,0:0:0:0:
344,160,115890,1,0,0:0:0:0:
344,160,115999,1,0,0:0:0:0:
344,160,116108,2,0,B|376:160|376:160|380:156|380:156|380:164|380:164|384:160|384:160|416:160,1,80,8|8,0:0|0:0,0:0:0:0:
320,72,116543,6,0,B|280:72|256:31|256:31|232:72|192:72,1,160,6|8,0:0|0:0,0:0:0:0:
88,132,117195,2,0,P|44:192|88:252,1,160,2|2,0:0|0:0,0:0:0:0:
180,284,117847,1,8,0:0:0:0:
256,228,118064,1,2,0:0:0:0:
332,284,118282,2,0,B|256:308|256:308|176:284,1,160,6|8,0:0|0:0,0:0:0:0:
179,99,118934,2,0,B|256:76|256:76|332:100,1,160,2|2,0:0|0:0,0:0:0:0:
428,120,119586,1,8,0:0:0:0:
428,264,119803,1,8,0:0:0:0:
428,264,119912,1,8,0:0:0:0:
428,264,120021,6,0,B|386:288|379:324|379:324|310:364,1,160,6|8,0:0|0:0,0:0:0:0:
201,364,120673,2,0,B|132:324|132:324|125:288|84:264,1,160,2|2,0:0|0:0,0:0:0:0:
84,120,121325,1,8,0:0:0:0:
84,120,121434,1,8,0:0:0:0:
84,120,121543,2,0,B|128:120|128:120|156:96,1,80,12|0,0:0|0:0,0:0:0:0:
428,120,121977,1,0,0:0:0:0:
428,120,122086,1,8,0:0:0:0:
428,120,122195,2,0,B|384:120|384:120|356:96,1,80,8|2,0:0|0:0,0:0:0:0:
256,192,122630,5,8,0:0:0:0:
256,192,122741,1,8,0:0:0:0:
256,192,122852,1,8,0:0:0:0:
64,104,123074,1,8,0:0:0:0:
87,72,123185,1,8,0:0:0:0:
124,60,123296,1,8,0:0:0:0:
161,72,123407,1,8,0:0:0:0:
184,105,123518,6,0,B|258:131|258:131|334:104,1,160,4|0,0:0|0:0,0:0:0:0:
256,36,124184,1,2,0:0:0:0:
384,164,124406,2,0,L|300:196,1,80
116,160,124851,2,0,L|200:192,1,80,8|0,0:0|0:0,0:0:0:0:
320,300,125295,2,0,B|280:300|256:259|256:259|232:300|192:300,1,160,2|0,0:0|0:0,0:0:0:0:
256,168,125962,1,0,0:0:0:0:
320,300,126184,2,0,B|337:264|337:264|320:228,1,80,2|0,0:0|0:0,0:0:0:0:
192,300,126629,2,0,B|175:264|175:264|192:228,1,80,0|8,0:0|0:0,0:0:0:0:
256,10,127073,6,0,B|279:87|235:87|255:167,1,160,6|0,0:0|0:0,0:0:0:0:
188,56,127740,1,0,0:0:0:0:
332,140,127962,1,2,0:0:0:0:
188,56,128184,1,0,0:0:0:0:
332,140,128406,2,0,P|376:140|404:168,1,80,8|0,0:0|0:0,0:0:0:0:
476,116,128851,6,0,L|378:242,1,160,2|0,0:0|0:0,0:0:0:0:
456,288,129518,1,0,0:0:0:0:
280,208,129740,2,0,L|336:144,1,80,2|0,0:0|0:0,0:0:0:0:
508,227,130184,2,0,L|455:287,1,80,0|8,0:0|0:0,0:0:0:0:
320,321,130629,6,0,B|280:321|256:280|256:280|232:321|192:321,1,160,6|0,0:0|0:0,0:0:0:0:
324,232,131295,1,0,0:0:0:0:
188,232,131518,2,0,B|171:196|171:196|188:160,1,80,2|0,0:0|0:0,0:0:0:0:
324,232,131962,2,0,B|341:196|341:196|324:160,1,80,8|0,0:0|0:0,0:0:0:0:
256,56,132406,2,0,B|279:133|235:133|255:213,1,160,2|0,0:0|0:0,0:0:0:0:
255,338,133073,1,0,0:0:0:0:
192,275,133295,1,0,0:0:0:0:
255,213,133518,1,0,0:0:0:0:
317,275,133740,2,0,B|353:292|353:292|389:275,1,80,2|8,0:0|0:0,0:0:0:0:
192,275,134184,6,0,B|112:295|112:251|35:274,1,160,6|0,0:0|0:0,0:0:0:0:
68,352,134851,1,2,0:0:0:0:
152,204,135073,2,0,P|168:167|198:142,1,80
256,64,135518,2,0,L|256:24,2,40,8|8|8,0:0|0:0|0:0,0:0:0:0:
340,140,135962,2,0,L|432:140,1,80,2|8,0:0|0:0,0:0:0:0:
380,224,136406,2,0,L|324:224,2,40,8|8|8,0:0|0:0|0:0,0:0:0:0:
408,68,136851,2,0,L|464:68,2,40,8|8|8,0:0|0:0|0:0,0:0:0:0:
380,224,137295,1,8,0:0:0:0:
168,100,137518,5,8,0:0:0:0:
168,100,137629,1,8,0:0:0:0:
168,100,137740,2,0,P|84:100|52:164,1,160,4|0,0:0|0:0,0:0:0:0:
154,233,138406,1,2,0:0:0:0:
154,233,138629,2,0,L|124:148,1,80
76,268,139073,2,0,L|102:343,1,80,8|0,0:0|0:0,0:0:0:0:
309,214,139517,6,0,B|252:214|252:214|211:233|211:233|153:233,1,160,2|0,0:0|0:0,0:0:0:0:
284,288,140184,1,0,0:0:0:0:
284,288,140406,2,0,B|324:288|324:288|356:316,1,80,2|0,0:0|0:0,0:0:0:0:
284,132,140851,2,0,B|324:132|324:132|356:104,1,80,0|8,0:0|0:0,0:0:0:0:
224,192,141295,2,0,L|124:192,1,80,6|0,0:0|0:0,0:0:0:0:
24,192,141740,1,0,0:0:0:0:
96,80,141962,1,0,0:0:0:0:
24,192,142184,2,0,B|24:232|24:232|52:264,2,80,2|0|8,0:0|0:0|0:0,0:0:0:0:
16,336,142851,2,0,P|100:336|132:272,1,160,2|0,0:0|0:0,0:0:0:0:
256,328,143517,5,0,0:0:0:0:
292,228,143740,2,0,B|256:245|256:245|220:228,1,80,0|2,0:0|0:0,0:0:0:0:
252,128,144184,1,0,0:0:0:0:
220,244,144406,2,0,B|256:261|256:261|292:244,1,80
351,291,144740,1,0,0:0:0:0:
351,291,144851,6,0,B|428:314|428:270|508:290,1,160,4|0,0:0|0:0,0:0:0:0:
440,144,145517,1,2,0:0:0:0:
440,144,145740,2,0,L|472:232,1,80
360,156,146184,2,0,L|332:80,1,80,8|0,0:0|0:0,0:0:0:0:
256,176,146629,5,2,0:0:0:0:
327,247,146851,1,0,0:0:0:0:
256,318,147073,1,0,0:0:0:0:
186,247,147295,1,2,0:0:0:0:
327,247,147517,2,0,P|371:247|399:275,1,80
185,247,147962,2,0,P|141:247|113:275,1,80,0|8,0:0|0:0,0:0:0:0:
256,176,148406,5,4,0:0:0:0:
184,72,148629,2,0,L|152:104,2,40,8|8|8,0:0|0:0|0:0,0:0:0:0:
256,176,149073,1,8,0:0:0:0:
328,72,149295,2,0,B|345:108|345:108|328:144,1,80,2|8,0:0|0:0,0:0:0:0:
256,216,149740,2,0,L|256:176,2,40,8|8|8,0:0|0:0|0:0,0:0:0:0:
256,336,150184,5,4,0:0:0:0:
328,272,150406,2,0,L|376:272,2,40,8|8|8,0:0|0:0|0:0,0:0:0:0:
436,192,150851,2,0,L|388:192,2,40,8|8|8,0:0|0:0|0:0,0:0:0:0:
328,112,151295,2,0,L|376:112,2,40,8|8|8,0:0|0:0|0:0,0:0:0:0:
200,64,151740,1,8,0:0:0:0:
200,64,151851,1,8,0:0:0:0:
200,64,151962,6,0,P|156:64|124:88,1,80,4|0,0:0|0:0,0:0:0:0:
80,192,152390,1,8,0:0:0:0:
127,301,152604,2,0,B|167:301|200:328|200:328|288:328,1,160,2|0,0:0|0:0,0:0:0:0:
348,260,153247,1,8,0:0:0:0:
416,192,153462,1,0,0:0:0:0:
348,124,153676,6,0,P|296:124|240:80,1,120,2|0,0:0|0:0,0:0:0:0:
243,84,154104,2,0,L|187:144,1,80,10|0,0:0|0:0,0:0:0:0:
192,304,154533,2,0,B|232:304|256:263|256:263|280:304|320:304,1,160,2|10,0:0|0:0,0:0:0:0:
320,208,155176,1,0,0:0:0:0:
192,208,155390,6,0,B|168:172|168:172|168:136,1,80,4|0,0:0|0:0,0:0:0:0:
332,56,155819,1,8,0:0:0:0:
332,56,156033,2,0,B|256:29|256:29|180:56,1,160,2|0,0:0|0:0,0:0:0:0:
344,136,156676,2,0,B|344:172|344:172|320:208,1,80,8|0,0:0|0:0,0:0:0:0:
204,308,157104,6,0,P|256:333|308:308,1,120,2|0,0:0|0:0,0:0:0:0:
308,307,157533,2,0,L|356:380,1,80,10|0,0:0|0:0,0:0:0:0:
256,248,157962,2,0,B|232:172|280:172|256:92,1,160,2|10,0:0|0:0,0:0:0:0:
180,32,158604,1,0,0:0:0:0:
332,32,158819,6,0,B|367:74|367:74|415:87|415:87|451:130,1,160,4|8,0:0|0:0,0:0:0:0:
451,253,159462,2,0,B|415:296|415:296|367:309|367:309|332:352,1,160,2|0,0:0|0:0,0:0:0:0:
460,352,160104,2,0,L|508:288,1,80,8|0,0:0|0:0,0:0:0:0:
376,204,160533,2,0,P|316:204|276:164,1,120,2|0,0:0|0:0,0:0:0:0:
275,163,160962,2,0,L|192:164,1,80,8|0,0:0|0:0,0:0:0:0:
196,56,161390,2,0,P|256:12|316:56,1,160,2|8,0:0|0:0,0:0:0:0:
360,156,162033,1,0,0:0:0:0:
152,156,162247,6,0,P|136:192|151:228,1,80,4|0,0:0|0:0,0:0:0:0:
240,192,162676,1,8,0:0:0:0:
240,192,162890,2,0,L|76:192,1,160,2|0,0:0|0:0,0:0:0:0:
184,312,163533,2,0,B|224:312|224:312|256:336,1,80,8|0,0:0|0:0,0:0:0:0:
352,336,163962,1,4,0:0:0:0:
428,280,164176,5,0,0:0:0:0:
428,280,164283,1,0,0:0:0:0:
428,280,164390,2,0,L|460:256,1,40,8|0,0:0|0:0,0:0:0:0:
380,192,164604,1,0,0:0:0:0:
380,192,164712,1,0,0:0:0:0:
380,192,164819,2,0,L|424:192,1,40,2|0,0:0|0:0,0:0:0:0:
428,104,165033,1,0,0:0:0:0:
428,104,165140,1,0,0:0:0:0:
428,104,165247,2,0,L|460:128,1,40,8|0,0:0|0:0,0:0:0:0:
356,48,165462,1,0,0:0:0:0:
356,48,165569,1,0,0:0:0:0:
356,48,165676,6,0,B|316:48|316:48|280:28,1,80,4|0,0:0|0:0,0:0:0:0:
196,76,166104,1,8,0:0:0:0:
116,128,166319,2,0,B|116:168|157:192|157:192|116:216|116:256,1,160,2|0,0:0|0:0,0:0:0:0:
196,308,166962,1,8,0:0:0:0:
316,308,167176,1,0,0:0:0:0:
256,232,167390,6,0,L|256:108,1,120,2|0,0:0|0:0,0:0:0:0:
256,112,167819,2,0,B|304:112|304:112|332:92,1,80,10|0,0:0|0:0,0:0:0:0:
256,32,168247,2,0,B|192:32|192:32|148:52|148:52|92:52,1,160,2|10,0:0|0:0,0:0:0:0:
24,108,168890,1,0,0:0:0:0:
24,276,169104,6,0,P|64:276|96:300,1,80,4|0,0:0|0:0,0:0:0:0:
40,376,169533,1,8,0:0:0:0:
40,376,169747,2,0,L|160:256,1,160,2|0,0:0|0:0,0:0:0:0:
216,192,170390,1,8,0:0:0:0:
256,280,170604,1,0,0:0:0:0:
296,192,170819,6,0,P|352:192|392:144,1,120,2|0,0:0|0:0,0:0:0:0:
391,146,171247,2,0,L|460:192,1,80,10|0,0:0|0:0,0:0:0:0:
324,104,171676,2,0,B|278:71|278:71|229:71|229:71|183:39,1,160,2|10,0:0|0:0,0:0:0:0:
184,40,172319,1,0,0:0:0:0:
72,168,172533,6,0,B|117:200|117:200|166:200|166:200|212:232,1,160,4|8,0:0|0:0,0:0:0:0:
440,168,173176,2,0,B|394:200|394:200|345:200|345:200|299:232,1,160,2|0,0:0|0:0,0:0:0:0:
168,308,173819,1,8,0:0:0:0:
256,348,174033,1,0,0:0:0:0:
344,308,174247,6,0,B|388:308|388:308|416:328|416:328|460:328,1,120,2|0,0:0|0:0,0:0:0:0:
457,328,174676,2,0,L|492:256,1,80,8|0,0:0|0:0,0:0:0:0:
436,176,175104,2,0,P|356:176|312:116,1,160,2|8,0:0|0:0,0:0:0:0:
312,116,175747,1,0,0:0:0:0:
420,36,175962,6,0,L|392:112,1,80,4|0,0:0|0:0,0:0:0:0:
284,191,176390,2,0,L|312:115,1,80
256,36,176819,1,8,0:0:0:0:
201,115,177033,2,0,B|161:115|137:74|137:74|113:115|73:115,1,160,2|8,0:0|0:0,0:0:0:0:
24,164,177569,1,8,0:0:0:0:
24,164,177676,6,0,P|8:200|23:236,1,80,2|0,0:0|0:0,0:0:0:0:
180,344,177997,2,0,P|195:307|180:271,1,80
112,308,178319,1,0,0:0:0:0:
112,308,178533,2,0,L|288:308,1,160,8|8,0:0|0:0,0:0:0:0:
272,308,179069,1,8,0:0:0:0:
272,308,179176,1,8,0:0:0:0:
456,168,179390,6,0,P|368:168|320:120,1,160,4|8,0:0|0:0,0:0:0:0:
191,120,180033,2,0,P|133:172|56:168,1,160,2|2,0:0|0:0,0:0:0:0:
76,28,180676,2,0,L|108:104,1,80,8|0,0:0|0:0,0:0:0:0:
192,232,181104,2,0,B|232:232|256:191|256:191|280:232|320:232,1,160,2|8,0:0|0:0,0:0:0:0:
256,288,181747,2,0,L|256:128,1,160,2|2,0:0|0:0,0:0:0:0:
192,56,182390,2,0,B|148:56|148:56|108:84,1,80,8|0,0:0|0:0,0:0:0:0:
320,56,182819,6,0,B|376:56|376:56|420:76|420:76|480:76,1,160,4|8,0:0|0:0,0:0:0:0:
356,128,183462,2,0,B|300:128|300:128|256:108|256:108|196:108,1,160,2|2,0:0|0:0,0:0:0:0:
104,192,184104,1,8,0:0:0:0:
200,276,184319,1,0,0:0:0:0:
200,276,184426,1,0,0:0:0:0:
200,276,184533,6,0,B|256:276|256:276|300:256|300:256|356:256,1,160,4|8,0:0|0:0,0:0:0:0:
236,204,185176,1,2,0:0:0:0:
236,204,185390,2,0,B|207:204|207:204|203:200|203:200|203:208|203:208|199:204|199:204|167:204,1,80
320,332,185819,2,0,B|348:332|348:332|352:336|352:336|352:328|352:328|356:332|356:332|388:332,1,80,8|8,0:0|0:0,0:0:0:0:
364,180,186241,5,4,0:0:0:0:
314,27,186452,1,0,0:0:0:0:
445,122,186663,1,8,0:0:0:0:
284,122,186874,1,0,0:0:0:0:
414,27,187086,2,0,B|458:27|458:27|498:55,1,80,2|0,0:0|0:0,0:0:0:0:
314,27,187508,2,0,B|270:27|270:27|230:55,1,80,8|0,0:0|0:0,0:0:0:0:
92,264,187931,5,2,0:0:0:0:
92,122,188142,1,0,0:0:0:0:
21,193,188353,1,8,0:0:0:0:
162,193,188564,1,0,0:0:0:0:
21,193,188776,2,0,B|4:157|4:157|21:121,1,80,2|0,0:0|0:0,0:0:0:0:
162,193,189198,2,0,B|179:157|179:157|162:121,1,80,8|0,0:0|0:0,0:0:0:0:
196,304,189621,5,2,0:0:0:0:
316,304,189832,1,0,0:0:0:0:
172,304,190043,1,8,0:0:0:0:
340,304,190255,1,0,0:0:0:0:
172,304,190466,2,0,P|128:304|100:332,1,80,2|0,0:0|0:0,0:0:0:0:
340,304,190888,2,0,P|384:304|412:332,1,80,8|0,0:0|0:0,0:0:0:0:
256,196,191311,6,0,L|256:116,1,80,2|0,0:0|0:0,0:0:0:0:
320,20,191733,2,0,B|320:60|320:60|348:92,1,80,8|0,0:0|0:0,0:0:0:0:
165,90,192156,2,0,B|192:60|192:60|192:20,1,80,2|0,0:0|0:0,0:0:0:0:
320,20,192579,2,0,B|320:60|320:60|348:92,1,80,8|0,0:0|0:0,0:0:0:0:
256,196,193001,5,2,0:0:0:0:
306,349,193212,1,0,0:0:0:0:
175,254,193424,1,8,0:0:0:0:
336,254,193635,1,0,0:0:0:0:
206,349,193846,2,0,B|170:332|170:332|134:349,1,80,2|0,0:0|0:0,0:0:0:0:
306,349,194269,2,0,B|342:332|342:332|378:349,1,80,8|0,0:0|0:0,0:0:0:0:
256,196,194691,5,2,0:0:0:0:
256,54,194902,1,0,0:0:0:0:
185,125,195114,1,8,0:0:0:0:
326,125,195325,1,0,0:0:0:0:
185,125,195536,2,0,B|168:89|168:89|185:53,1,80,2|0,0:0|0:0,0:0:0:0:
326,125,195959,2,0,B|343:89|343:89|326:53,1,80,8|0,0:0|0:0,0:0:0:0:
192,344,196381,6,0,B|232:344|256:303|256:303|280:344|320:344,1,160,2|8,0:0|0:0,0:0:0:0:
256,224,197015,1,0,0:0:0:0:
320,344,197226,2,0,B|344:308|344:308|344:272,1,80,2|0,0:0|0:0,0:0:0:0:
192,344,197649,2,0,B|168:308|168:308|168:272,1,80,8|0,0:0|0:0,0:0:0:0:
256,66,198071,6,0,B|280:144|236:144|256:224,1,160,2|8,0:0|0:0,0:0:0:0:
180,112,198705,1,0,0:0:0:0:
336,192,198917,2,0,P|380:192|408:164,1,80,8|8,0:0|0:0,0:0:0:0:
180,112,199339,2,0,P|136:112|108:140,1,80,8|8,0:0|0:0,0:0:0:0:
320,280,199762,5,4,0:0:0:0:
192,280,199973,1,0,0:0:0:0:
348,280,200184,1,8,0:0:0:0:
164,280,200395,1,0,0:0:0:0:
348,280,200607,2,0,B|365:244|365:244|348:208,1,80,2|0,0:0|0:0,0:0:0:0:
164,280,201029,2,0,B|147:244|147:244|164:208,1,80,8|0,0:0|0:0,0:0:0:0:
256,68,201452,5,2,0:0:0:0:
256,196,201663,1,0,0:0:0:0:
256,40,201874,1,8,0:0:0:0:
256,224,202085,1,0,0:0:0:0:
256,40,202297,2,0,L|344:40,1,80,2|0,0:0|0:0,0:0:0:0:
256,224,202719,2,0,L|168:224,1,80,8|0,0:0|0:0,0:0:0:0:
400,228,203142,5,2,0:0:0:0:
400,86,203353,1,0,0:0:0:0:
329,157,203564,1,8,0:0:0:0:
470,157,203776,1,0,0:0:0:0:
329,157,203987,2,0,P|329:201|357:229,1,80,2|0,0:0|0:0,0:0:0:0:
470,157,204410,2,0,P|470:201|442:229,1,80,8|0,0:0|0:0,0:0:0:0:
256,188,204832,5,2,0:0:0:0:
306,341,205043,1,0,0:0:0:0:
175,246,205255,1,8,0:0:0:0:
336,246,205466,1,0,0:0:0:0:
206,341,205677,1,2,0:0:0:0:
336,246,205888,1,0,0:0:0:0:
206,341,206100,5,8,0:0:0:0:
168,353,206205,1,8,0:0:0:0:
131,342,206311,1,8,0:0:0:0:
108,310,206416,1,8,0:0:0:0:
108,271,206522,5,2,0:0:0:0:
31,166,206733,1,0,0:0:0:0:
155,206,206945,1,0,0:0:0:0:
31,246,207156,1,0,0:0:0:0:
108,141,207367,1,2,0:0:0:0:
108,271,207579,1,0,0:0:0:0:
31,166,207790,1,0,0:0:0:0:
155,206,208001,1,0,0:0:0:0:
256,36,208212,5,8,0:0:0:0:
256,36,208424,1,10,0:0:0:0:
468,192,209057,5,8,0:0:0:0:
468,192,209269,1,10,0:0:0:0:
256,348,209902,6,0,P|176:348|120:296,1,160,4|8,0:0|0:0,0:0:0:0:
180,152,210431,1,0,0:0:0:0:
180,152,210607,2,0,P|258:151|315:203,1,160,2|8,0:0|0:0,0:0:0:0:
360,292,211137,1,0,0:0:0:0:
360,292,211313,2,0,B|400:292|400:292|436:268,1,80,2|0,0:0|0:0,0:0:0:0:
492,192,211666,2,0,B|428:172|428:124|428:124|428:64,1,160,8|2,0:0|0:0,0:0:0:0:
332,64,212196,1,0,0:0:0:0:
180,64,212372,1,8,0:0:0:0:
256,4,212549,1,0,0:0:0:0:
256,124,212725,6,0,B|280:204|232:204|256:280,1,160,2|8,0:0|0:0,0:0:0:0:
188,168,213254,1,0,0:0:0:0:
324,240,213431,2,0,P|404:240|452:300,1,160,2|8,0:0|0:0,0:0:0:0:
360,328,213960,1,0,0:0:0:0:
360,144,214137,2,0,P|374:107|358:72,1,80,2|0,0:0|0:0,0:0:0:0:
153,72,214490,2,0,P|137:107|152:144,1,80,8|0,0:0|0:0,0:0:0:0:
328,144,214843,2,0,P|342:107|326:72,1,80,2|0,0:0|0:0,0:0:0:0:
185,72,215196,2,0,P|169:107|184:144,1,80,8|0,0:0|0:0,0:0:0:0:
64,312,215549,6,0,B|104:312|128:271|128:271|152:312|192:312,1,160,2|8,0:0|0:0,0:0:0:0:
448,312,216078,2,0,B|408:312|384:271|384:271|360:312|320:312,1,160,2|0,0:0|0:0,0:0:0:0:
196,240,216607,1,8,0:0:0:0:
316,240,216784,1,0,0:0:0:0:
256,136,216960,2,0,B|312:136|340:92|340:92|408:92,1,160,2|8,0:0|0:0,0:0:0:0:
256,56,217490,2,0,B|200:56|172:100|172:100|104:100,1,160,2|0,0:0|0:0,0:0:0:0:
32,192,218019,1,8,0:0:0:0:
32,192,218196,1,0,0:0:0:0:
111,284,218372,6,0,B|136:328|180:324|180:324|220:392,1,160,2|8,0:0|0:0,0:0:0:0:
401,284,218902,2,0,B|376:328|332:324|332:324|292:392,1,160,2|0,0:0|0:0,0:0:0:0:
256,224,219431,2,0,B|256:256|256:256|252:260|252:260|260:260|260:260|256:264|256:264|256:296,1,80,8|0,0:0|0:0,0:0:0:0:
196,176,219784,2,0,P|256:132|316:176,1,160,2|8,0:0|0:0,0:0:0:0:
136,124,220313,1,0,0:0:0:0:
376,124,220490,2,0,P|350:88|321:69,1,80,4|0,0:0|0:0,0:0:0:0:
136,124,220843,2,0,P|162:88|191:69,1,80,2|8,0:0|0:0,0:0:0:0:
256,108,221107,1,8,0:0:0:0:
256,108,221196,6,0,B|280:188|232:188|256:264,1,160,4|8,0:0|0:0,0:0:0:0:
324,332,221725,1,0,0:0:0:0:
188,332,221902,2,0,B|104:332|104:332|44:280,1,160,2|8,0:0|0:0,0:0:0:0:
172,264,222431,1,0,0:0:0:0:
172,264,222607,2,0,B|132:264|132:264|100:236,1,80,2|0,0:0|0:0,0:0:0:0:
172,120,222960,2,0,B|132:120|132:120|100:148,1,80,8|0,0:0|0:0,0:0:0:0:
236,192,223313,2,0,B|296:192|296:192|340:212|340:212|392:212,1,160,2|8,0:0|0:0,0:0:0:0:
508,164,223843,1,0,0:0:0:0:
508,164,224019,6,0,B|448:164|448:164|404:144|404:144|352:144,1,160,2|8,0:0|0:0,0:0:0:0:
212,23,224549,1,0,0:0:0:0:
212,23,224725,2,0,P|197:59|212:96,1,80,2|0,0:0|0:0,0:0:0:0:
300,96,225078,2,0,P|315:60|300:24,1,80,8|0,0:0|0:0,0:0:0:0:
160,144,225431,2,0,B|108:144|108:144|64:164|64:164|4:164,1,160,2|8,0:0|0:0,0:0:0:0:
120,212,225960,1,0,0:0:0:0:
120,212,226137,2,0,B|172:212|172:212|216:192|216:192|276:192,1,160,2|8,0:0|0:0,0:0:0:0:
372,192,226666,1,0,0:0:0:0:
444,128,226843,6,0,B|444:168|485:192|485:192|444:216|444:256,1,160,2|8,0:0|0:0,0:0:0:0:
320,328,227372,2,0,B|280:328|256:369|256:369|232:328|192:328,1,160,2|0,0:0|0:0,0:0:0:0:
164,236,227902,1,8,0:0:0:0:
256,192,228078,1,0,0:0:0:0:
348,236,228254,2,0,B|392:196|392:144|392:144|392:80,1,160,2|8,0:0|0:0,0:0:0:0:
120,89,228784,2,0,B|120:144|120:144|120:196|164:236,1,160,2|0,0:0|0:0,0:0:0:0:
196,104,229313,2,0,B|196:64|196:64|176:28,1,80,8|0,0:0|0:0,0:0:0:0:
316,104,229666,6,0,B|316:64|316:64|336:28,1,80,2|0,0:0|0:0,0:0:0:0:
256,164,230019,2,0,B|280:244|232:244|256:320,1,160,8|2,0:0|0:0,0:0:0:0:
188,208,230549,1,0,0:0:0:0:
324,280,230725,2,0,B|364:280|364:280|396:304,1,80,8|0,0:0|0:0,0:0:0:0:
188,208,231078,2,0,B|132:208|96:168|96:168|36:168,1,160,2|12,0:0|0:0,0:0:0:0:
172,128,231607,1,0,0:0:0:0:
172,128,231784,2,0,L|204:52,1,80,2|0,0:0|0:0,0:0:0:0:
340,128,232137,2,0,L|308:52,1,80,8|0,0:0|0:0,0:0:0:0:
324,208,232490,6,0,B|380:208|416:168|416:168|476:168,1,160,4|2,0:0|0:0,0:0:0:0:
472,264,233019,1,0,0:0:0:0:
472,264,233196,2,0,L|472:104,1,160,8|0,0:0|0:0,0:0:0:0:
408,32,233725,1,0,0:0:0:0:
408,32,233902,2,0,P|371:16|335:32,1,80,2|0,0:0|0:0,0:0:0:0:
220,152,234254,2,0,P|256:167|292:151,1,80
176,32,234607,2,0,P|140:16|104:32,1,80,8|0,0:0|0:0,0:0:0:0:
140,116,234960,1,0,0:0:0:0:
256,32,235137,1,0,0:0:0:0:
372,116,235313,6,0,B|372:176|372:176|396:216|396:216|396:272,1,160,2|0,0:0|0:0,0:0:0:0:
336,344,235843,1,0,0:0:0:0:
396,269,236019,1,8,0:0:0:0:
276,268,236196,2,0,B|276:214|276:214|300:174|300:174|300:114,1,160,2|4,0:0|0:0,0:0:0:0:
132,55,236725,1,2,0:0:0:0:
82,209,236901,1,0,0:0:0:0:
212,114,237078,1,0,0:0:0:0:
51,114,237254,1,0,0:0:0:0:
182,209,237431,2,0,B|224:208|224:208|256:232,1,80,8|0,0:0|0:0,0:0:0:0:
336,280,237784,1,2,0:0:0:0:
428,192,238026,5,0,0:0:0:0:
428,192,238147,2,0,P|452:148|436:96,1,106.666666666667,4|0,0:0|0:0,0:0:0:0:
368,44,238510,2,0,P|352:93|376:139,1,106.666666666667,8|0,0:0|0:0,0:0:0:0:
428,192,238874,1,2,0:0:0:0:
308,308,239116,5,0,0:0:0:0:
308,308,239237,2,0,B|255:296|255:296|205:309,1,106.666666666667,8|0,0:0|0:0,0:0:0:0:
256,216,239601,2,0,L|256:104,1,106.666666666667,2|0,0:0|0:0,0:0:0:0:
256,24,239965,1,8,0:0:0:0:
152,132,240207,1,0,0:0:0:0:
152,132,240328,2,0,B|104:132|104:132|84:124|84:124|44:124,1,106.666666666667,2|0,0:0|0:0,0:0:0:0:
8,188,240692,1,8,0:0:0:0:
136,268,240934,5,8,0:0:0:0:
136,268,241056,2,0,P|176:264|216:320,1,106.666666666667,10|0,0:0|0:0,0:0:0:0:
296,311,241419,2,0,P|324:268|376:268,1,106.666666666667,8|0,0:0|0:0,0:0:0:0:
436,324,241783,1,2,0:0:0:0:
256,228,242025,1,0,0:0:0:0:
256,228,242147,2,0,L|256:116,1,106.666666666667,8|0,0:0|0:0,0:0:0:0:
256,40,242510,1,2,0:0:0:0:
372,136,242753,5,0,0:0:0:0:
372,136,242874,2,0,P|417:111|467:127,1,106.666666666667,8|0,0:0|0:0,0:0:0:0:
424,200,243237,2,0,P|378:224|328:208,1,106.666666666667,2|0,0:0|0:0,0:0:0:0:
368,120,243601,2,0,P|413:95|463:111,1,106.666666666667,8|8,0:0|0:0,0:0:0:0:
424,200,243965,1,10,0:0:0:0:
216,136,244207,5,0,0:0:0:0:
216,136,244328,2,0,B|216:192|216:192|180:240,1,106.666666666667,8|0,0:0|0:0,0:0:0:0:
205,309,244692,2,0,B|255:296|255:296|308:308,1,106.666666666667,2|0,0:0|0:0,0:0:0:0:
326,232,245056,2,0,B|296:192|296:192|296:136,1,106.666666666667,8|0,0:0|0:0,0:0:0:0:
256,60,245419,1,2,0:0:0:0:
156,136,245662,5,0,0:0:0:0:
156,136,245783,2,0,B|100:120|100:156|52:136,1,106.666666666667,8|0,0:0|0:0,0:0:0:0:
136,204,246147,2,0,B|192:220|192:184|240:204,1,106.666666666667,2|0,0:0|0:0,0:0:0:0:
328,272,246510,2,0,B|272:256|272:292|224:272,1,106.666666666667,8|0,0:0|0:0,0:0:0:0:
300,340,246874,6,0,B|380:364|380:316|456:340,1,160,4|8,0:0|0:0,0:0:0:0:
472,192,247480,1,0,0:0:0:0:
472,192,247601,2,0,P|480:136|448:92,1,106.666666666667,2|0,0:0|0:0,0:0:0:0:
343,192,247965,2,0,P|335:136|367:92,1,106.666666666667,8|0,0:0|0:0,0:0:0:0:
472,192,248328,2,0,B|432:192|408:151|408:151|384:192|344:192,1,160,4|8,0:0|0:0,0:0:0:0:
64,152,248934,5,2,0:0:0:0:
64,152,249056,2,0,L|32:100,2,53.3333333333333,8|8|8,0:0|0:0|0:0,0:0:0:0:
68,232,249419,2,0,L|40:277,2,53.3333333333333,8|8|8,0:0|0:0|0:0,0:0:0:0:
148,192,249783,6,0,B|192:192|192:192|216:204|216:204|260:204,1,106.666666666667,4|0,0:0|0:0,0:0:0:0:
344,144,250147,2,0,B|300:144|300:144|276:132|276:132|232:132,1,106.666666666667,2|0,0:0|0:0,0:0:0:0:
148,208,250510,2,0,B|192:208|192:208|216:220|216:220|260:220,1,106.666666666667,8|0,0:0|0:0,0:0:0:0:
332,220,250874,1,2,0:0:0:0:
144,111,251116,5,8,0:0:0:0:
144,111,251237,2,0,B|168:159|168:159|144:215,1,106.666666666667,8|8,0:0|0:0,0:0:0:0:
56,112,251601,2,0,B|32:160|32:160|56:216,1,106.666666666667,2|0,0:0|0:0,0:0:0:0:
40,304,251965,2,0,B|80:304|104:263|104:263|128:304|168:304,1,160,8|2,0:0|0:0,0:0:0:0:
452,304,252571,5,8,0:0:0:0:
452,304,252692,2,0,P|460:248|428:204,1,106.666666666667,12|0,0:0|0:0,0:0:0:0:
323,304,253056,2,0,P|315:248|347:204,1,106.666666666667,2|0,0:0|0:0,0:0:0:0:
472,304,253419,2,0,P|480:248|448:204,1,106.666666666667,12|0,0:0|0:0,0:0:0:0:
304,304,253783,2,0,P|296:248|328:204,1,106.666666666667,2|0,0:0|0:0,0:0:0:0:
324,116,254147,6,0,B|364:116|388:157|388:157|412:116|452:116,1,160,12|8,0:0|0:0,0:0:0:0:
322,208,254753,1,8,0:0:0:0:
322,208,254874,2,0,L|212:208,1,106.666666666667,12|0,0:0|0:0,0:0:0:0:
168,128,255237,2,0,L|286:128,1,106.666666666667,2|0,0:0|0:0,0:0:0:0:
256,48,255601,1,4,0:0:0:0:
215,208,255843,5,0,0:0:0:0:
215,208,255965,2,0,P|195:256|212:305,1,106.666666666667,2|0,0:0|0:0,0:0:0:0:
297,208,256328,2,0,P|316:256|299:305,1,106.666666666667,8|0,0:0|0:0,0:0:0:0:
256,368,256692,1,10,0:0:0:0:
300,124,256934,5,0,0:0:0:0:
300,124,257056,1,12,0:0:0:0:
300,124,258025,5,8,0:0:0:0:
300,124,258147,2,0,L|300:60,2,53.3333333333333,8|0|0,0:0|0:0|0:0,0:0:0:0:
228,168,258510,6,0,B|304:141|304:141|378:167,1,160,6|8,0:0|0:0,0:0:0:0:
280,228,259116,1,0,0:0:0:0:
280,228,259237,2,0,P|240:252|188:232,1,106.666666666667,2|0,0:0|0:0,0:0:0:0:
135,164,259601,2,0,P|182:143|228:168,1,106.666666666667,10|0,0:0|0:0,0:0:0:0:
116,248,259965,2,0,L|116:80,1,160,2|8,0:0|0:0,0:0:0:0:
464,192,260571,5,0,0:0:0:0:
464,192,260692,2,0,P|472:136|440:92,1,106.666666666667,2|0,0:0|0:0,0:0:0:0:
353,96,261056,2,0,P|325:140|335:192,1,106.666666666667,10|0,0:0|0:0,0:0:0:0:
464,192,261419,2,0,B|424:192|400:151|400:151|376:192|336:192,1,160,6|10,0:0|0:0,0:0:0:0:
104,192,262025,5,0,0:0:0:0:
104,192,262147,2,0,B|160:208|160:172|208:192,1,106.666666666667,2|0,0:0|0:0,0:0:0:0:
296,260,262510,2,0,B|240:244|240:280|192:260,1,106.666666666667,10|0,0:0|0:0,0:0:0:0:
264,320,262874,6,0,L|264:376,2,53.3333333333333,14|8|8,0:0|0:0|0:0,0:0:0:0:
344,372,263237,2,0,L|344:318,2,53.3333333333333,10|8|8,0:0|0:0|0:0,0:0:0:0:
420,320,263601,2,0,L|420:376,2,53.3333333333333,10|8|8,0:0|0:0|0:0,0:0:0:0:
496,372,263965,2,0,L|496:318,2,53.3333333333333,10|8|8,0:0|0:0|0:0,0:0:0:0:
411,235,264328,6,0,B|460:256|460:256|508:232,1,106.666666666667,6|0,0:0|0:0,0:0:0:0:
508,152,264692,2,0,B|460:128|460:128|411:148,1,106.666666666667,2|0,0:0|0:0,0:0:0:0:
411,247,265056,2,0,B|460:268|460:268|508:244,1,106.666666666667,12|0,0:0|0:0,0:0:0:0:
508,140,265419,2,0,B|460:116|460:116|411:136,1,106.666666666667,2|0,0:0|0:0,0:0:0:0:
316,192,265783,1,10,0:0:0:0:
204,220,266025,5,0,0:0:0:0:
204,220,266146,2,0,P|164:244|112:224,1,106.666666666667,2|0,0:0|0:0,0:0:0:0:
59,156,266510,2,0,P|106:135|152:160,1,106.666666666667,12|0,0:0|0:0,0:0:0:0:
204,220,266874,1,2,0:0:0:0:
428,80,267116,5,8,0:0:0:0:
428,80,267237,2,0,B|388:80|364:121|364:121|340:80|300:80,1,160,6|8,0:0|0:0,0:0:0:0:
300,260,267843,1,0,0:0:0:0:
300,260,267965,2,0,B|316:204|280:204|300:156,1,106.666666666667,2|0,0:0|0:0,0:0:0:0:
228,232,268328,2,0,B|208:280|244:280|228:336,1,106.666666666667,10|0,0:0|0:0,0:0:0:0:
152,276,268692,2,0,B|128:200|176:200|152:120,2,160,14|2|8,0:0|0:0|0:0,0:0:0:0:
256,36,271225,6,0,B|279:113|235:113|255:193,2,160,4|2|8,0:0|0:0|0:0,0:0:0:0:
328,280,272310,1,2,0:0:0:0:
256,344,272490,1,0,0:0:0:0:
184,280,272671,2,0,B|128:280|128:280|84:256|84:256|24:256,1,160,0|2,0:0|0:0,0:0:0:0:
30,128,273394,2,0,B|84:128|84:128|128:104|128:104|184:104,1,160,8|2,0:0|0:0,0:0:0:0:
256,40,273936,1,0,0:0:0:0:
328,104,274117,6,0,B|384:104|384:104|428:128|428:128|481:128,2,160,0|2|8,0:0|0:0|0:0,0:0:0:0:
292,292,275201,2,0,P|255:276|219:291,1,80,2|0,0:0|0:0,0:0:0:0:
256,380,275563,2,0,L|256:216,1,160,0|2,0:0|0:0,0:0:0:0:
192,148,276105,1,0,0:0:0:0:
192,148,276286,2,0,B|232:148|256:107|256:107|280:148|320:148,1,160,8|8,0:0|0:0,0:0:0:0:
320,244,276828,1,8,0:0:0:0:
192,244,277008,6,0,B|144:244|112:272|112:272|32:272,1,160,4|2,0:0|0:0,0:0:0:0:
320,244,277731,2,0,B|368:244|400:272|400:272|480:272,1,160,8|2,0:0|0:0,0:0:0:0:
472,368,278273,1,0,0:0:0:0:
472,368,278454,2,0,L|472:204,1,160,0|2,0:0|0:0,0:0:0:0:
440,32,278996,1,0,0:0:0:0:
440,32,279177,2,0,P|360:32|304:84,1,160,8|2,0:0|0:0,0:0:0:0:
256,168,279719,1,0,0:0:0:0:
207,83,279900,6,0,P|150:31|72:32,1,160,0|2,0:0|0:0,0:0:0:0:
72,352,280623,2,0,P|150:352|207:300,1,160,8|2,0:0|0:0,0:0:0:0:
304,300,281165,2,0,P|361:352|439:352,1,160
392,268,281707,1,2,0:0:0:0:
256,192,281888,1,0,0:0:0:0:
120,268,282069,2,0,B|120:204|120:204|96:168|96:168|96:108,1,160,8|2,0:0|0:0,0:0:0:0:
96,115,282611,1,0,0:0:0:0:
232,39,282792,6,0,B|232:103|232:103|256:139|256:139|256:199,1,160,4|2,0:0|0:0,0:0:0:0:
304,80,283334,1,0,0:0:0:0:
304,80,283514,2,0,L|304:-4,1,80,8|0,0:0|0:0,0:0:0:0:
184,168,283876,2,0,L|184:252,1,80,2|0,0:0|0:0,0:0:0:0:
316,331,284237,2,0,P|256:375|196:332,1,160,0|2,0:0|0:0,0:0:0:0:
316,248,284780,1,0,0:0:0:0:
316,248,284960,2,0,P|375:203|436:247,1,160,8|2,0:0|0:0,0:0:0:0:
436,247,285502,1,0,0:0:0:0:
320,136,285683,6,0,B|280:136|256:95|256:95|232:136|192:136,1,160,0|2,0:0|0:0,0:0:0:0:
60,56,286225,1,0,0:0:0:0:
60,56,286406,2,0,B|100:56|124:97|124:97|148:56|188:56,1,160,8|2,0:0|0:0,0:0:0:0:
324,55,286948,1,0,0:0:0:0:
256,192,287129,2,0,B|256:224|256:224|252:228|252:228|260:228|260:228|256:232|256:232|256:260,1,80
168,364,287490,2,0,B|168:332|168:332|172:328|172:328|164:328|164:328|168:324|168:324|168:296,1,80,2|0,0:0|0:0,0:0:0:0:
344,295,287852,2,0,B|396:268|424:296|424:296|496:268,1,160,8|2,0:0|0:0,0:0:0:0:
436,192,288394,1,0,0:0:0:0:
492,114,288575,6,0,B|424:88|424:88|396:116|344:89,1,160,0|2,0:0|0:0,0:0:0:0:
304,0,289117,1,0,0:0:0:0:
208,0,289298,1,8,0:0:0:0:
256,84,289478,1,0,0:0:0:0:
160,84,289659,2,0,P|80:84|28:140,1,160,2|0,0:0|0:0,0:0:0:0:
160,300,290382,2,0,P|80:300|28:244,2,160,2|8|2,0:0|0:0|0:0,0:0:0:0:
256,236,291286,1,0,0:0:0:0:
352,300,291466,5,8,0:0:0:0:
352,300,291647,2,0,B|372:275|372:275|378:274|378:274|372:269|372:269|377:269|377:269|398:244,1,80,8|0,0:0|0:0,0:0:0:0:
352,84,292008,1,8,0:0:0:0:
352,84,292189,2,0,B|372:108|372:108|378:109|378:109|372:114|372:114|377:114|377:114|398:139,1,80,8|0,0:0|0:0,0:0:0:0:
512,192,292551,1,10,0:0:0:0:
0,192,293635,5,2,0:0:0:0:
128,336,293996,1,2,0:0:0:0:
256,192,294358,1,2,0:0:0:0:
512,192,295081,1,2,0:0:0:0:
384,48,295442,1,2,0:0:0:0:
256,192,295804,1,0,0:0:0:0:
128,48,296526,5,10,0:0:0:0:
128,48,296888,1,2,0:0:0:0:
256,192,297249,1,2,0:0:0:0:
256,192,297611,1,2,0:0:0:0:
384,48,297972,1,2,0:0:0:0:
384,48,298334,1,2,0:0:0:0:
384,336,299418,5,10,0:0:0:0:
384,336,299780,1,2,0:0:0:0:
256,192,300141,1,2,0:0:0:0:
256,192,300503,1,2,0:0:0:0:
128,336,300864,1,2,0:0:0:0:
128,336,301226,1,2,0:0:0:0:
256,304,302310,5,10,0:0:0:0:
186,88,302671,1,2,0:0:0:0:
369,221,303033,1,2,0:0:0:0:
142,221,303394,1,2,0:0:0:0:
326,88,303755,1,2,0:0:0:0:
256,304,304117,1,2,0:0:0:0:
256,80,305201,5,8,0:0:0:0:
256,192,305563,1,8,0:0:0:0:
256,192,305743,1,8,0:0:0:0:
256,192,305924,6,0,B|236:249|276:249|256:309,1,120.000004577637,4|0,0:0|0:0,0:0:0:0:
326,221,306842,2,0,B|346:161|306:161|325:103,1,120.000004577637,2|0,0:0|0:0,0:0:0:0:
395,14,307760,2,0,B|376:72|416:72|396:132,1,120.000004577637,2|0,0:0|0:0,0:0:0:0:
308,264,308679,2,0,P|256:290|205:264,1,120.000004577637,2|0,0:0|0:0,0:0:0:0:
256,196,309393,1,0,0:0:0:0:
256,196,309495,1,0,0:0:0:0:
256,196,309597,2,0,L|256:124,1,60.0000022888185,2|0,0:0|0:0,0:0:0:0:
344,108,310209,2,0,L|344:168,1,60.0000022888184,0|4,0:0|0:0,0:0:0:0:
208,80,310821,6,0,B|150:60|150:100|90:80,1,120.000004577637,4|0,0:0|0:0,0:0:0:0:
40,176,311740,2,0,B|40:224|40:224|48:248|48:248|48:296,1,120.000004577637,2|0,0:0|0:0,0:0:0:0:
120,372,312658,2,0,B|120:325|120:325|128:301|128:301|128:253,1,120.000004577637,2|0,0:0|0:0,0:0:0:0:
312,176,313577,2,0,B|280:176|256:159|256:159|232:176|196:176,1,120.000004577637,2|0,0:0|0:0,0:0:0:0:
204,96,314291,1,0,0:0:0:0:
204,96,314393,1,0,0:0:0:0:
204,96,314495,2,0,P|198:65|212:36,1,60.0000022888185,2|8,0:0|0:0,0:0:0:0:
302,39,315107,2,0,P|313:66|308:96,1,60.0000022888185,8|8,0:0|0:0,0:0:0:0:
256,280,315719,6,0,B|236:220|276:220|256:162,1,120.000004577637,4|0,0:0|0:0,0:0:0:0:
312,364,316638,2,0,B|280:364|256:347|256:347|232:364|196:364,1,120.000004577637,2|0,0:0|0:0,0:0:0:0:
72,288,317556,2,0,B|104:288|128:305|128:305|152:288|188:288,1,120.000004577637,2|0,0:0|0:0,0:0:0:0:
256,192,318475,1,2,0:0:0:0:
328,284,318781,5,0,0:0:0:0:
256,192,318985,2,0,L|256:160,1,20.0000007629395,8|8,0:0|0:0,0:0:0:0:
340,88,319291,2,0,L|340:108,1,20.0000007629395,8|8,0:0|0:0,0:0:0:0:
424,188,319597,2,0,L|424:156,1,20.0000007629395,0|8,0:0|0:0,0:0:0:0:
327,283,320005,1,2,0:0:0:0:
256,192,320311,2,0,L|256:160,2,20.0000007629395,8|8|8,0:0|0:0|0:0,0:0:0:0:
256,260,320617,6,0,P|221:289|178:289,1,90.0000034332277,4|0,0:0|0:0,0:0:0:0:
192,216,321230,1,8,0:0:0:0:
192,216,321536,1,8,0:0:0:0:
93,216,321842,1,8,0:0:0:0:
93,216,322148,1,8,0:0:0:0:
43,130,322454,1,8,0:0:0:0:
43,130,322760,1,8,0:0:0:0:
93,44,323066,5,8,0:0:0:0:
93,44,323372,1,8,0:0:0:0:
192,44,323679,1,8,0:0:0:0:
192,44,323984,1,8,0:0:0:0:
241,130,324291,5,12,0:0:0:0:
241,130,324597,2,0,L|277:131,2,20.0000007629395,8|8|8,0:0|0:0|0:0,0:0:0:0:
288,200,324903,2,0,L|261:200,2,20.0000007629395,8|8|8,0:0|0:0|0:0,0:0:0:0:
296,272,325209,2,0,L|331:272,2,20.0000007629395,8|8|8,0:0|0:0|0:0,0:0:0:0:
256,344,325515,5,4,0:0:0:0:
356,192,325821,1,2,0:0:0:0:
256,344,326128,2,0,L|291:344,2,20.0000007629395,8|8|8,0:0|0:0|0:0,0:0:0:0:
180,344,326434,5,4,0:0:0:0:
356,192,326740,1,2,0:0:0:0:
296,272,327046,2,0,L|330:271,2,20.0000007629395,8|8|8,0:0|0:0|0:0,0:0:0:0:
224,272,327352,5,4,0:0:0:0:
356,192,327658,1,2,0:0:0:0:
256,40,327964,2,0,L|221:40,2,20.0000007629395,8|8|8,0:0|0:0|0:0,0:0:0:0:
332,40,328270,5,4,0:0:0:0:
156,192,328577,1,2,0:0:0:0:
216,112,328883,2,0,L|196:112,2,20.0000007629395,8|8|8,0:0|0:0|0:0,0:0:0:0:
288,112,329189,5,4,0:0:0:0:
156,192,329495,2,0,L|136:192,2,20.0000007629395,8|8|8,0:0|0:0|0:0,0:0:0:0:
200,260,329801,2,0,L|200:279,2,20.0000007629395,8|8|8,0:0|0:0|0:0,0:0:0:0:
236,192,330107,1,8,0:0:0:0:
252,180,330209,1,8,0:0:0:0:
268,168,330311,1,8,0:0:0:0:
284,157,330413,5,4,0:0:0:0:
392,72,330719,1,2,0:0:0:0:
328,256,331026,2,0,L|328:292,2,20.0000007629395,8|8|8,0:0|0:0|0:0,0:0:0:0:
256,256,331332,5,4,0:0:0:0:
392,72,331638,1,2,0:0:0:0:
256,256,331944,2,0,L|256:292,2,20.0000007629395,8|8|8,0:0|0:0|0:0,0:0:0:0:
184,256,332250,5,4,0:0:0:0:
392,72,332556,1,2,0:0:0:0:
184,256,332862,2,0,L|184:292,2,20.0000007629395,8|8|8,0:0|0:0|0:0,0:0:0:0:
256,256,333168,5,4,0:0:0:0:
120,72,333474,1,2,0:0:0:0:
256,256,333780,2,0,L|256:292,2,20.0000007629395,8|8|8,0:0|0:0|0:0,0:0:0:0:
328,256,334086,5,4,0:0:0:0:
120,72,334392,1,10,0:0:0:0:
120,72,334699,1,8,0:0:0:0:
256,0,335005,1,8,0:0:0:0:
392,72,335311,5,4,0:0:0:0:
392,192,335617,1,8,0:0:0:0:
336,252,335821,2,0,L|304:252,1,20.0000007629395,8|2,0:0|0:0,0:0:0:0:
256,144,336230,5,4,0:0:0:0:
176,252,336536,1,8,0:0:0:0:
108,200,336740,2,0,L|108:168,1,20.0000007629395,8|2,0:0|0:0,0:0:0:0:
40,252,337148,5,12,0:0:0:0:
176,252,337454,1,8,0:0:0:0:
372,72,337760,1,8,0:0:0:0:
372,72,338066,5,12,0:0:0:0:
432,256,338372,1,8,0:0:0:0:
432,256,338679,1,8,0:0:0:0:
274,142,338985,1,8,0:0:0:0:
274,142,339189,2,0,L|274:115,1,20.0000007629395,8|2,0:0|0:0,0:0:0:0:
469,142,339597,1,8,0:0:0:0:
469,142,339903,1,8,0:0:0:0:
312,256,340209,5,12,0:0:0:0:
312,256,340515,1,8,0:0:0:0:
200,256,340821,1,8,0:0:0:0:
200,256,341127,1,8,0:0:0:0:
312,128,341434,1,8,0:0:0:0:
312,128,341740,1,8,0:0:0:0:
200,128,342046,1,8,0:0:0:0:
200,128,342352,5,12,0:0:0:0:
332,279,342658,1,8,0:0:0:0:
332,279,342964,1,8,0:0:0:0:
179,279,343270,1,8,0:0:0:0:
179,279,343576,1,8,0:0:0:0:
332,104,343883,5,12,0:0:0:0:
332,104,344205,1,8,0:0:0:0:
179,104,344528,1,8,0:0:0:0:
179,104,344850,1,12,0:0:0:0:
256,336,346332,5,2,0:0:0:0:
196,188,346898,2,0,P|256:144|316:188,1,160,8|2,0:0|0:0,0:0:0:0:
396,136,347747,1,0,0:0:0:0:
396,136,348030,2,0,P|372:96|344:76,1,80,8|0,0:0|0:0,0:0:0:0:
256,40,348596,2,0,B|192:40|192:40|152:60|152:60|96:60,1,160,2|2,0:0|0:0,0:0:0:0:
212,112,349445,1,0,0:0:0:0:
212,112,349728,2,0,P|256:112|280:136,1,80,2|0,0:0|0:0,0:0:0:0:
224,280,350294,6,0,P|180:280|156:256,1,80,8|0,0:0|0:0,0:0:0:0:
288,224,350860,2,0,B|368:204|368:248|448:224,1,160,2|8,0:0|0:0,0:0:0:0:
328,291,351709,1,0,0:0:0:0:
404,160,351992,1,2,0:0:0:0:
273,84,352275,1,0,0:0:0:0:
196,215,352558,2,0,P|136:259|76:215,1,160,2|2,0:0|0:0,0:0:0:0:
136,140,353407,1,0,0:0:0:0:
76,64,353690,6,0,P|135:19|196:63,1,160,8|2,0:0|0:0,0:0:0:0:
380,124,354822,1,8,0:0:0:0:
448,192,355105,1,0,0:0:0:0:
380,260,355388,2,0,B|336:260|304:228|304:228|224:228,1,160,2|2,0:0|0:0,0:0:0:0:
168,156,356237,1,0,0:0:0:0:
220,76,356520,2,0,P|256:61|292:76,1,80,2|0,0:0|0:0,0:0:0:0:
344,156,357086,6,0,B|384:156|408:115|408:115|432:156|472:156,1,160,8|2,0:0|0:0,0:0:0:0:
476,252,357935,1,0,0:0:0:0:
412,324,358218,1,8,0:0:0:0:
316,324,358501,1,0,0:0:0:0:
252,252,358784,2,0,B|192:252|192:252|152:276|152:276|96:276,1,160,2|2,0:0|0:0,0:0:0:0:
16,104,359916,1,2,0:0:0:0:
76,28,360199,1,0,0:0:0:0:
136,104,360482,6,0,B|196:104|196:104|236:80|236:80|292:80,1,160,8|2,0:0|0:0,0:0:0:0:
384,80,361331,1,0,0:0:0:0:
444,156,361614,2,0,P|459:192|444:228,1,80,8|0,0:0|0:0,0:0:0:0:
384,304,362181,2,0,P|304:304|256:364,1,160,2|2,0:0|0:0,0:0:0:0:
64,364,363313,1,2,0:0:0:0:
20,280,363596,1,0,0:0:0:0:
64,196,363879,6,0,P|144:196|192:136,1,160,8|2,0:0|0:0,0:0:0:0:
256,64,364728,1,0,0:0:0:0:
321,138,365011,2,0,B|357:138|357:138|393:162,1,80,8|0,0:0|0:0,0:0:0:0:
332,280,365577,2,0,B|290:306|290:306|220:306|220:306|188:280,1,160,2|2,0:0|0:0,0:0:0:0:
188,88,366709,1,2,0:0:0:0:
256,20,366992,1,0,0:0:0:0:
324,88,367275,6,0,B|384:88|384:88|424:108|424:108|480:108,1,160,8|2,0:0|0:0,0:0:0:0:
408,288,368407,1,8,0:0:0:0:
348,360,368690,1,0,0:0:0:0:
288,288,368973,2,0,B|228:288|228:288|188:268|188:268|132:268,2,160,2|2|2,0:0|0:0|0:0,0:0:0:0:
348,216,370388,1,0,0:0:0:0:
408,288,370671,6,0,B|452:248|452:200|452:200|452:136,1,160,8|2,0:0|0:0,0:0:0:0:
312,8,371803,1,0,0:0:0:0:
256,88,372086,1,0,0:0:0:0:
200,8,372369,1,2,0:0:0:0:
257,95,376005,5,12,0:0:0:0:
313,266,376232,1,8,0:0:0:0:
313,266,376459,1,8,0:0:0:0:
167,160,376687,1,8,0:0:0:0:
167,160,376914,1,8,0:0:0:0:
347,160,377141,1,8,0:0:0:0:
347,160,377369,1,8,0:0:0:0:
201,266,377596,1,8,0:0:0:0:
201,266,377823,5,8,0:0:0:0:
256,65,378050,1,8,0:0:0:0:
256,65,378278,1,8,0:0:0:0:
333,302,378505,1,8,0:0:0:0:
333,302,378732,1,8,0:0:0:0:
131,156,378960,1,8,0:0:0:0:
131,156,379187,1,8,0:0:0:0:
380,156,379414,1,8,0:0:0:0:
380,156,379528,1,8,0:0:0:0:
380,156,379641,6,0,B|424:156|424:156|456:180,1,80,4|0,0:0|0:0,0:0:0:0:
380,236,380096,1,8,0:0:0:0:
376,68,380323,1,0,0:0:0:0:
380,236,380550,2,0,B|336:236|336:236|304:212,1,80,2|0,0:0|0:0,0:0:0:0:
132,236,381005,2,0,B|176:236|176:236|208:212,1,80,8|0,0:0|0:0,0:0:0:0:
320,56,381459,6,0,B|280:56|256:97|256:97|232:56|192:56,1,160,2|8,0:0|0:0,0:0:0:0:
256,176,382141,1,2,0:0:0:0:
255,333,382369,2,0,B|235:253|279:253|256:176,1,160,2|8,0:0|0:0,0:0:0:0:
328,292,383050,1,2,0:0:0:0:
184,216,383278,2,0,B|167:180|167:180|184:144,1,80,2|0,0:0|0:0,0:0:0:0:
255,27,383732,2,0,L|256:108,1,80,8|0,0:0|0:0,0:0:0:0:
328,216,384187,2,0,B|345:180|345:180|328:144,1,80,2|0,0:0|0:0,0:0:0:0:
416,152,384528,1,0,0:0:0:0:
416,152,384641,2,0,B|399:116|399:116|416:80,1,80,8|0,0:0|0:0,0:0:0:0:
332,304,385096,6,0,B|256:277|256:277|182:303,1,160,2|8,0:0|0:0,0:0:0:0:
260,188,385778,1,0,0:0:0:0:
181,303,386005,2,0,P|176:252|200:228,1,80,2|0,0:0|0:0,0:0:0:0:
331,303,386459,2,0,P|336:252|312:228,1,80,8|0,0:0|0:0,0:0:0:0:
320,156,386800,1,0,0:0:0:0:
320,156,386914,6,0,B|280:156|256:197|256:197|232:156|192:156,1,160,6|8,0:0|0:0,0:0:0:0:
319,232,387596,2,0,P|259:276|198:232,1,160,2|0,0:0|0:0,0:0:0:0:
320,156,388278,1,8,0:0:0:0:
192,156,388505,1,0,0:0:0:0:
320,156,388732,2,0,B|320:214|320:214|339:255|339:255|339:315,1,160,2|8,0:0|0:0,0:0:0:0:
192,156,389414,2,0,B|192:214|192:214|173:255|173:255|173:311,1,160,2|0,0:0|0:0,0:0:0:0:
292,88,390096,2,0,B|256:105|256:105|220:88,1,80,8|0,0:0|0:0,0:0:0:0:
328,156,390550,6,0,B|254:182|254:182|178:155,1,160,2|8,0:0|0:0,0:0:0:0:
372,224,391232,2,0,L|296:252,1,80,0|2,0:0|0:0,0:0:0:0:
140,224,391687,1,0,0:0:0:0:
140,224,391914,2,0,L|216:252,1,80,8|0,0:0|0:0,0:0:0:0:
256,8,392369,5,4,0:0:0:0:
306,161,392596,1,8,0:0:0:0:
175,66,392823,1,8,0:0:0:0:
336,66,393050,1,8,0:0:0:0:
206,161,393278,1,8,0:0:0:0:
296,248,393505,5,8,0:0:0:0:
309,284,393618,1,8,0:0:0:0:
293,320,393732,1,8,0:0:0:0:
257,335,393845,1,8,0:0:0:0:
221,321,393959,1,8,0:0:0:0:
204,285,394073,1,8,0:0:0:0:
217,248,394187,6,0,B|200:212|200:212|217:176,1,80,4|0,0:0|0:0,0:0:0:0:
295,175,394641,1,8,0:0:0:0:
256,88,394869,1,0,0:0:0:0:
295,175,395096,2,0,B|312:211|312:211|295:247,1,80,2|0,0:0|0:0,0:0:0:0:
208,344,395550,1,8,0:0:0:0:
304,344,395778,1,0,0:0:0:0:
208,344,396005,6,0,B|158:314|158:314|132:276|132:276|81:245,1,160,2|8,0:0|0:0,0:0:0:0:
48,116,396687,1,0,0:0:0:0:
48,116,396914,2,0,B|96:145|96:145|122:182|122:182|171:212,1,160,2|8,0:0|0:0,0:0:0:0:
84,247,397596,1,0,0:0:0:0:
256,156,397823,5,4,0:0:0:0:
256,31,398050,1,0,0:0:0:0:
193,93,398278,1,8,0:0:0:0:
318,93,398505,1,0,0:0:0:0:
256,156,398732,5,4,0:0:0:0:
300,291,398959,1,0,0:0:0:0:
184,207,399187,1,8,0:0:0:0:
327,207,399414,1,0,0:0:0:0:
212,291,399641,6,0,B|176:291|176:291|140:315,1,80,4|0,0:0|0:0,0:0:0:0:
300,291,400096,2,0,B|336:291|336:291|372:315,1,80,8|0,0:0|0:0,0:0:0:0:
256,156,400550,2,0,B|256:124|256:124|260:120|260:120|252:120|252:120|256:116|256:116|256:84,1,80,2|0,0:0|0:0,0:0:0:0:
332,160,401005,1,8,0:0:0:0:
180,160,401232,1,0,0:0:0:0:
180,160,401346,1,0,0:0:0:0:
180,160,401459,6,0,B|163:196|163:196|180:232,1,80,4|0,0:0|0:0,0:0:0:0:
256,328,401914,1,8,0:0:0:0:
256,328,402141,1,8,0:0:0:0:
332,160,402369,1,8,0:0:0:0:
332,160,402596,1,8,0:0:0:0:
180,160,402823,1,8,0:0:0:0:
180,160,403050,1,8,0:0:0:0:
332,160,403278,6,0,B|349:196|349:196|332:232,1,80,4|0,0:0|0:0,0:0:0:0:
256,24,403732,1,8,0:0:0:0:
256,24,403959,1,8,0:0:0:0:
256,168,404187,1,8,0:0:0:0:
256,168,404414,1,8,0:0:0:0:
184,92,404641,1,8,0:0:0:0:
184,92,404869,1,8,0:0:0:0:
328,92,405096,5,4,0:0:0:0:
256,168,405323,1,8,0:0:0:0:
269,204,405436,1,8,0:0:0:0:
253,240,405550,1,8,0:0:0:0:
217,255,405663,1,8,0:0:0:0:
181,241,405777,1,8,0:0:0:0:
164,205,405891,1,8,0:0:0:0:
136,176,406005,5,8,0:0:0:0:
100,163,406119,1,8,0:0:0:0:
64,179,406232,1,8,0:0:0:0:
49,215,406345,1,8,0:0:0:0:
56,252,406459,1,8,0:0:0:0:
92,276,406573,1,8,0:0:0:0:
132,276,406687,1,8,0:0:0:0:
160,248,406800,1,8,0:0:0:0:
164,205,406914,6,0,B|163:125|163:125|136:101|136:52,1,160,4|0,0:0|0:0,0:0:0:0:
364,64,407596,2,0,B|284:84|284:40|204:64,1,160,2|8,0:0|0:0,0:0:0:0:
310,200,408278,1,8,0:0:0:0:
293,234,408392,1,8,0:0:0:0:
256,247,408505,1,8,0:0:0:0:
220,231,408619,1,8,0:0:0:0:
206,195,408732,6,0,B|170:178|170:178|134:195,1,80,4|0,0:0|0:0,0:0:0:0:
256,112,409187,2,0,L|256:72,2,40,8|0|0,0:0|0:0|0:0,0:0:0:0:
306,195,409641,2,0,B|342:178|342:178|378:195,1,80,2|0,0:0|0:0,0:0:0:0:
348,264,410096,1,8,0:0:0:0:
344,108,410323,1,0,0:0:0:0:
348,264,410550,6,0,L|296:336,1,80,2|0,0:0|0:0,0:0:0:0:
164,264,411005,2,0,L|216:336,1,80,8|0,0:0|0:0,0:0:0:0:
256,236,411459,2,0,B|236:156|280:156|256:76,1,160,2|8,0:0|0:0,0:0:0:0:
328,192,412141,1,0,0:0:0:0:
192,112,412369,6,0,P|152:112|120:136,1,80,6|0,0:0|0:0,0:0:0:0:
56,192,412823,2,0,L|16:192,2,40,8|0|0,0:0|0:0|0:0,0:0:0:0:
120,249,413278,1,2,0:0:0:0:
120,249,413391,1,8,0:0:0:0:
120,249,413505,2,0,P|152:272|192:272,1,80,0|8,0:0|0:0,0:0:0:0:
256,192,413959,1,0,0:0:0:0:
391,249,414187,6,0,P|359:272|320:272,1,80,2|0,0:0|0:0,0:0:0:0:
256,192,414641,2,0,L|256:148,2,40,8|0|0,0:0|0:0|0:0,0:0:0:0:
328,72,415096,2,0,L|328:120,2,40,2|8|0,0:0|0:0|0:0,0:0:0:0:
184,72,415550,1,8,0:0:0:0:
256,192,415778,2,0,L|256:240,2,26.6666666666667,8|8|8,0:0|0:0|0:0,0:0:0:0:
192,192,416005,6,0,B|156:209|156:209|120:192,1,80,6|0,0:0|0:0,0:0:0:0:
256,296,416459,2,0,L|256:344,2,40,8|0|0,0:0|0:0|0:0,0:0:0:0:
320,192,416914,2,0,L|360:192,2,40,2|0|0,0:0|0:0|0:0,0:0:0:0:
256,128,417369,2,0,B|239:92|239:92|256:56,1,80,8|0,0:0|0:0,0:0:0:0:
114,263,417823,5,2,0:0:0:0:
43,192,418050,1,0,0:0:0:0:
114,121,418278,2,0,L|114:80,2,40,8|0|0,0:0|0:0|0:0,0:0:0:0:
184,192,418732,2,0,L|228:192,2,40,2|8|0,0:0|0:0|0:0,0:0:0:0:
114,263,419187,2,0,B|114:299|114:299|138:335,1,80,8|0,0:0|0:0,0:0:0:0:
256,120,419641,5,6,0:0:0:0:
184,192,419868,1,0,0:0:0:0:
256,264,420096,2,0,L|257:313,2,40,8|0|0,0:0|0:0|0:0,0:0:0:0:
328,192,420550,2,0,L|372:192,2,40,2|8|0,0:0|0:0|0:0,0:0:0:0:
256,120,421005,1,8,0:0:0:0:
312,48,421232,2,0,L|328:76,2,26.6666666666667,8|8|8,0:0|0:0|0:0,0:0:0:0:
256,16,421459,6,0,L|160:16,1,80,6|0,0:0|0:0,0:0:0:0:
256,120,421914,1,8,0:0:0:0:
310,286,422141,1,8,0:0:0:0:
168,183,422369,1,8,0:0:0:0:
343,183,422596,1,8,0:0:0:0:
202,286,422823,1,8,0:0:0:0:
181,319,422936,1,8,0:0:0:0:
145,334,423050,1,8,0:0:0:0:
107,325,423163,1,8,0:0:0:0:
82,294,423278,6,0,B|82:246|45:211|45:211|45:143,1,160,4|8,0:0|0:0,0:0:0:0:
128,96,423992,1,0,0:0:0:0:
220,64,424230,2,0,P|256:49|292:64,1,80,2|0,0:0|0:0,0:0:0:0:
384,96,424706,2,0,L|424:96,2,40,8|0|0,0:0|0:0|0:0,0:0:0:0:
332,244,425182,6,0,B|332:288|332:288|312:320,1,80,4|0,0:0|0:0,0:0:0:0:
199,318,425658,2,0,B|180:288|180:288|180:244,1,80,8|0,0:0|0:0,0:0:0:0:
304,152,426135,1,2,0:0:0:0:
208,152,426373,1,0,0:0:0:0:
256,68,426611,1,8,0:0:0:0:
256,68,426730,6,0,B|304:68|304:68|328:52|328:52|372:52,1,120,8|4,0:0|0:0,0:0:0:0:
468,52,427325,1,0,0:0:0:0:
468,52,427444,1,0,0:0:0:0:
468,52,427563,2,0,B|485:88|485:88|468:124,1,80,8|0,0:0|0:0,0:0:0:0:
468,332,428039,2,0,B|485:296|485:296|468:260,1,80,2|0,0:0|0:0,0:0:0:0:
380,296,428516,1,8,0:0:0:0:
380,296,428635,1,0,0:0:0:0:
380,296,428754,1,0,0:0:0:0:
256,360,428992,6,0,P|216:360|184:336,1,80,4|0,0:0|0:0,0:0:0:0:
184,216,429468,2,0,P|215:192|255:193,1,80,8|0,0:0|0:0,0:0:0:0:
352,192,429944,1,2,0:0:0:0:
304,108,430182,1,0,0:0:0:0:
208,108,430420,1,8,0:0:0:0:
208,108,430539,6,0,P|152:108|104:64,1,120,8|4,0:0|0:0,0:0:0:0:
28,192,431135,1,0,0:0:0:0:
28,192,431254,1,0,0:0:0:0:
28,192,431373,2,0,L|72:260,1,80,8|0,0:0|0:0,0:0:0:0:
216,344,431849,2,0,L|172:276,1,80,2|0,0:0|0:0,0:0:0:0:
256,192,432325,2,0,L|256:148,2,40,8|0|0,0:0|0:0|0:0,0:0:0:0:
296,344,432801,6,0,L|340:276,1,80,4|0,0:0|0:0,0:0:0:0:
388,192,433278,1,8,0:0:0:0:
338,38,433516,1,0,0:0:0:0:
468,133,433754,1,2,0:0:0:0:
307,133,433992,1,0,0:0:0:0:
438,38,434230,1,8,0:0:0:0:
438,38,434349,1,0,0:0:0:0:
438,38,434468,1,0,0:0:0:0:
388,192,434706,6,0,B|388:236|388:236|368:268|368:268|368:312,1,120,4|0,0:0|0:0,0:0:0:0:
368,306,435182,1,8,0:0:0:0:
300,376,435420,2,0,P|256:322|212:376,1,160,2|0,0:0|0:0,0:0:0:0:
124,336,436135,2,0,P|140:292|168:268,1,80,8|0,0:0|0:0,0:0:0:0:
164,176,436611,6,0,B|144:96|188:96|164:16,1,160,4|8,0:0|0:0,0:0:0:0:
347,18,437325,2,0,B|324:96|368:96|348:176,1,160,2|0,0:0|0:0,0:0:0:0:
208,280,438039,1,8,0:0:0:0:
208,280,438158,1,0,0:0:0:0:
208,280,438278,1,0,0:0:0:0:
304,280,438516,6,0,P|356:280|404:324,1,120,4|0,0:0|0:0,0:0:0:0:
404,324,438992,2,0,L|488:324,1,80,2|0,0:0|0:0,0:0:0:0:
376,192,439468,2,0,L|328:192,2,40,0|0|2,0:0|0:0|0:0,0:0:0:0:
484,59,439944,1,0,0:0:0:0:
484,59,440063,6,0,L|364:60,1,120,2|2,0:0|0:0,0:0:0:0:
256,156,440778,1,2,0:0:0:0:
148,60,441135,2,0,P|64:60|12:112,1,160,2|2,0:0|0:0,0:0:0:0:
12,274,441968,1,2,0:0:0:0:
128,192,442325,5,2,0:0:0:0:
128,192,442682,2,0,B|192:172|192:208|248:192,1,120,2|2,0:0|0:0,0:0:0:0:
440,192,443516,1,2,0:0:0:0:
324,108,443873,1,0,0:0:0:0:
280,88,443992,1,2,0:0:0:0:
232,88,444111,1,0,0:0:0:0:
188,108,444230,6,0,B|128:108|128:108|76:76,1,120,2|2,0:0|0:0,0:0:0:0:
76,307,444944,2,0,B|128:276|128:276|188:276,1,120,2|0,0:0|0:0,0:0:0:0:
187,276,445420,1,2,0:0:0:0:
256,344,445658,1,0,0:0:0:0:
324,276,445897,1,0,0:0:0:0:
256,208,446135,6,0,L|256:120,1,80,4|0,0:0|0:0,0:0:0:0:
332,36,446563,2,0,B|315:72|315:72|332:108,1,80,8|0,0:0|0:0,0:0:0:0:
180,36,446992,2,0,B|197:72|197:72|180:108,1,80,2|0,0:0|0:0,0:0:0:0:
332,36,447420,2,0,B|315:72|315:72|332:108,1,80,8|0,0:0|0:0,0:0:0:0:
448,212,447849,6,0,B|404:212|404:212|376:192|376:192|332:192,1,120,2|0,0:0|0:0,0:0:0:0:
334,192,448277,2,0,P|318:228|333:264,1,80,8|0,0:0|0:0,0:0:0:0:
320,356,448706,2,0,B|280:356|256:315|256:315|232:356|192:356,1,160,2|8,0:0|0:0,0:0:0:0:
179,263,449349,1,0,0:0:0:0:
64,212,449564,2,0,B|108:212|108:212|136:192|136:192|180:192,1,120,2|0,0:0|0:0,0:0:0:0:
178,192,449992,2,0,P|194:228|179:264,1,80,8|0,0:0|0:0,0:0:0:0:
256,356,450420,2,0,B|236:276|280:276|256:196,1,160,2|8,0:0|0:0,0:0:0:0:
256,52,451063,1,0,0:0:0:0:
196,136,451277,6,0,B|172:100|172:100|172:64,1,80,2|0,0:0|0:0,0:0:0:0:
340,64,451706,2,0,B|340:100|340:100|316:136,1,80,8|0,0:0|0:0,0:0:0:0:
172,144,452135,2,0,B|148:108|148:108|148:72,1,80,2|0,0:0|0:0,0:0:0:0:
364,72,452563,2,0,B|364:108|364:108|340:144,1,80,8|0,0:0|0:0,0:0:0:0:
352,292,452992,6,0,P|296:292|256:244,1,120,2|0,0:0|0:0,0:0:0:0:
257,246,453420,2,0,L|188:292,1,80,8|0,0:0|0:0,0:0:0:0:
352,292,453849,2,0,L|418:247,1,80,2|0,0:0|0:0,0:0:0:0:
336,192,454277,1,8,0:0:0:0:
432,340,454492,1,0,0:0:0:0:
336,192,454706,6,0,B|292:192|292:192|264:212|264:212|220:212,1,120,2|0,0:0|0:0,0:0:0:0:
222,212,455135,2,0,B|205:248|205:248|222:284,1,80,8|0,0:0|0:0,0:0:0:0:
336,191,455563,2,0,B|353:155|353:155|336:119,1,80,2|0,0:0|0:0,0:0:0:0:
196,212,455992,2,0,B|179:248|179:248|196:284,1,80,8|0,0:0|0:0,0:0:0:0:
228,136,456420,2,0,P|144:136|112:200,1,160,2|8,0:0|0:0,0:0:0:0:
196,212,457063,1,0,0:0:0:0:
104,84,457277,1,0,0:0:0:0:
196,212,457492,5,8,0:0:0:0:
196,354,457706,1,8,0:0:0:0:
125,283,457920,1,8,0:0:0:0:
266,283,458135,1,2,0:0:0:0:
392,192,458349,5,8,0:0:0:0:
266,283,458563,1,8,0:0:0:0:
392,192,458777,1,8,0:0:0:0:
256,44,459206,1,8,0:0:0:0:
256,44,459420,1,8,0:0:0:0:
256,44,459849,6,0,L|168:44,1,80,4|0,0:0|0:0,0:0:0:0:
216,128,460277,2,0,L|304:128,1,80,8|0,0:0|0:0,0:0:0:0:
256,208,460706,1,2,0:0:0:0:
256,44,460920,1,0,0:0:0:0:
256,208,461135,2,0,L|176:208,1,80,8|0,0:0|0:0,0:0:0:0:
196,288,461563,6,0,L|320:288,1,120,2|0,0:0|0:0,0:0:0:0:
316,288,461992,2,0,B|316:240|316:240|336:212,1,80,8|0,0:0|0:0,0:0:0:0:
260,364,462420,2,0,L|100:364,1,160,2|8,0:0|0:0,0:0:0:0:
8,276,463063,1,0,0:0:0:0:
80,192,463277,6,0,B|124:192|124:192|152:172|152:172|196:172,1,120,2|0,0:0|0:0,0:0:0:0:
194,172,463706,2,0,P|210:208|195:244,1,80,8|0,0:0|0:0,0:0:0:0:
192,336,464134,2,0,B|232:336|256:295|256:295|280:336|320:336,1,160,2|8,0:0|0:0,0:0:0:0:
316,243,464777,1,0,0:0:0:0:
432,192,464992,2,0,B|388:192|388:192|360:172|360:172|316:172,1,120,2|0,0:0|0:0,0:0:0:0:
318,172,465420,2,0,P|302:208|317:244,1,80,8|0,0:0|0:0,0:0:0:0:
330,88,465849,2,0,B|256:115|256:115|180:88,1,160,2|8,0:0|0:0,0:0:0:0:
256,20,466492,1,0,0:0:0:0:
180,88,466706,6,0,B|163:124|163:124|180:160,1,80,2|0,0:0|0:0,0:0:0:0:
332,88,467135,2,0,B|349:124|349:124|332:160,1,80,8|0,0:0|0:0,0:0:0:0:
256,208,467563,1,2,0:0:0:0:
306,361,467777,1,0,0:0:0:0:
175,266,467992,1,8,0:0:0:0:
336,266,468206,1,0,0:0:0:0:
206,361,468420,6,0,B|150:383|150:383|95:361,1,120,2|0,0:0|0:0,0:0:0:0:
94,360,468849,2,0,P|92:320|116:290,1,80,8|0,0:0|0:0,0:0:0:0:
205,360,469277,2,0,P|207:321|183:291,1,80,2|0,0:0|0:0,0:0:0:0:
80,360,469706,2,0,P|78:320|102:290,1,80,8|0,0:0|0:0,0:0:0:0:
208,192,470135,6,0,P|256:162|304:193,1,120,2|0,0:0|0:0,0:0:0:0:
304,193,470563,2,0,L|344:116,1,80,8|0,0:0|0:0,0:0:0:0:
256,76,470992,1,2,0:0:0:0:
256,240,471206,1,8,0:0:0:0:
256,382,471420,1,8,0:0:0:0:
185,311,471635,1,8,0:0:0:0:
326,311,471849,5,4,0:0:0:0:
185,169,472063,1,8,0:0:0:0:
256,240,472278,1,8,0:0:0:0:
256,99,472492,1,8,0:0:0:0:
144,304,472920,1,8,0:0:0:0:
144,304,473135,1,8,0:0:0:0:
368,304,473563,5,4,0:0:0:0:
256,192,473777,1,2,0:0:0:0:
256,192,473885,1,0,0:0:0:0:
256,192,473992,2,0,B|256:224|256:224|252:228|252:228|260:228|260:228|256:232|256:232|256:264,1,80,8|0,0:0|0:0,0:0:0:0:
336,192,474420,2,0,B|336:163|336:163|332:159|332:159|340:159|340:159|336:155|336:155|336:123,1,80,2|0,0:0|0:0,0:0:0:0:
412,56,474849,2,0,B|412:88|412:88|416:92|416:92|408:92|408:92|412:96|412:96|412:124,1,80,8|2,0:0|0:0,0:0:0:0:
256,32,475492,1,0,0:0:0:0:
256,32,475706,1,12,0:0:0:0:
60,120,477058,6,0,B|112:120|140:80|140:80|208:80,1,160,4|8,0:0|0:0,0:0:0:0:
452,120,477750,2,0,B|400:120|372:80|372:80|305:80,1,160,2|0,0:0|0:0,0:0:0:0:
184,192,478442,1,8,0:0:0:0:
256,256,478673,1,0,0:0:0:0:
328,192,478904,2,0,B|388:192|388:192|428:216|428:216|488:216,1,160,2|10,0:0|0:0,0:0:0:0:
484,120,479596,1,0,0:0:0:0:
368,260,479827,2,0,B|328:260|328:260|296:284,1,80,2|0,0:0|0:0,0:0:0:0:
144,260,480288,2,0,B|184:260|184:260|216:284,1,80,8|0,0:0|0:0,0:0:0:0:
256,372,480750,6,0,L|256:204,1,160,2|8,0:0|0:0,0:0:0:0:
196,136,481442,2,0,P|256:92|316:136,1,160,2|0,0:0|0:0,0:0:0:0:
256,4,482134,1,8,0:0:0:0:
144,56,482365,1,2,0:0:0:0:
144,56,482481,1,2,0:0:0:0:
144,56,482596,6,0,P|84:56|40:92,1,120,2|0,0:0|0:0,0:0:0:0:
39,92,483058,2,0,L|80:164,1,80,8|8,0:0|0:0,0:0:0:0:
100,192,483404,1,8,0:0:0:0:
120,220,483519,1,8,0:0:0:0:
140,248,483634,1,8,0:0:0:0:
160,276,483750,1,8,0:0:0:0:
352,276,483981,2,0,P|392:276|424:248,1,80,8|8,0:0|0:0,0:0:0:0:
476,288,484327,1,8,0:0:0:0:
476,288,484442,6,0,L|384:152,1,160,4|8,0:0|0:0,0:0:0:0:
332,76,485134,2,0,B|256:49|256:49|182:75,1,160,2|0,0:0|0:0,0:0:0:0:
292,144,485827,2,0,B|256:127|256:127|220:144,1,80,8|0,0:0|0:0,0:0:0:0:
256,360,486288,2,0,B|256:292|256:292|252:284|252:284|260:284|260:284|256:276|256:276|256:209,1,160,2|8,0:0|0:0,0:0:0:0:
324,140,486981,1,0,0:0:0:0:
188,140,487211,2,0,P|173:104|188:68,1,80,2|0,0:0|0:0,0:0:0:0:
323,67,487673,2,0,P|339:103|324:140,1,80,8|0,0:0|0:0,0:0:0:0:
164,140,488134,6,0,P|149:104|164:68,1,80,4|0,0:0|0:0,0:0:0:0:
348,67,488596,1,8,0:0:0:0:
348,67,488827,2,0,P|428:67|476:131,1,160,2|0,0:0|0:0,0:0:0:0:
352,204,489519,2,0,L|396:132,1,80,8|0,0:0|0:0,0:0:0:0:
396,280,489981,6,0,L|352:352,1,80,4|8,0:0|0:0,0:0:0:0:
292,324,490327,1,8,0:0:0:0:
292,324,490442,2,0,P|255:308|219:323,1,80,8|0,0:0|0:0,0:0:0:0:
124,324,490904,1,6,0:0:0:0:
64,252,491134,2,0,L|20:252,2,40,0|0|2,0:0|0:0|0:0,0:0:0:0:
24,132,491596,2,0,L|64:132,1,40
112,132,491827,6,0,B|152:132|152:132|184:104,1,80,4|0,0:0|0:0,0:0:0:0:
256,44,492288,1,8,0:0:0:0:
330,105,492519,2,0,B|410:125|410:81|490:105,1,160,2|0,0:0|0:0,0:0:0:0:
448,192,493211,2,0,B|448:232|448:232|428:268,1,80,8|0,0:0|0:0,0:0:0:0:
304,344,493673,2,0,B|340:327|340:327|376:344,1,80,4|0,0:0|0:0,0:0:0:0:
208,344,494134,2,0,B|172:327|172:327|136:344,1,80,8|0,0:0|0:0,0:0:0:0:
64,192,494596,2,0,B|64:232|64:232|83:266,1,80,4|0,0:0|0:0,0:0:0:0:
172,232,495058,1,8,0:0:0:0:
256,188,495288,1,0,0:0:0:0:
340,232,495519,6,0,B|340:184|372:160|372:160|372:80,1,160,4|8,0:0|0:0,0:0:0:0:
412,220,496211,1,0,0:0:0:0:
412,220,496442,2,0,L|492:264,1,80,2|0,0:0|0:0,0:0:0:0:
428,372,496904,2,0,L|348:328,1,80,8|0,0:0|0:0,0:0:0:0:
256,244,497365,1,8,0:0:0:0:
256,244,497596,1,8,0:0:0:0:
256,148,497827,5,2,0:0:0:0:
216,24,498058,1,0,0:0:0:0:
320,100,498288,1,0,0:0:0:0:
191,100,498519,1,0,0:0:0:0:
296,24,498750,2,0,L|216:24,1,80,2|0,0:0|0:0,0:0:0:0:
392,160,499211,6,0,B|356:202|356:202|353:242|353:242|312:291,1,160,6|10,0:0|0:0,0:0:0:0:
256,368,499904,1,0,0:0:0:0:
199,291,500134,2,0,B|158:242|158:242|155:202|155:202|120:160,1,160,2|8,0:0|0:0,0:0:0:0:
256,68,500827,1,0,0:0:0:0:
256,68,501058,2,0,B|232:148|280:148|256:228,1,160,2|10,0:0|0:0,0:0:0:0:
320,112,501750,1,0,0:0:0:0:
192,184,501981,6,0,P|112:184|60:240,1,160,2|8,0:0|0:0,0:0:0:0:
124,356,502673,1,0,0:0:0:0:
124,356,502904,2,0,P|204:356|256:300,1,160,2|8,0:0|0:0,0:0:0:0:
192,232,503596,2,0,B|232:232|256:191|256:191|280:232|320:232,1,160,2|0,0:0|0:0,0:0:0:0:
348,140,504288,2,0,L|360:92,2,40,8|8|8,0:0|0:0|0:0,0:0:0:0:
164,140,504750,6,0,P|124:140|92:112,1,80,6|0,0:0|0:0,0:0:0:0:
192,64,505211,1,8,0:0:0:0:
192,64,505442,2,0,L|192:228,1,160,2|0,0:0|0:0,0:0:0:0:
320,352,506134,1,8,0:0:0:0:
300,308,506250,1,8,0:0:0:0:
256,288,506365,1,8,0:0:0:0:
212,308,506481,1,8,0:0:0:0:
192,352,506596,5,4,0:0:0:0:
256,64,508713,5,2,0:0:0:0:
256,64,509419,5,8,0:0:0:0:
256,64,509507,1,0,0:0:0:0:
256,64,509596,1,0,0:0:0:0:
185,135,509772,1,8,0:0:0:0:
185,135,509860,1,0,0:0:0:0:
185,135,509948,1,0,0:0:0:0:
256,206,510125,1,8,0:0:0:0:
256,206,510213,1,0,0:0:0:0:
256,206,510301,1,0,0:0:0:0:
326,135,510478,1,8,0:0:0:0:
326,135,510566,1,0,0:0:0:0:
326,135,510654,1,0,0:0:0:0:
256,348,510831,5,8,0:0:0:0:
256,348,510919,1,0,0:0:0:0:
256,348,511008,1,0,0:0:0:0:
327,277,511184,1,8,0:0:0:0:
327,277,511272,1,0,0:0:0:0:
327,277,511360,1,0,0:0:0:0:
256,206,511537,1,8,0:0:0:0:
256,206,511625,1,0,0:0:0:0:
256,206,511713,1,0,0:0:0:0:
186,277,511890,1,8,0:0:0:0:
186,277,511978,1,0,0:0:0:0:
186,277,512066,1,0,0:0:0:0:
256,64,512243,5,12,0:0:0:0:
256,64,512331,1,0,0:0:0:0:
256,64,512419,1,0,0:0:0:0:
356,192,512596,5,8,0:0:0:0:
390,210,512684,1,0,0:0:0:0:
409,245,512772,1,8,0:0:0:0:
405,284,512860,1,0,0:0:0:0:
380,315,512948,1,8,0:0:0:0:
342,327,513037,1,0,0:0:0:0:
305,316,513125,1,8,0:0:0:0:
279,286,513213,1,0,0:0:0:0:
274,247,513301,1,8,0:0:0:0:
292,212,513390,1,0,0:0:0:0:
326,192,513478,1,12,0:0:0:0:
256,8,513831,5,12,0:0:0:0:
256,8,514007,1,12,0:0:0:0:
256,8,515066,6,0,L|256:92,1,80,4|0,0:0|0:0,0:0:0:0:
332,228,515419,2,0,L|332:108,1,120,8|0,0:0|0:0,0:0:0:0:
332,108,515772,2,0,B|368:91|368:91|404:108,1,80,2|0,0:0|0:0,0:0:0:0:
332,228,516125,2,0,B|296:245|296:245|260:228,1,80,8|0,0:0|0:0,0:0:0:0:
64,296,516478,6,0,B|138:270|138:270|214:297,1,160,2|8,0:0|0:0,0:0:0:0:
136,360,517007,1,0,0:0:0:0:
80,216,517184,2,0,B|135:194|135:194|191:216,1,120,2|0,0:0|0:0,0:0:0:0:
191,216,517537,2,0,P|206:180|191:144,1,80,8|0,0:0|0:0,0:0:0:0:
440,192,517890,6,0,L|316:192,1,120,2|0,0:0|0:0,0:0:0:0:
336,256,518243,2,0,L|416:256,1,80,8|0,0:0|0:0,0:0:0:0:
444,128,518596,2,0,L|364:128,1,80,2|0,0:0|0:0,0:0:0:0:
336,256,518948,2,0,L|416:256,1,80,8|0,0:0|0:0,0:0:0:0:
192,344,519301,6,0,B|232:344|256:303|256:303|280:344|320:344,1,160,2|8,0:0|0:0,0:0:0:0:
256,108,519831,1,0,0:0:0:0:
206,261,520007,1,2,0:0:0:0:
336,166,520184,1,0,0:0:0:0:
175,166,520360,1,8,0:0:0:0:
306,261,520537,1,0,0:0:0:0:
175,166,520713,6,0,B|175:122|175:122|155:94|155:94|155:50,1,120,4|0,0:0|0:0,0:0:0:0:
155,52,521066,2,0,P|177:19|216:14,1,80,8|0,0:0|0:0,0:0:0:0:
337,166,521419,2,0,B|337:122|337:122|357:94|357:94|357:50,1,120,2|0,0:0|0:0,0:0:0:0:
357,52,521772,2,0,P|334:19|295:14,1,80,8|0,0:0|0:0,0:0:0:0:
256,164,522125,6,0,L|256:284,1,120,6|0,0:0|0:0,0:0:0:0:
320,320,522478,2,0,L|320:220,1,80,8|0,0:0|0:0,0:0:0:0:
256,164,522831,2,0,L|256:284,1,120,2|0,0:0|0:0,0:0:0:0:
192,320,523184,2,0,L|192:220,1,80,8|0,0:0|0:0,0:0:0:0:
320,52,523537,6,0,B|280:52|256:93|256:93|232:52|192:52,1,160,2|8,0:0|0:0,0:0:0:0:
256,164,524066,2,0,B|279:241|235:241|255:321,1,160,2|0,0:0|0:0,0:0:0:0:
344,240,524596,1,8,0:0:0:0:
344,240,524772,6,0,B|266:263|266:219|186:239,1,160,6|0,0:0|0:0,0:0:0:0:
255,321,525301,1,12,0:0:0:0:
186,239,525478,1,0,0:0:0:0:
238,98,525654,5,8,0:0:0:0:
264,69,525742,1,0,0:0:0:0:
303,64,525830,1,8,0:0:0:0:
335,85,525918,1,0,0:0:0:0:
346,123,526006,1,8,0:0:0:0:
329,159,526095,1,0,0:0:0:0:
293,175,526183,1,8,0:0:0:0:
256,164,526271,1,0,0:0:0:0:
235,131,526360,6,0,P|183:131|144:184,1,120,4|0,0:0|0:0,0:0:0:0:
144,181,526713,2,0,L|54:182,1,80,8|0,0:0|0:0,0:0:0:0:
192,280,527066,2,0,L|312:280,1,120,2|0,0:0|0:0,0:0:0:0:
312,280,527419,2,0,P|329:315|312:349,1,80,8|0,0:0|0:0,0:0:0:0:
192,280,527772,2,0,B|166:206|166:206|193:130,1,160,2|8,0:0|0:0,0:0:0:0:
256,36,528301,1,0,0:0:0:0:
319,130,528478,2,0,B|360:130|360:130|388:110|388:110|432:110,1,120,2|0,0:0|0:0,0:0:0:0:
432,110,528831,2,0,L|452:192,1,80,8|0,0:0|0:0,0:0:0:0:
320,300,529184,6,0,B|280:300|256:259|256:259|232:300|192:300,1,160,4|8,0:0|0:0,0:0:0:0:
256,192,529713,2,0,B|232:114|276:114|256:34,1,160,6|0,0:0|0:0,0:0:0:0:
320,142,530243,1,8,0:0:0:0:
320,142,530419,2,0,B|340:222|296:222|319:299,1,160,4|0,0:0|0:0,0:0:0:0:
192,299,530949,1,12,0:0:0:0:
192,157,531125,1,0,0:0:0:0:
192,157,531213,1,0,0:0:0:0:
192,157,531301,1,8,0:0:0:0:
121,228,531477,1,0,0:0:0:0:
262,228,531654,1,8,0:0:0:0:
192,72,532007,5,4,0:0:0:0:
192,72,532360,1,2,0:0:0:0:
192,72,532713,1,2,0:0:0:0:
192,72,533066,1,2,0:0:0:0:
192,72,533419,1,8,0:0:0:0:
320,72,533596,1,8,0:0:0:0:
192,72,533772,1,8,0:0:0:0:
192,72,534831,6,0,B|165:148|165:148|192:224,1,160,12|0,0:0|0:0,0:0:0:0:
320,72,535360,2,0,B|347:148|347:148|320:224,1,160,12|0,0:0|0:0,0:0:0:0:
192,300,535890,2,0,B|232:300|256:259|256:259|280:300|320:300,1,160,12|0,0:0|0:0,0:0:0:0:
256,360,536419,1,12,0:0:0:0:
320,222,536596,1,0,0:0:0:0:
192,222,536772,1,0,0:0:0:0:
192,222,536860,1,0,0:0:0:0:
192,222,536948,1,8,0:0:0:0:
256,360,537301,5,8,0:0:0:0:
416,192,537653,2,0,B|373:149|373:149|359:112|359:112|314:67,1,160,4|2,0:0|0:0,0:0:0:0:
96,192,538358,2,0,B|138:149|138:149|152:112|152:112|197:67,1,160,0|2,0:0|0:0,0:0:0:0:
256,348,539064,1,0,0:0:0:0:
256,348,539594,2,0,L|256:304,2,40,0|0|2,0:0|0:0|0:0,0:0:0:0:
76,248,540123,1,0,0:0:0:0:
256,140,540476,5,4,0:0:0:0:
436,248,540829,1,2,0:0:0:0:
256,24,541535,1,0,0:0:0:0:
336,92,541711,1,8,0:0:0:0:
336,92,541800,1,8,0:0:0:0:
336,92,541888,6,0,P|351:128|336:164,1,80,8|0,0:0|0:0,0:0:0:0:
176,164,542241,2,0,P|161:128|176:92,1,80,8|0,0:0|0:0,0:0:0:0:
300,220,542594,2,0,P|336:235|372:220,1,80,8|8,0:0|0:0,0:0:0:0:
212,220,542947,2,0,P|175:235|139:220,1,80,8|0,0:0|0:0,0:0:0:0:
256,128,543300,1,4,0:0:0:0:
256,256,544711,5,2,0:0:0:0:
256,256,545064,1,0,0:0:0:0:
360,32,545770,1,2,0:0:0:0:
152,32,546123,6,0,P|72:32|8:80,1,160,4|2,0:0|0:0,0:0:0:0:
9,306,546829,2,0,P|73:352|152:352,1,160,8|2,0:0|0:0,0:0:0:0:
256,304,547358,1,0,0:0:0:0:
360,352,547535,2,0,P|438:352|502:306,2,160,0|2|8,0:0|0:0|0:0,0:0:0:0:
164,284,548594,1,2,0:0:0:0:
256,96,548947,1,0,0:0:0:0:
348,284,549300,2,0,B|392:284|392:284|420:260,1,80,2|0,0:0|0:0,0:0:0:0:
500,192,549653,2,0,B|500:152|464:120|464:120|464:44,1,160,8|2,0:0|0:0,0:0:0:0:
256,192,550358,5,0,0:0:0:0:
302,50,550535,1,0,0:0:0:0:
181,137,550711,1,2,0:0:0:0:
330,137,550888,1,0,0:0:0:0:
210,50,551064,2,0,B|151:50|151:50|116:72|116:72|52:72,1,160,12|8,0:0|0:0,0:0:0:0:
8,192,551594,1,8,0:0:0:0:
56,312,551770,6,0,B|116:312|116:312|151:334|151:334|210:334,1,160,12|2,0:0|0:0,0:0:0:0:
302,334,552300,1,0,0:0:0:0:
455,312,552476,2,0,B|396:312|396:312|361:334|361:334|302:334,1,160,8|2,0:0|0:0,0:0:0:0:
256,240,553005,1,0,0:0:0:0:
256,240,553182,2,0,B|232:168|280:168|256:84,1,160,0|2,0:0|0:0,0:0:0:0:
320,196,553711,1,0,0:0:0:0:
192,128,553888,2,0,P|152:128|120:100,1,80,8|0,0:0|0:0,0:0:0:0:
256,12,554241,2,0,B|316:12|340:40|340:40|416:40,2,160,2|0|2,0:0|0:0|0:0,0:0:0:0:
292,216,555300,6,0,B|256:199|256:199|220:216,1,80,8|0,0:0|0:0,0:0:0:0:
352,344,555653,2,0,B|369:308|369:308|352:272,1,80,2|8,0:0|0:0,0:0:0:0:
160,272,556005,2,0,B|143:308|143:308|160:344,1,80
256,276,556358,1,2,0:0:0:0:
180,144,556535,1,8,0:0:0:0:
180,144,556623,1,8,0:0:0:0:
180,144,556711,2,0,L|136:72,1,80,8|8,0:0|0:0,0:0:0:0:
332,144,557064,2,0,L|376:72,1,80,8|8,0:0|0:0,0:0:0:0:
256,192,557417,6,0,B|280:276|232:276|256:348,1,160,4|2,0:0|0:0,0:0:0:0:
192,236,557947,1,0,0:0:0:0:
320,312,558123,2,0,P|400:312|448:252,1,160,8|2,0:0|0:0,0:0:0:0:
364,192,558653,1,0,0:0:0:0:
447,129,558829,2,0,P|397:70|320:72,1,160,0|2,0:0|0:0,0:0:0:0:
256,152,559358,1,0,0:0:0:0:
191,71,559535,2,0,P|114:70|64:129,1,160,8|2,0:0|0:0,0:0:0:0:
148,192,560064,1,0,0:0:0:0:
64,254,560241,6,0,P|114:313|191:312,1,160,4|2,0:0|0:0,0:0:0:0:
256,232,560770,1,0,0:0:0:0:
320,312,560947,2,0,P|397:313|447:254,1,160,8|2,0:0|0:0,0:0:0:0:
256,32,561653,2,0,P|178:30|128:89,1,160,4|2,0:0|0:0,0:0:0:0:
212,240,562182,1,0,0:0:0:0:
212,240,562358,2,0,P|289:241|339:182,1,160,8|2,0:0|0:0,0:0:0:0:
284,116,562888,1,8,0:0:0:0:
284,116,562976,1,8,0:0:0:0:
284,116,563064,6,0,L|424:208,1,160,4|2,0:0|0:0,0:0:0:0:
228,268,563770,2,0,L|88:176,1,160,8|2,0:0|0:0,0:0:0:0:
28,236,564300,1,0,0:0:0:0:
28,236,564476,2,0,L|120:96,1,160,0|2,0:0|0:0,0:0:0:0:
312,28,565182,6,0,P|327:64|312:100,1,80,8|0,0:0|0:0,0:0:0:0:
200,100,565535,2,0,P|185:64|200:28,1,80,2|0,0:0|0:0,0:0:0:0:
311,100,565888,1,4,0:0:0:0:
311,100,566594,1,2,0:0:0:0:
292,340,566947,6,0,B|256:357|256:357|220:340,1,80,8|0,0:0|0:0,0:0:0:0:
220,192,567300,2,0,B|256:175|256:175|292:192,1,80,4|0,0:0|0:0,0:0:0:0:
364,268,567653,1,2,0:0:0:0:
148,268,567829,1,8,0:0:0:0:
148,268,567917,1,8,0:0:0:0:
148,268,568005,2,0,P|108:268|76:244,1,80,8|8,0:0|0:0,0:0:0:0:
148,116,568358,2,0,P|108:116|76:140,1,80,8|8,0:0|0:0,0:0:0:0:
168,192,568711,6,0,B|224:192|224:192|264:212|264:212|324:212,1,160,4|2,0:0|0:0,0:0:0:0:
436,164,569417,2,0,B|380:164|380:164|340:144|340:144|280:144,1,160,8|2,0:0|0:0,0:0:0:0:
56,244,569947,1,0,0:0:0:0:
56,244,570123,2,0,B|112:244|112:244|152:264|152:264|212:264,2,160,0|2|8,0:0|0:0|0:0,0:0:0:0:
168,68,571182,1,2,0:0:0:0:
256,12,571358,1,0,0:0:0:0:
344,68,571535,6,0,B|384:68|408:27|408:27|432:68|472:68,1,160,0|2,0:0|0:0,0:0:0:0:
472,316,572241,2,0,B|432:316|408:357|408:357|384:316|344:316,1,160,8|2,0:0|0:0,0:0:0:0:
256,368,572770,1,8,0:0:0:0:
169,315,572947,1,0,0:0:0:0:
256,260,573123,1,8,0:0:0:0:
343,315,573300,1,2,0:0:0:0:
256,128,573653,1,12,0:0:0:0:
169,315,574005,1,8,0:0:0:0:
92,244,574182,1,8,0:0:0:0:
92,140,574358,6,0,B|136:84|184:84|184:84|232:84,1,160,12|2,0:0|0:0,0:0:0:0:
420,244,575064,2,0,B|376:300|328:300|328:300|280:300,1,160,8|2,0:0|0:0,0:0:0:0:
176,300,575594,1,0,0:0:0:0:
176,300,575770,2,0,B|128:300|128:300|80:300|36:244,1,160,0|2,0:0|0:0,0:0:0:0:
36,140,576300,1,0,0:0:0:0:
36,140,576388,1,0,0:0:0:0:
36,140,576476,6,0,P|51:103|36:67,1,80,8|0,0:0|0:0,0:0:0:0:
176,227,576829,2,0,P|160:263|175:299,1,80,2|0,0:0|0:0,0:0:0:0:
336,227,577182,6,0,P|352:263|337:299,1,80,4|0,0:0|0:0,0:0:0:0:
256,368,577522,1,8,0:0:0:0:
256,368,577693,1,0,0:0:0:0:
174,298,577863,2,0,P|160:262|176:227,1,80,2|0,0:0|0:0,0:0:0:0:
256,120,578204,2,0,B|256:152|256:152|252:156|252:156|260:156|260:156|256:160|256:160|256:192,1,80,8|0,0:0|0:0,0:0:0:0:
316,88,578545,6,0,P|256:44|196:88,1,160,6|8,0:0|0:0,0:0:0:0:
256,188,579057,1,0,0:0:0:0:
316,88,579227,2,0,B|333:52|333:52|316:16,1,80,2|0,0:0|0:0,0:0:0:0:
196,88,579568,2,0,B|179:52|179:52|196:16,1,80,8|0,0:0|0:0,0:0:0:0:
256,188,579909,6,0,B|279:265|235:265|255:345,1,160,4|8,0:0|0:0,0:0:0:0:
192,224,580420,1,0,0:0:0:0:
320,312,580591,2,0,L|408:312,1,80,2|0,0:0|0:0,0:0:0:0:
192,224,580932,2,0,L|104:224,1,80,8|0,0:0|0:0,0:0:0:0:
256,164,581272,5,2,0:0:0:0:
256,164,581443,1,0,0:0:0:0:
256,28,581613,1,10,0:0:0:0:
188,96,581784,1,0,0:0:0:0:
323,96,581954,2,0,P|337:59|321:24,1,80,2|0,0:0|0:0,0:0:0:0:
188,96,582295,2,0,P|172:132|187:168,1,80,8|0,0:0|0:0,0:0:0:0:
388,168,582636,5,2,0:0:0:0:
340,315,582807,1,0,0:0:0:0:
465,224,582977,1,8,0:0:0:0:
310,224,583147,1,0,0:0:0:0:
436,315,583318,1,2,0:0:0:0:
388,168,583488,1,0,0:0:0:0:
455,100,583659,1,8,0:0:0:0:
388,32,583829,1,0,0:0:0:0:
320,100,584000,6,0,L|160:100,1,160,4|8,0:0|0:0,0:0:0:0:
212,180,584511,1,0,0:0:0:0:
232,28,584682,2,0,L|324:28,1,80,2|0,0:0|0:0,0:0:0:0:
212,180,585022,2,0,L|132:180,1,80,8|0,0:0|0:0,0:0:0:0:
320,320,585363,6,0,B|280:320|256:361|256:361|232:320|192:320,1,160,4|8,0:0|0:0,0:0:0:0:
256,248,585875,2,0,B|232:168|280:168|256:92,1,160,2|0,0:0|0:0,0:0:0:0:
324,204,586386,1,8,0:0:0:0:
192,132,586557,1,0,0:0:0:0:
324,204,586727,6,0,B|360:187|360:187|396:204,1,80,2|0,0:0|0:0,0:0:0:0:
360,272,587068,1,8,0:0:0:0:
324,184,587238,2,0,B|360:167|360:167|396:184,1,80,2|0,0:0|0:0,0:0:0:0:
360,272,587579,1,0,0:0:0:0:
436,128,587750,1,8,0:0:0:0:
406,101,587835,1,0,0:0:0:0:
367,92,587920,1,8,0:0:0:0:
329,100,588005,1,8,0:0:0:0:
298,125,588091,6,0,B|240:125|240:125|199:106|199:106|139:106,1,160,4|8,0:0|0:0,0:0:0:0:
256,200,588602,2,0,B|314:200|314:200|355:181|355:181|415:181,1,160,2|0,0:0|0:0,0:0:0:0:
320,272,589113,2,0,L|240:272,1,80,8|0,0:0|0:0,0:0:0:0:
320,84,589454,6,0,B|280:84|256:125|256:125|232:84|192:84,1,160,2|8,0:0|0:0,0:0:0:0:
256,8,589966,1,0,0:0:0:0:
320,84,590136,2,0,P|336:120|320:156,1,80,2|0,0:0|0:0,0:0:0:0:
192,84,590477,2,0,P|176:120|192:156,1,80,8|8,0:0|0:0,0:0:0:0:
256,188,590733,1,8,0:0:0:0:
256,188,590818,6,0,L|256:276,1,80,4|0,0:0|0:0,0:0:0:0:
256,360,591159,1,8,0:0:0:0:
332,152,591329,2,0,L|332:240,1,80,2|0,0:0|0:0,0:0:0:0:
332,324,591670,1,0,0:0:0:0:
412,112,591841,2,0,L|412:200,1,80,10|0,0:0|0:0,0:0:0:0:
256,140,592182,5,6,0:0:0:0:
256,140,592352,1,0,0:0:0:0:
256,4,592522,1,8,0:0:0:0:
334,84,592693,1,2,0:0:0:0:
178,84,592863,2,0,B|138:84|138:84|106:112,2,80,2|0|8,0:0|0:0|0:0,0:0:0:0:
334,84,593375,1,8,0:0:0:0:
334,84,593460,1,8,0:0:0:0:
334,84,593545,5,4,0:0:0:0:
382,231,593716,1,0,0:0:0:0:
256,140,593886,1,2,0:0:0:0:
411,140,594057,1,0,0:0:0:0:
286,231,594227,1,2,0:0:0:0:
197,266,594397,1,0,0:0:0:0:
233,356,594568,1,2,0:0:0:0:
322,320,594738,1,0,0:0:0:0:
256,140,594909,5,4,0:0:0:0:
256,140,595932,1,8,0:0:0:0:
196,228,596102,1,8,0:0:0:0:
196,228,596187,1,8,0:0:0:0:
196,228,596272,6,0,B|172:192|172:192|172:156,1,80,4|0,0:0|0:0,0:0:0:0:
256,56,596613,1,8,0:0:0:0:
340,156,596784,2,0,B|340:192|340:192|316:228,1,80,2|0,0:0|0:0,0:0:0:0:
256,328,597125,1,0,0:0:0:0:
196,228,597295,2,0,B|172:192|172:192|172:156,1,80,10|0,0:0|0:0,0:0:0:0:
256,328,597636,5,4,0:0:0:0:
256,56,597977,1,8,0:0:0:0:
356,240,598318,5,8,0:0:0:0:
382,211,598403,1,0,0:0:0:0:
421,206,598488,1,8,0:0:0:0:
453,227,598574,1,0,0:0:0:0:
464,265,598659,1,8,0:0:0:0:
447,301,598744,1,0,0:0:0:0:
411,317,598829,1,8,0:0:0:0:
374,306,598914,1,8,0:0:0:0:
353,273,599000,6,0,B|317:256|317:256|281:273,1,80,4|0,0:0|0:0,0:0:0:0:
256,88,599341,2,0,L|256:128,3,40,2|0|0|0,0:0|0:0|0:0|0:0,0:0:0:0:
316,148,599682,2,0,P|256:192|196:148,1,160,2|0,0:0|0:0,0:0:0:0:
256,88,600193,2,0,B|279:165|235:165|255:245,1,160,2|0,0:0|0:0,0:0:0:0:
192,360,600704,1,8,0:0:0:0:
192,360,600875,2,0,B|232:360|256:319|256:319|280:360|320:360,1,160,2|0,0:0|0:0,0:0:0:0:
320,360,601386,1,8,0:0:0:0:
486,153,601727,6,0,L|416:192,1,80,4|0,0:0|0:0,0:0:0:0:
342,150,602068,2,0,L|376:128,3,40,10|0|0|0,0:0|0:0|0:0|0:0,0:0:0:0:
280,196,602409,1,2,0:0:0:0:
396,244,602579,1,0,0:0:0:0:
376,128,602750,1,10,0:0:0:0:
280,196,602920,2,0,L|238:227,1,40,2|0,0:0|0:0,0:0:0:0:
232,312,603091,2,0,L|273:282,1,40
168,272,603261,2,0,L|128:300,1,40,2|0,0:0|0:0,0:0:0:0:
76,336,603432,5,12,0:0:0:0:
76,48,603754,1,0,0:0:0:0:
436,48,604077,1,2,0:0:0:0:
436,336,604399,6,0,B|396:336|396:336|360:308,1,80,4|0,0:0|0:0,0:0:0:0:
220,224,604721,2,0,B|256:207|256:207|292:224,1,80,8|0,0:0|0:0,0:0:0:0:
147,311,605044,2,0,B|116:336|116:336|76:336,1,80,2|0,0:0|0:0,0:0:0:0:
256,292,605366,2,0,L|256:132,1,160,8|2,0:0|0:0,0:0:0:0:
308,40,605850,1,0,0:0:0:0:
204,40,606011,2,0,P|160:40|132:64,1,80,8|0,0:0|0:0,0:0:0:0:
219,179,606334,2,0,P|255:195|292:180,1,80,2|0,0:0|0:0,0:0:0:0:
378,61,606657,2,0,P|347:38|308:40,1,80,8|0,0:0|0:0,0:0:0:0:
256,124,606979,6,0,L|256:296,1,160,2|8,0:0|0:0,0:0:0:0:
172,348,607463,2,0,B|132:348|108:307|108:307|84:348|44:348,1,160,2|0,0:0|0:0,0:0:0:0:
44,244,607947,1,8,0:0:0:0:
172,244,608108,1,0,0:0:0:0:
44,244,608269,2,0,B|92:224|102:192|102:192|92:160|44:140,1,160,2|8,0:0|0:0,0:0:0:0:
44,36,608753,1,0,0:0:0:0:
128,92,608915,2,0,L|188:156,1,80,2|0,0:0|0:0,0:0:0:0:
329,150,609237,2,0,L|384:92,1,80,8|0,0:0|0:0,0:0:0:0:
256,192,609560,6,0,B|232:268|280:268|256:348,1,160,2|8,0:0|0:0,0:0:0:0:
192,304,610044,1,0,0:0:0:0:
192,304,610205,2,0,B|268:280|268:328|348:304,1,160,2|8,0:0|0:0,0:0:0:0:
392,192,610689,1,0,0:0:0:0:
348,80,610850,2,0,B|268:56|268:104|192:80,1,160,2|8,0:0|0:0,0:0:0:0:
88,80,611334,1,0,0:0:0:0:
16,156,611495,2,0,B|-1:192|-1:192|16:228,1,80,2|0,0:0|0:0,0:0:0:0:
120,360,611818,2,0,B|137:324|137:324|120:288,1,80,8|0,0:0|0:0,0:0:0:0:
48,324,612140,6,0,L|212:324,1,160,2|8,0:0|0:0,0:0:0:0:
256,232,612624,1,0,0:0:0:0:
304,324,612786,2,0,L|464:324,1,160,2|8,0:0|0:0,0:0:0:0:
496,228,613269,1,0,0:0:0:0:
496,124,613431,2,0,B|452:124|452:124|424:100,1,80,2|0,0:0|0:0,0:0:0:0:
256,192,613753,5,8,0:0:0:0:
306,38,613915,1,0,0:0:0:0:
175,133,614076,1,2,0:0:0:0:
336,133,614237,1,0,0:0:0:0:
206,38,614399,2,0,B|162:38|162:38|128:60,1,80,12|0,0:0|0:0,0:0:0:0:
256,192,614721,6,0,B|232:268|280:268|256:348,1,160,4|8,0:0|0:0,0:0:0:0:
316,232,615205,1,0,0:0:0:0:
192,312,615366,2,0,B|160:312|160:312|156:316|156:316|156:308|156:308|152:312|152:312|120:312,1,80,2|0,0:0|0:0,0:0:0:0:
316,232,615689,2,0,B|384:232|384:232|392:228|392:228|392:236|392:236|400:232|400:232|468:232,1,160,8|2,0:0|0:0,0:0:0:0:
466,85,616173,1,0,0:0:0:0:
466,85,616334,2,0,B|399:85|399:85|391:81|391:81|391:89|391:89|383:85|383:85|315:85,1,160,8|2,0:0|0:0,0:0:0:0:
256,172,616818,1,0,0:0:0:0:
196,85,616979,6,0,B|128:85|128:85|120:89|120:89|120:81|120:81|112:85|112:85|46:85,2,160,8|2|8,0:0|0:0|0:0,0:0:0:0:
196,232,617786,2,0,B|128:232|128:232|120:228|120:228|120:236|120:236|112:232|112:232|44:232,1,160,2|0,0:0|0:0,0:0:0:0:
120,328,618269,2,0,P|160:328|192:352,1,80,8|0,0:0|0:0,0:0:0:0:
256,272,618592,1,2,0:0:0:0:
320,350,618753,1,8,0:0:0:0:
320,350,618834,1,8,0:0:0:0:
320,350,618915,6,0,P|352:327|392:328,1,80,8|8,0:0|0:0,0:0:0:0:
392,224,619237,1,8,0:0:0:0:
442,70,619399,1,8,0:0:0:0:
311,165,619560,1,8,0:0:0:0:
472,165,619721,1,2,0:0:0:0:
342,70,619882,6,0,B|287:70|287:70|244:48|244:48|188:48,1,160,2|0,0:0|0:0,0:0:0:0:
76,92,620366,1,0,0:0:0:0:
76,92,620528,2,0,B|131:92|131:92|174:114|174:114|230:114,1,160,2|0,0:0|0:0,0:0:0:0:
230,270,621011,1,0,0:0:0:0:
230,270,621173,2,0,B|174:270|174:270|131:292|131:292|76:292,1,160,2|0,0:0|0:0,0:0:0:0:
188,336,621657,1,0,0:0:0:0:
188,336,621818,2,0,B|244:336|244:336|287:314|287:314|342:314,1,160,2|0,0:0|0:0,0:0:0:0:
420,244,622302,1,0,0:0:0:0:
316,152,622463,6,0,P|256:107|195:151,1,160,6|8,0:0|0:0,0:0:0:0:
256,200,622947,2,0,L|256:32,1,160,2|0,0:0|0:0,0:0:0:0:
356,16,623431,2,0,P|400:16|432:42,1,80,8|0,0:0|0:0,0:0:0:0:
344,155,623753,2,0,L|376:79,1,80,2|0,0:0|0:0,0:0:0:0:
344,229,624076,2,0,L|375:302,1,80,8|0,0:0|0:0,0:0:0:0:
428,347,624399,2,0,P|395:369|356:368,1,80,2|0,0:0|0:0,0:0:0:0:
83,347,624721,2,0,P|116:369|156:368,1,80,8|0,0:0|0:0,0:0:0:0:
256,308,625044,6,0,B|280:228|232:228|256:152,1,160,2|8,0:0|0:0,0:0:0:0:
320,68,625528,2,0,B|280:68|256:27|256:27|232:68|192:68,1,160,2|0,0:0|0:0,0:0:0:0:
100,116,626011,1,8,0:0:0:0:
100,116,626173,2,0,B|73:192|73:192|100:268,1,160,2|0,0:0|0:0,0:0:0:0:
192,316,626657,2,0,B|232:316|256:357|256:357|280:316|320:316,1,160,8|2,0:0|0:0,0:0:0:0:
364,224,627140,1,0,0:0:0:0:
204,136,627302,1,8,0:0:0:0:
308,136,627463,1,0,0:0:0:0:
148,224,627624,6,0,P|64:224|16:172,1,160,6|8,0:0|0:0,0:0:0:0:
72,80,628108,2,0,P|156:80|204:132,1,160,2|0,0:0|0:0,0:0:0:0:
256,224,628592,1,8,0:0:0:0:
256,224,628753,1,0,0:0:0:0:
340,288,628915,2,0,P|355:324|339:360,1,80,2|0,0:0|0:0,0:0:0:0:
172,360,629237,2,0,P|156:324|172:288,1,80,8|0,0:0|0:0,0:0:0:0:
256,224,629560,2,0,B|256:168|256:168|280:128|280:128|280:68,1,160,2|8,0:0|0:0,0:0:0:0:
352,88,630044,1,0,0:0:0:0:
328,241,630205,6,0,B|328:184|328:184|352:144|352:144|352:88,1,160,4|8,0:0|0:0,0:0:0:0:
400,256,630689,2,0,B|400:198|400:198|424:158|424:158|424:102,1,160,2|0,0:0|0:0,0:0:0:0:
360,20,631173,1,2,0:0:0:0:
152,20,631334,1,0,0:0:0:0:
152,20,631415,1,0,0:0:0:0:
152,20,631495,2,0,B|135:56|135:56|152:92,1,80,8|0,0:0|0:0,0:0:0:0:
292,152,631818,2,0,B|256:169|256:169|220:152,1,80,2|8,0:0|0:0,0:0:0:0:
360,92,632140,2,0,B|377:56|377:56|360:20,1,80,8|8,0:0|0:0,0:0:0:0:
256,96,632458,5,2,0:0:0:0:
256,96,633083,1,2,0:0:0:0:
256,344,633395,2,0,L|256:280,2,53.3333333333333,2|0|0,0:0|0:0|0:0,0:0:0:0:
332,264,633708,2,0,L|332:317,2,53.3333333333333,2|0|0,0:0|0:0|0:0,0:0:0:0:
332,184,634020,1,8,0:0:0:0:
332,184,634333,6,0,B|252:164|252:208|172:184,1,160,4|8,0:0|0:0,0:0:0:0:
256,264,634801,1,0,0:0:0:0:
208,116,634958,2,0,B|191:80|191:80|208:44,1,80,2|0,0:0|0:0,0:0:0:0:
304,44,635270,2,0,B|321:80|321:80|304:116,1,80,8|0,0:0|0:0,0:0:0:0:
192,240,635583,6,0,B|232:240|256:199|256:199|280:240|320:240,1,160,2|8,0:0|0:0,0:0:0:0:
256,344,636051,1,0,0:0:0:0:
192,240,636208,2,0,P|177:276|193:311,1,80,2|0,0:0|0:0,0:0:0:0:
317,311,636520,2,0,P|333:276|320:240,1,80,8|0,0:0|0:0,0:0:0:0:
181,147,636833,6,0,B|256:121|256:121|332:148,1,160,2|8,0:0|0:0,0:0:0:0:
132,80,637301,1,0,0:0:0:0:
132,80,637458,2,0,L|232:52,1,80,2|0,0:0|0:0,0:0:0:0:
380,80,637770,2,0,L|280:52,1,80,8|0,0:0|0:0,0:0:0:0:
256,160,638083,5,2,0:0:0:0:
306,313,638239,1,0,0:0:0:0:
175,218,638395,1,8,0:0:0:0:
336,218,638551,1,0,0:0:0:0:
206,313,638708,2,0,B|166:313|166:313|134:285,1,80,2|0,0:0|0:0,0:0:0:0:
306,313,639020,2,0,B|346:313|346:313|378:285,1,80,8|0,0:0|0:0,0:0:0:0:
256,160,639333,6,0,L|256:80,1,80,4|0,0:0|0:0,0:0:0:0:
336,148,639645,1,8,0:0:0:0:
176,148,639801,1,0,0:0:0:0:
336,148,639958,2,0,L|336:228,1,80,2|0,0:0|0:0,0:0:0:0:
176,228,640270,2,0,L|176:148,1,80,8|0,0:0|0:0,0:0:0:0:
336,148,640583,6,0,P|396:104|456:148,1,160,2|8,0:0|0:0,0:0:0:0:
316,240,641051,1,0,0:0:0:0:
316,240,641208,2,0,P|256:284|196:240,1,160,2|8,0:0|0:0,0:0:0:0:
256,160,641676,1,0,0:0:0:0:
376,88,641833,6,0,B|296:108|296:64|218:87,1,160,4|8,0:0|0:0,0:0:0:0:
98,159,642301,1,0,0:0:0:0:
98,159,642458,2,0,B|178:139|178:183|258:159,1,160,2|8,0:0|0:0,0:0:0:0:
420,260,642926,1,0,0:0:0:0:
420,260,643083,2,0,P|360:304|300:260,1,160,2|8,0:0|0:0,0:0:0:0:
92,260,643551,1,0,0:0:0:0:
92,260,643708,6,0,P|152:304|212:260,1,160,2|8,0:0|0:0,0:0:0:0:
216,220,644098,1,8,0:0:0:0:
237,188,644176,1,8,0:0:0:0:
276,189,644254,1,8,0:0:0:0:
295,222,644333,6,0,P|327:201|336:163,1,80,4|0,0:0|0:0,0:0:0:0:
216,220,644645,2,0,P|183:199|174:161,1,80,8|0,0:0|0:0,0:0:0:0:
256,160,644958,1,2,0:0:0:0:
256,18,645114,1,0,0:0:0:0:
185,89,645270,1,8,0:0:0:0:
326,89,645426,1,0,0:0:0:0:
256,160,645583,6,0,L|256:244,1,80,2|0,0:0|0:0,0:0:0:0:
144,316,645895,2,0,B|180:299|180:299|216:316,1,80,8|0,0:0|0:0,0:0:0:0:
368,316,646208,2,0,B|332:299|332:299|296:316,1,80,2|0,0:0|0:0,0:0:0:0:
256,240,646520,2,0,L|256:160,1,80,8|0,0:0|0:0,0:0:0:0:
180,116,646833,6,0,B|256:143|256:143|332:116,1,160,4|8,0:0|0:0,0:0:0:0:
256,40,647301,1,0,0:0:0:0:
180,116,647458,2,0,B|140:116|140:116|108:88,1,80,2|0,0:0|0:0,0:0:0:0:
180,268,647770,2,0,B|140:268|140:268|108:296,1,80,8|0,0:0|0:0,0:0:0:0:
252,192,648083,6,0,B|284:192|284:192|288:196|288:196|288:188|288:188|292:192|292:192|324:192,1,80,2|0,0:0|0:0,0:0:0:0:
474,142,648395,1,8,0:0:0:0:
379,272,648551,1,0,0:0:0:0:
379,111,648708,1,2,0:0:0:0:
474,242,648864,1,0,0:0:0:0:
379,111,649020,2,0,P|392:69|427:51,1,80,8|0,0:0|0:0,0:0:0:0:
320,192,649333,6,0,B|253:192|253:192|245:196|245:196|245:188|245:188|237:192|237:192|169:192,1,160,6|8,0:0|0:0,0:0:0:0:
44,140,649801,1,0,0:0:0:0:
44,140,649958,2,0,B|80:123|80:123|116:140,1,80,2|0,0:0|0:0,0:0:0:0:
44,244,650270,2,0,B|80:261|80:261|116:244,1,80,8|0,0:0|0:0,0:0:0:0:
320,300,650583,6,0,B|280:300|256:259|256:259|232:300|192:300,1,160,6|8,0:0|0:0,0:0:0:0:
256,164,651051,1,0,0:0:0:0:
320,300,651208,2,0,P|320:256|292:228,1,80,10|0,0:0|0:0,0:0:0:0:
192,300,651520,2,0,P|191:256|219:228,1,80,12|0,0:0|0:0,0:0:0:0:
256,6,651833,6,0,B|280:84|236:84|256:164,1,160,4|8,0:0|0:0,0:0:0:0:
192,48,652301,1,8,0:0:0:0:
384,192,652770,1,8,0:0:0:0:
192,336,653083,1,8,0:0:0:0:
192,336,653161,1,8,0:0:0:0:
192,336,653239,1,8,0:0:0:0:
136,256,653395,2,0,L|108:256,4,20,2|0|2|0|2,0:0|0:0|0:0|0:0|0:0,0:0:0:0:
256,256,653708,1,8,0:0:0:0:
320,336,653864,5,8,0:0:0:0:
350,359,653942,1,0,0:0:0:0:
389,354,654020,1,8,0:0:0:0:
412,323,654098,1,0,0:0:0:0:
406,284,654176,1,8,0:0:0:0:
375,261,654254,1,0,0:0:0:0:
336,268,654333,6,0,L|380:188,1,80,12|0,0:0|0:0,0:0:0:0:
432,116,654645,1,8,0:0:0:0:
432,116,654801,1,0,0:0:0:0:
244,260,654958,6,0,L|287:179,1,80,10|0,0:0|0:0,0:0:0:0:
339,107,655270,1,8,0:0:0:0:
339,107,655426,1,0,0:0:0:0:
164,202,655583,5,8,0:0:0:0:
214,355,655739,1,0,0:0:0:0:
83,260,655895,1,8,0:0:0:0:
244,260,656051,1,0,0:0:0:0:
114,355,656208,2,0,P|88:368|20:352,1,80,10|0,0:0|0:0,0:0:0:0:
164,202,656520,2,0,P|190:189|258:205,1,80,8|0,0:0|0:0,0:0:0:0:
456,256,656833,6,0,B|420:239|420:239|384:256,1,80,12|0,0:0|0:0,0:0:0:0:
316,300,657145,1,8,0:0:0:0:
316,300,657301,1,0,0:0:0:0:
456,128,657458,6,0,B|420:145|420:145|384:128,1,80,10|0,0:0|0:0,0:0:0:0:
316,84,657770,1,8,0:0:0:0:
316,84,657926,1,0,0:0:0:0:
152,192,658083,6,0,L|236:192,1,80,12|0,0:0|0:0,0:0:0:0:
172,268,658395,2,0,L|92:268,1,80,8|0,0:0|0:0,0:0:0:0:
184,128,658708,2,0,L|268:128,1,80,10|0,0:0|0:0,0:0:0:0:
136,336,659020,2,0,L|56:336,1,80,8|0,0:0|0:0,0:0:0:0:
256,216,659333,5,12,0:0:0:0:
206,369,659489,1,0,0:0:0:0:
337,274,659645,1,8,0:0:0:0:
176,274,659801,1,0,0:0:0:0:
306,369,659958,1,10,0:0:0:0:
256,216,660114,1,0,0:0:0:0:
203,131,660270,1,8,0:0:0:0:
287,78,660426,1,0,0:0:0:0:
340,163,660583,6,0,P|364:193|362:232,1,80,8|0,0:0|0:0,0:0:0:0:
203,131,660895,2,0,P|190:93|205:57,1,80,8|0,0:0|0:0,0:0:0:0:
256,216,661208,2,0,P|225:240|186:238,1,80,10|0,0:0|0:0,0:0:0:0:
287,78,661520,2,0,P|323:63|360:77,1,80,8|0,0:0|0:0,0:0:0:0:
256,216,661833,5,12,0:0:0:0:
256,376,661989,1,0,0:0:0:0:
256,216,662145,1,8,0:0:0:0:
344,296,662302,1,0,0:0:0:0:
168,296,662458,2,0,B|151:260|151:260|168:224,1,80,10|0,0:0|0:0,0:0:0:0:
344,296,662770,2,0,B|361:260|361:260|344:224,1,80,8|0,0:0|0:0,0:0:0:0:
256,20,663083,5,12,0:0:0:0:
206,174,663239,1,0,0:0:0:0:
336,79,663395,1,8,0:0:0:0:
175,79,663551,1,0,0:0:0:0:
306,174,663708,1,10,0:0:0:0:
188,340,664032,5,8,0:0:0:0:
256,272,664194,1,8,0:0:0:0:
324,340,664356,2,0,P|404:340|448:280,1,160,4|8,0:0|0:0,0:0:0:0:
447,103,664842,2,0,P|401:42|324:44,1,160,2|0,0:0|0:0,0:0:0:0:
256,112,665328,2,0,B|224:112|224:112|220:108|220:108|220:116|220:116|216:112|216:112|180:112,1,80,8|0,0:0|0:0,0:0:0:0:
92,128,665653,6,0,P|48:188|93:248,1,160,2|8,0:0|0:0,0:0:0:0:
196,312,666139,2,0,P|256:355|316:310,1,160,2|0,0:0|0:0,0:0:0:0:
256,196,666626,2,0,L|256:280,1,80,8|0,0:0|0:0,0:0:0:0:
192,136,666950,2,0,B|232:136|256:95|256:95|280:136|320:136,1,160,2|8,0:0|0:0,0:0:0:0:
256,20,667437,1,0,0:0:0:0:
320,136,667599,2,0,B|320:176|320:176|344:212,1,80,2|0,0:0|0:0,0:0:0:0:
192,136,667923,2,0,B|192:176|192:176|168:212,1,80,8|0,0:0|0:0,0:0:0:0:
256,384,668247,5,2,0:0:0:0:
296,260,668410,1,0,0:0:0:0:
191,336,668572,1,8,0:0:0:0:
320,336,668734,1,0,0:0:0:0:
216,260,668896,2,0,B|176:260|176:260|144:284,1,80,2|0,0:0|0:0,0:0:0:0:
216,124,669220,2,0,B|176:124|176:124|144:100,1,80,8|0,0:0|0:0,0:0:0:0:
256,192,669545,6,0,B|336:164|336:216|412:192,1,160,2|8,0:0|0:0,0:0:0:0:
304,256,670031,1,0,0:0:0:0:
372,128,670193,2,0,P|387:92|371:56,1,80,2|0,0:0|0:0,0:0:0:0:
220,20,670518,2,0,P|255:4|291:19,1,80,8|0,0:0|0:0,0:0:0:0:
140,56,670842,2,0,P|124:92|140:128,1,80,2|0,0:0|0:0,0:0:0:0:
256,80,671166,1,8,0:0:0:0:
256,192,671328,2,0,B|284:272|232:272|256:348,1,160,2|0,0:0|0:0,0:0:0:0:
196,240,671815,1,8,0:0:0:0:
320,308,671977,1,0,0:0:0:0:
196,240,672139,6,0,B|169:165|169:165|196:89,1,160,4|8,0:0|0:0,0:0:0:0:
315,89,672626,2,0,B|342:165|342:165|316:240,1,160,2|0,0:0|0:0,0:0:0:0:
220,344,673112,2,0,B|256:361|256:361|292:344,1,80,8|0,0:0|0:0,0:0:0:0:
196,240,673437,1,2,0:0:0:0:
196,144,673599,5,8,0:0:0:0:
196,144,673680,1,8,0:0:0:0:
196,144,673761,2,0,L|160:112,1,40,8|0,0:0|0:0,0:0:0:0:
188,40,673923,1,0,0:0:0:0:
188,40,674004,1,0,0:0:0:0:
188,40,674085,2,0,L|224:72,1,40,10|0,0:0|0:0,0:0:0:0:
294,66,674247,1,8,0:0:0:0:
294,66,674328,1,8,0:0:0:0:
294,66,674409,2,0,L|324:40,1,40,8|0,0:0|0:0,0:0:0:0:
345,117,674572,2,0,L|316:144,1,40,8|8,0:0|0:0,0:0:0:0:
256,192,674734,6,0,B|256:252|256:252|280:288|280:288|280:344,1,160,4|8,0:0|0:0,0:0:0:0:
188,248,675220,2,0,B|188:188|188:188|164:152|164:152|164:96,1,160,2|0,0:0|0:0,0:0:0:0:
292,36,675707,2,0,B|256:19|256:19|220:36,1,80,8|0,0:0|0:0,0:0:0:0:
348,96,676031,2,0,B|348:152|348:152|324:188|324:188|324:248,1,160,2|8,0:0|0:0,0:0:0:0:
320,344,676518,2,0,B|280:344|256:385|256:385|232:344|192:344,1,160,2|0,0:0|0:0,0:0:0:0:
132,268,677004,1,8,0:0:0:0:
72,192,677166,1,0,0:0:0:0:
132,116,677328,2,0,B|180:116|212:76|212:76|280:76,1,160,2|8,0:0|0:0,0:0:0:0:
376,76,677815,1,0,0:0:0:0:
460,228,677977,6,0,B|477:192|477:192|460:156,1,80,2|0,0:0|0:0,0:0:0:0:
376,308,678301,1,8,0:0:0:0:
292,208,678464,2,0,B|256:191|256:191|220:208,1,80,4|0,0:0|0:0,0:0:0:0:
136,308,678788,1,0,0:0:0:0:
52,356,678950,1,8,0:0:0:0:
4,276,679112,1,0,0:0:0:0:
88,228,679274,2,0,B|88:188|88:188|68:152,1,80,2|8,0:0|0:0,0:0:0:0:
168,32,679599,2,0,B|168:72|168:72|188:108,1,80,8|0,0:0|0:0,0:0:0:0:
325,106,679923,6,0,P|400:106|456:163,1,160,2|0,0:0|0:0,0:0:0:0:
391,242,680410,1,0,0:0:0:0:
320,312,680572,2,0,B|280:312|256:353|256:353|232:312|192:312,1,160,8|0,0:0|0:0,0:0:0:0:
121,242,681058,1,8,0:0:0:0:
55,163,681220,2,0,P|109:107|187:106,1,160,2|0,0:0|0:0,0:0:0:0:
256,36,681707,1,0,0:0:0:0:
325,105,681869,2,0,P|402:107|456:163,1,160,8|8,0:0|0:0,0:0:0:0:
371,177,682356,1,0,0:0:0:0:
292,316,682518,6,0,L|372:176,1,160,2|0,0:0|0:0,0:0:0:0:
228,276,683004,1,0,0:0:0:0:
360,348,683166,2,0,L|400:272,1,80,8|0,0:0|0:0,0:0:0:0:
228,276,683491,2,0,L|188:352,1,80,2|8,0:0|0:0,0:0:0:0:
108,300,683815,1,0,0:0:0:0:
60,192,683977,1,8,0:0:0:0:
108,84,684139,2,0,B|172:84|172:84|208:104|208:104|264:104,1,160,2|10,0:0|0:0,0:0:0:0:
256,296,684788,1,8,0:0:0:0:
256,296,684950,1,8,0:0:0:0:
348,196,685112,5,4,0:0:0:0:
256,88,685274,1,8,0:0:0:0:
256,88,685356,1,8,0:0:0:0:
256,88,685437,1,8,0:0:0:0:
164,196,685599,1,8,0:0:0:0:
164,196,685680,1,8,0:0:0:0:
164,196,685761,1,8,0:0:0:0:
256,296,685923,1,8,0:0:0:0:
256,296,686004,1,8,0:0:0:0:
256,296,686085,1,8,0:0:0:0:
348,196,686247,6,0,L|396:196,2,40,8|8|8,0:0|0:0|0:0,0:0:0:0:
256,88,686572,2,0,L|256:36,2,40,8|8|8,0:0|0:0|0:0,0:0:0:0:
164,196,686896,2,0,L|116:196,2,40,8|8|8,0:0|0:0|0:0,0:0:0:0:
256,296,687220,2,0,L|256:348,2,40,8|8|8,0:0|0:0|0:0,0:0:0:0:
256,192,687545,1,8,0:0:0:0:
256,192,687626,1,8,0:0:0:0:
256,192,687707,6,0,L|256:72,1,120,2|0,0:0|0:0,0:0:0:0:
256,24,688031,1,8,0:0:0:0:
256,24,688193,1,8,0:0:0:0:
156,108,688356,1,8,0:0:0:0:
156,108,688518,1,8,0:0:0:0:
256,192,688680,1,8,0:0:0:0:
256,192,688842,1,8,0:0:0:0:
356,108,689004,5,2,0:0:0:0:
156,336,689328,1,0,0:0:0:0:
356,336,689653,1,2,0:0:0:0:
156,108,689977,1,0,0:0:0:0:
156,108,690323,6,0,B|112:108|112:108|80:88,1,80,4|0,0:0|0:0,0:0:0:0:
8,192,690669,2,0,B|36:192|36:192|40:196|40:196|40:188|40:188|44:192|44:192|76:192,1,80,8|0,0:0|0:0,0:0:0:0:
156,276,691016,2,0,B|112:276|112:276|80:296,1,80,2|0,0:0|0:0,0:0:0:0:
81,88,691363,2,0,B|112:108|112:108|156:108,1,80,8|0,0:0|0:0,0:0:0:0:
336,192,691710,6,0,B|256:212|256:168|178:191,1,160,2|8,0:0|0:0,0:0:0:0:
256,116,692230,1,0,0:0:0:0:
256,116,692403,2,0,B|279:193|235:193|255:273,1,160,2|8,0:0|0:0,0:0:0:0:
332,240,692924,1,0,0:0:0:0:
188,148,693097,6,0,P|174:111|189:75,1,80,4|0,0:0|0:0,0:0:0:0:
256,4,693444,1,8,0:0:0:0:
256,4,693617,1,0,0:0:0:0:
322,75,693791,2,0,P|337:111|324:148,1,80,2|0,0:0|0:0,0:0:0:0:
220,236,694138,2,0,B|256:219|256:219|292:236,1,80,8|0,0:0|0:0,0:0:0:0:
256,312,694484,6,0,L|256:140,1,160,2|8,0:0|0:0,0:0:0:0:
340,288,695005,1,0,0:0:0:0:
188,164,695178,2,0,L|188:244,1,80,2|0,0:0|0:0,0:0:0:0:
340,288,695525,1,8,0:0:0:0:
356,276,695612,1,8,0:0:0:0:
372,264,695698,1,8,0:0:0:0:
388,252,695785,1,8,0:0:0:0:
404,240,695872,6,0,B|444:240|444:240|480:264,1,80,4|0,0:0|0:0,0:0:0:0:
404,144,696218,2,0,B|444:144|444:144|480:120,1,80,8|0,0:0|0:0,0:0:0:0:
348,192,696565,2,0,L|264:192,1,80,2|0,0:0|0:0,0:0:0:0:
144,192,696912,1,8,0:0:0:0:
212,120,697086,1,0,0:0:0:0:
212,264,697259,6,0,P|196:300|210:336,1,80,2|0,0:0|0:0,0:0:0:0:
300,264,697606,2,0,P|315:300|301:336,1,80,8|0,0:0|0:0,0:0:0:0:
192,264,697953,2,0,P|176:300|190:336,1,80,2|0,0:0|0:0,0:0:0:0:
320,264,698299,2,0,P|335:300|321:336,1,80,8|0,0:0|0:0,0:0:0:0:
256,228,698646,6,0,B|236:148|280:148|256:68,1,160,4|8,0:0|0:0,0:0:0:0:
324,192,699166,1,0,0:0:0:0:
180,100,699340,1,2,0:0:0:0:
324,192,699513,1,0,0:0:0:0:
180,100,699687,2,0,L|88:100,1,80,8|0,0:0|0:0,0:0:0:0:
324,192,700033,6,0,B|300:269|344:269|324:349,1,160,2|8,0:0|0:0,0:0:0:0:
388,233,700554,1,0,0:0:0:0:
256,320,700727,1,2,0:0:0:0:
388,233,700901,1,8,0:0:0:0:
404,219,700987,1,8,0:0:0:0:
420,205,701074,1,8,0:0:0:0:
436,193,701161,1,8,0:0:0:0:
452,181,701247,1,8,0:0:0:0:
468,169,701334,1,8,0:0:0:0:
484,156,701421,6,0,P|496:104|484:80,1,80,4|0,0:0|0:0,0:0:0:0:
480,252,701768,1,8,0:0:0:0:
424,120,701941,1,0,0:0:0:0:
480,252,702114,2,0,L|400:312,1,80,2|0,0:0|0:0,0:0:0:0:
360,168,702461,2,0,L|424:120,1,80,8|0,0:0|0:0,0:0:0:0:
256,196,702808,5,2,0:0:0:0:
306,349,702981,1,0,0:0:0:0:
175,254,703155,1,8,0:0:0:0:
336,254,703328,1,0,0:0:0:0:
206,349,703502,2,0,P|154:336|137:315,1,80,2|0,0:0|0:0,0:0:0:0:
306,349,703849,2,0,P|357:336|374:315,1,80,10|0,0:0|0:0,0:0:0:0:
256,196,704195,5,2,0:0:0:0:
256,54,704369,1,0,0:0:0:0:
185,125,704542,1,8,0:0:0:0:
326,125,704716,1,0,0:0:0:0:
185,125,704889,2,0,B|168:161|168:161|185:197,1,80,2|0,0:0|0:0,0:0:0:0:
327,125,705236,2,0,B|344:161|344:161|327:197,1,80,8|0,0:0|0:0,0:0:0:0:
192,300,705583,6,0,B|232:300|256:259|256:259|280:300|320:300,1,160,2|8,0:0|0:0,0:0:0:0:
256,360,706103,1,0,0:0:0:0:
256,360,706276,2,0,L|256:180,1,160,2|8,0:0|0:0,0:0:0:0:
256,92,706796,1,0,0:0:0:0:
400,228,706970,6,0,P|362:215|325:229,1,80,4|0,0:0|0:0,0:0:0:0:
256,308,707317,1,8,0:0:0:0:
206,154,707490,1,8,0:0:0:0:
336,249,707664,1,8,0:0:0:0:
336,249,707837,1,8,0:0:0:0:
175,249,708011,1,8,0:0:0:0:
306,154,708184,1,8,0:0:0:0:
206,154,708357,6,0,P|256:102|306:155,1,160,2|8,0:0|0:0,0:0:0:0:
256,308,708877,1,8,0:0:0:0:
206,154,709050,1,8,0:0:0:0:
336,249,709224,1,8,0:0:0:0:
336,249,709397,1,8,0:0:0:0:
175,249,709571,1,8,0:0:0:0:
306,154,709744,6,0,B|364:154|364:154|405:135|405:135|465:135,1,160,4|8,0:0|0:0,0:0:0:0:
306,230,710265,2,0,B|364:230|364:230|405:249|405:249|461:249,1,160,12|0,0:0|0:0,0:0:0:0:
240,192,710785,1,12,0:0:0:0:
240,192,711132,6,0,B|160:172|160:216|80:192,1,160,2|0,0:0|0:0,0:0:0:0:
168,116,711652,2,0,B|144:193|188:193|168:273,1,160,10|0,0:0|0:0,0:0:0:0:
256,336,712172,1,0,0:0:0:0:
343,273,712346,6,0,B|323:193|367:193|344:116,1,160,2|0,0:0|0:0,0:0:0:0:
220,60,712866,2,0,B|256:43|256:43|292:60,1,80,8|0,0:0|0:0,0:0:0:0:
252,152,713213,1,2,0:0:0:0:
220,44,713386,2,0,B|256:27|256:27|292:44,1,80,0|8,0:0|0:0,0:0:0:0:
252,152,713733,1,0,0:0:0:0:
251,309,713906,6,0,B|231:229|275:229|252:152,1,160,2|8,0:0|0:0,0:0:0:0:
316,272,714427,1,0,0:0:0:0:
192,192,714600,2,0,L|112:192,1,80,2|0,0:0|0:0,0:0:0:0:
316,272,714947,2,0,L|396:272,1,80,8|0,0:0|0:0,0:0:0:0:
330,104,715294,6,0,B|256:131|256:131|180:104,1,160,4|8,0:0|0:0,0:0:0:0:
332,176,715814,2,0,B|257:202|257:202|181:175,1,160,2|0,0:0|0:0,0:0:0:0:
292,264,716334,2,0,B|256:281|256:281|220:264,1,80,8|0,0:0|0:0,0:0:0:0:
330,104,716681,6,0,L|494:104,1,160,4|8,0:0|0:0,0:0:0:0:
400,192,717201,2,0,L|236:192,1,160,2|0,0:0|0:0,0:0:0:0:
392,32,717721,2,0,L|484:32,1,80,8|0,0:0|0:0,0:0:0:0:
332,272,718068,6,0,B|264:272|264:272|256:268|256:268|256:276|256:276|248:272|248:272|181:272,1,160,4|8,0:0|0:0,0:0:0:0:
181,112,718588,2,0,B|248:112|248:112|256:108|256:108|256:116|256:116|264:112|264:112|332:112,1,160,2|0,0:0|0:0,0:0:0:0:
256,192,719109,1,8,0:0:0:0:
181,112,719282,6,0,B|164:148|164:148|181:184,1,80,2|0,0:0|0:0,0:0:0:0:
256,76,719629,1,0,0:0:0:0:
331,112,719802,2,0,B|348:148|348:148|331:184,1,80,8|0,0:0|0:0,0:0:0:0:
256,340,720149,1,2,0:0:0:0:
256,192,720323,1,0,0:0:0:0:
256,340,720496,2,0,L|256:256,1,80,8|0,0:0|0:0,0:0:0:0:
192,84,720843,6,0,B|232:84|256:125|256:125|280:84|320:84,1,160,4|8,0:0|0:0,0:0:0:0:
196,172,721363,2,0,P|255:216|316:172,1,160,2|0,0:0|0:0,0:0:0:0:
256,292,721883,1,8,0:0:0:0:
256,134,722057,6,0,B|279:211|235:211|255:291,1,160,4|0,0:0|0:0,0:0:0:0:
196,172,722577,1,8,0:0:0:0:
320,248,722750,1,2,0:0:0:0:
196,172,722924,2,0,B|164:172|164:172|160:176|160:176|160:168|160:168|156:172|156:172|124:172,1,80,0|2,0:0|0:0,0:0:0:0:
320,248,723270,1,2,0:0:0:0:
336,232,723357,1,0,0:0:0:0:
352,216,723444,1,0,0:0:0:0:
368,200,723531,1,0,0:0:0:0:
384,188,723617,6,0,B|408:156|408:156|408:108,1,80,4|0,0:0|0:0,0:0:0:0:
428,272,723964,1,0,0:0:0:0:
320,144,724138,2,0,L|248:204,1,80,8|0,0:0|0:0,0:0:0:0:
428,272,724484,2,0,L|489:220,1,80,8|0,0:0|0:0,0:0:0:0:
384,188,724831,1,8,0:0:0:0:
188,136,725005,6,0,B|152:119|152:119|116:136,1,80,8|0,0:0|0:0,0:0:0:0:
36,192,725351,1,8,0:0:0:0:
116,248,725525,2,0,B|152:265|152:265|188:248,1,80,10|0,0:0|0:0,0:0:0:0:
384,192,725872,2,0,B|304:212|304:168|227:191,1,160,10|0,0:0|0:0,0:0:0:0:
344,120,726392,5,4,0:0:0:0:
344,120,727259,2,0,B|402:120|402:120|443:101|443:101|503:101,1,160,2|4,0:0|0:0,0:0:0:0:
344,264,727953,2,0,B|402:264|402:264|443:283|443:283|503:283,1,160,2|0,0:0|0:0,0:0:0:0:
344,120,728646,1,8,0:0:0:0:
344,264,728820,1,8,0:0:0:0:
256,192,729166,12,2,730207,0:0:0:0:
220,56,730529,6,0,B|256:39|256:39|292:56,1,80,4|0,0:0|0:0,0:0:0:0:
256,144,730851,1,8,0:0:0:0:
192,216,731012,2,0,B|232:216|256:257|256:257|280:216|320:216,1,160,2|0,0:0|0:0,0:0:0:0:
320,312,731496,1,8,0:0:0:0:
192,312,731658,1,0,0:0:0:0:
256,144,731819,6,0,B|196:144|196:144|160:120|160:120|100:120,1,160,2|8,0:0|0:0,0:0:0:0:
216,76,732303,1,2,0:0:0:0:
216,76,732464,2,0,B|276:76|276:76|312:100|312:100|372:100,1,160,0|8,0:0|0:0,0:0:0:0:
428,176,732948,1,0,0:0:0:0:
328,288,733109,6,0,P|343:323|328:359,1,80,2|0,0:0|0:0,0:0:0:0:
264,324,733432,1,8,0:0:0:0:
264,324,733593,2,0,L|424:324,1,160,2|0,0:0|0:0,0:0:0:0:
488,192,734077,2,0,B|456:192|456:192|452:196|452:196|452:188|452:188|448:192|448:192|416:192,1,80,8|0,0:0|0:0,0:0:0:0:
296,252,734399,2,0,P|341:192|297:131,1,160,2|8,0:0|0:0,0:0:0:0:
214,131,734883,1,2,0:0:0:0:
215,251,735045,6,0,P|171:192|214:131,1,160,0|8,0:0|0:0,0:0:0:0:
256,44,735529,1,0,0:0:0:0:
298,130,735690,2,0,L|333:207,1,80,2|0,0:0|0:0,0:0:0:0:
215,130,736012,2,0,L|180:207,1,80,8|0,0:0|0:0,0:0:0:0:
316,268,736335,2,0,P|356:272|384:248,1,80,2|0,0:0|0:0,0:0:0:0:
196,268,736658,2,0,P|156:272|128:248,1,80,8|0,0:0|0:0,0:0:0:0:
256,192,736980,6,0,B|228:120|280:120|256:36,1,160,2|8,0:0|0:0,0:0:0:0:
320,148,737464,1,2,0:0:0:0:
192,76,737625,2,0,B|120:104|120:52|36:76,1,160,0|8,0:0|0:0,0:0:0:0:
148,16,738109,1,0,0:0:0:0:
80,140,738270,6,0,B|63:176|63:176|80:212,1,80,2|0,0:0|0:0,0:0:0:0:
172,352,738593,2,0,B|189:316|189:316|172:280,1,80,8|0,0:0|0:0,0:0:0:0:
340,280,738916,2,0,B|323:316|323:316|340:352,1,80,2|0,0:0|0:0,0:0:0:0:
432,212,739238,2,0,B|449:176|449:176|432:140,1,80,8|0,0:0|0:0,0:0:0:0:
320,88,739561,2,0,B|280:88|256:129|256:129|232:88|192:88,1,160,2|8,0:0|0:0,0:0:0:0:
256,32,740045,6,0,L|256:200,1,160,2|8,0:0|0:0,0:0:0:0:
256,192,740448,1,8,0:0:0:0:
256,192,740529,1,8,0:0:0:0:
256,328,740690,1,0,0:0:0:0:
188,260,740851,1,2,0:0:0:0:
324,260,741012,1,8,0:0:0:0:
324,260,741093,1,8,0:0:0:0:
324,260,741174,5,4,0:0:0:0:
400,320,741335,2,0,P|445:260|401:199,1,160,2|0,0:0|0:0,0:0:0:0:
312,164,741819,1,8,0:0:0:0:
200,164,741980,1,0,0:0:0:0:
256,68,742141,2,0,B|212:68|172:32|172:32|104:32,1,160,2|8,0:0|0:0,0:0:0:0:
49,128,742625,2,0,B|93:128|133:164|133:164|201:164,1,160,2|0,0:0|0:0,0:0:0:0:
256,244,743109,1,8,0:0:0:0:
312,164,743270,1,0,0:0:0:0:
364,244,743432,6,0,P|444:244|476:180,1,160,2|8,0:0|0:0,0:0:0:0:
424,99,743916,2,0,P|344:99|312:163,1,160,2|8,0:0|0:0,0:0:0:0:
296,188,744319,1,8,0:0:0:0:
280,212,744399,1,8,0:0:0:0:
264,236,744480,1,8,0:0:0:0:
248,264,744561,6,0,B|204:264|204:264|172:288,1,80,4|0,0:0|0:0,0:0:0:0:
175,98,744883,2,0,B|204:120|204:120|248:120,1,80,2|8,0:0|0:0,0:0:0:0:
424,244,745206,1,2,0:0:0:0:
468,108,745367,1,0,0:0:0:0:
352,192,745529,1,2,0:0:0:0:
495,192,745690,1,0,0:0:0:0:
380,108,745851,6,0,B|300:108|300:108|232:56,1,160,4|2,0:0|0:0,0:0:0:0:
108,108,746335,2,0,B|188:108|188:108|256:160,1,160,0|10,0:0|0:0,0:0:0:0:
324,220,746819,1,0,0:0:0:0:
256,288,746980,1,0,0:0:0:0:
188,220,747141,1,0,0:0:0:0:
324,220,747303,6,0,B|399:193|399:193|475:220,1,160,2|0,0:0|0:0,0:0:0:0:
400,272,747787,1,0,0:0:0:0:
400,272,747948,2,0,L|400:104,1,160,10|8,0:0|0:0,0:0:0:0:
256,64,748432,1,0,0:0:0:0:
112,112,748593,6,0,L|112:272,1,160,4|0,0:0|0:0,0:0:0:0:
37,220,749077,1,0,0:0:0:0:
37,220,749238,2,0,B|113:193|113:193|188:220,1,160,10|0,0:0|0:0,0:0:0:0:
256,288,749722,1,0,0:0:0:0:
324,220,749883,2,0,B|399:193|399:193|475:220,1,160,2|0,0:0|0:0,0:0:0:0:
400,272,750367,1,0,0:0:0:0:
324,220,750529,6,0,L|288:148,1,80,10|0,0:0|0:0,0:0:0:0:
474,219,750851,2,0,L|510:147,1,80,8|8,0:0|0:0,0:0:0:0:
496,124,751093,1,8,0:0:0:0:
480,100,751174,1,10,0:0:0:0:
464,76,751254,1,8,0:0:0:0:
448,52,751335,1,8,0:0:0:0:
432,28,751416,1,8,0:0:0:0:
412,8,751496,1,8,0:0:0:0:
320,80,751658,6,0,B|280:80|256:121|256:121|232:80|192:80,1,160,8|10,0:0|0:0,0:0:0:0:
192,304,752303,2,0,B|232:304|256:263|256:263|280:304|320:304,1,160,4|0,0:0|0:0,0:0:0:0:
320,208,752787,1,10,0:0:0:0:
192,208,752948,1,2,0:0:0:0:
256,136,753109,5,8,0:0:0:0:
256,108,753190,1,8,0:0:0:0:
256,80,753270,1,8,0:0:0:0:
256,52,753351,1,8,0:0:0:0:
256,24,753432,1,8,0:0:0:0:
332,80,753593,1,8,0:0:0:0:
332,80,753674,1,8,0:0:0:0:
332,80,753754,1,10,0:0:0:0:
180,80,753916,6,0,P|96:80|44:136,1,160,8|10,0:0|0:0,0:0:0:0:
332,304,754561,2,0,P|409:306|466:252,1,160,10|12,0:0|0:0,0:0:0:0:
256,192,755367,1,0,0:0:0:0:
256,192,755690,1,2,0:0:0:0:
256,192,757303,2,0,L|256:112,1,80,2|0,0:0|0:0,0:0:0:0:
256,20,757625,5,4,0:0:0:0:
304,288,758287,2,0,B|256:312|256:312|208:288,2,106.666666666667,8|8|8,0:0|0:0|0:0,0:0:0:0:
256,192,758950,5,2,0:0:0:0:
256,192,759116,1,0,0:0:0:0:
312,104,759282,1,2,0:0:0:0:
312,104,759448,1,0,0:0:0:0:
200,104,759613,2,0,B|183:68|183:68|200:32,1,80,8|0,0:0|0:0,0:0:0:0:
312,32,759945,2,0,B|329:68|329:68|312:104,1,80,10|0,0:0|0:0,0:0:0:0:
256,192,760276,6,0,B|236:272|276:272|256:352,1,160,8|2,0:0|0:0,0:0:0:0:
332,192,760774,1,2,0:0:0:0:
180,192,760939,2,0,L|180:140,2,40,8|8|8,0:0|0:0|0:0,0:0:0:0:
256,60,761271,1,8,0:0:0:0:
332,192,761437,1,8,0:0:0:0:
332,192,761520,1,8,0:0:0:0:
332,192,761602,6,0,L|428:192,1,80,4|0,0:0|0:0,0:0:0:0:
508,192,761934,1,8,0:0:0:0:
308,268,762100,1,8,0:0:0:0:
308,268,762183,1,8,0:0:0:0:
308,268,762265,2,0,L|404:268,1,80,10|0,0:0|0:0,0:0:0:0:
476,268,762597,1,8,0:0:0:0:
258,115,762763,5,8,0:0:0:0:
258,115,762845,1,0,0:0:0:0:
258,115,762928,5,4,0:0:0:0:
208,268,763094,1,8,0:0:0:0:
338,173,763260,1,10,0:0:0:0:
177,173,763426,1,8,0:0:0:0:
308,268,763591,1,8,0:0:0:0:
258,90,763757,1,8,0:0:0:0:
192,291,763923,1,10,0:0:0:0:
363,167,764089,1,8,0:0:0:0:
152,167,764255,1,4,0:0:0:0:
256,192,764337,12,2,765415,0:0:0:0:
256,192,765497,12,0,766741,0:0:0:0:
112,192,766906,6,0,P|156:192|208:252,1,120.000004577637,2|0,0:0|0:0,0:0:0:0:
400,192,767569,2,0,P|356:192|304:252,1,120.000004577637
256,64,768232,2,0,B|275:121|235:121|255:181,1,120.000004577637,2|0,0:0|0:0,0:0:0:0:
320,296,768895,2,0,B|300:236|340:236|320:178,1,120.000004577637
335,55,769558,6,0,B|285:41|250:70|250:70|220:29|166:41|148:57|130:94|133:132|151:167|192:190|228:175|247:219|247:219|269:180|324:178,1,480.000018310548,2|2,0:0|0:0,0:0:0:0:
319,178,771879,1,0,0:0:0:0:
319,178,772210,6,0,P|344:232|312:280,1,120.000004577637,2|0,0:0|0:0,0:0:0:0:
193,178,772873,2,0,P|168:232|200:280,1,120.000004577637
310,88,773536,2,0,B|256:58|256:58|206:88,1,120.000004577637,2|0,0:0|0:0,0:0:0:0:
319,178,774199,2,0,B|373:208|373:208|423:178,1,120.000004577637
206,87,774862,6,0,B|156:73|121:102|121:102|91:61|37:73|19:89|1:126|4:164|22:199|63:222|99:207|118:251|118:251|140:212|195:210,1,480.000018310548,2|2,0:0|0:0,0:0:0:0:
190,210,776851,1,2,0:0:0:0:
256,92,777100,1,0,0:0:0:0:
322,210,777348,1,0,0:0:0:0:
190,210,777514,6,0,P|145:269|189:330,1,160,4|2,0:0|0:0,0:0:0:0:
322,330,778011,1,8,0:0:0:0:
322,330,778094,1,0,0:0:0:0:
322,330,778177,2,0,P|366:269|322:210,1,160,8|2,0:0|0:0,0:0:0:0:
256,78,778840,6,0,B|280:156|236:156|256:236,1,160,0|8,0:0|0:0,0:0:0:0:
176,120,779337,1,0,0:0:0:0:
322,210,779503,2,0,P|357:224|393:209,1,80,10|0,0:0|0:0,0:0:0:0:
176,120,779834,2,0,P|140:105|104:120,1,80
123,276,780166,6,0,B|123:218|123:218|104:177|104:177|104:120,1,160,2|0,0:0|0:0,0:0:0:0:
48,252,780663,1,0,0:0:0:0:
192,252,780829,2,0,L|192:340,1,80,8|0,0:0|0:0,0:0:0:0:
48,332,781160,2,0,L|48:252,1,80,2|0,0:0|0:0,0:0:0:0:
192,332,781492,2,0,B|232:332|256:291|256:291|280:332|320:332,1,160,0|8,0:0|0:0,0:0:0:0:
256,88,782155,5,8,0:0:0:0:
206,241,782321,1,8,0:0:0:0:
336,146,782486,1,8,0:0:0:0:
175,146,782652,1,8,0:0:0:0:
306,241,782818,5,12,0:0:0:0:
306,241,784144,1,12,0:0:0:0:
306,241,785470,1,12,0:0:0:0:
256,88,785801,5,8,0:0:0:0:
256,88,785967,1,8,0:0:0:0:
206,241,786133,1,8,0:0:0:0:
206,241,786299,1,8,0:0:0:0:
336,146,786464,1,8,0:0:0:0:
336,146,786630,1,8,0:0:0:0:
148,144,786796,5,8,0:0:0:0:
148,144,786962,1,8,0:0:0:0:
332,264,787127,1,8,0:0:0:0:
332,264,787293,1,8,0:0:0:0:
256,72,787459,1,8,0:0:0:0:
256,72,787625,1,8,0:0:0:0:
180,264,787790,1,8,0:0:0:0:
152,264,787872,1,8,0:0:0:0:
124,264,787955,1,8,0:0:0:0:
96,264,788038,1,8,0:0:0:0:
68,264,788122,6,0,B|28:264|28:264|0:236,1,80,4|0,0:0|0:0,0:0:0:0:
68,120,788453,2,0,B|28:120|28:120|0:148,1,80,8|0,0:0|0:0,0:0:0:0:
144,84,788785,2,0,B|184:84|184:84|212:56,1,80,2|0,0:0|0:0,0:0:0:0:
368,84,789116,2,0,B|328:84|328:84|300:56,1,80,8|0,0:0|0:0,0:0:0:0:
212,192,789448,1,2,0:0:0:0:
256,328,789613,1,0,0:0:0:0:
300,192,789779,1,8,0:0:0:0:
184,276,789945,1,0,0:0:0:0:
327,276,790111,2,0,B|387:276|387:276|427:296|427:296|483:296,1,160,2|8,0:0|0:0,0:0:0:0:
512,192,790608,1,0,0:0:0:0:
483,88,790774,6,0,B|427:88|427:88|387:108|387:108|327:108,1,160,4|8,0:0|0:0,0:0:0:0:
185,108,791271,2,0,B|125:108|125:108|85:88|85:88|29:88,1,160,2|0,0:0|0:0,0:0:0:0:
144,36,791768,2,0,B|176:36|176:36|180:32|180:32|180:40|180:40|184:36|184:36|212:36,1,80,8|0,0:0|0:0,0:0:0:0:
164,184,792100,2,0,B|136:256|188:256|164:340,1,160,2|8,0:0|0:0,0:0:0:0:
348,340,792597,2,0,B|324:256|376:256|348:184,1,160,2|0,0:0|0:0,0:0:0:0:
188,96,793094,1,8,0:0:0:0:
256,28,793260,1,0,0:0:0:0:
324,96,793426,6,0,P|404:96|456:156,1,160,4|8,0:0|0:0,0:0:0:0:
392,224,793923,1,0,0:0:0:0:
304,304,794089,2,0,P|319:339|304:375,1,80,2|0,0:0|0:0,0:0:0:0:
208,375,794420,2,0,P|192:339|208:304,1,80,8|0,0:0|0:0,0:0:0:0:
328,304,794752,2,0,P|343:339|328:375,1,80,4|0,0:0|0:0,0:0:0:0:
184,375,795083,2,0,P|168:339|184:304,1,80,8|0,0:0|0:0,0:0:0:0:
256,236,795415,1,10,0:0:0:0:
300,100,795580,1,0,0:0:0:0:
185,184,795746,1,8,0:0:0:0:
327,184,795912,1,0,0:0:0:0:
212,100,796078,6,0,B|164:100|128:68|128:68|60:68,1,160,4|2,0:0|0:0,0:0:0:0:
32,192,796575,1,0,0:0:0:0:
60,316,796741,2,0,B|104:316|104:316|132:292,1,80,8|8,0:0|0:0,0:0:0:0:
256,268,797072,1,2,0:0:0:0:
380,292,797238,1,8,0:0:0:0:
380,292,797321,1,8,0:0:0:0:
380,292,797404,6,0,B|408:316|408:316|452:316,1,80,8|8,0:0|0:0,0:0:0:0:
480,192,797735,2,0,B|420:192|420:192|380:172|380:172|324:172,1,160,2|8,0:0|0:0,0:0:0:0:
256,240,798232,1,0,0:0:0:0:
432,124,798398,2,0,B|476:124|476:124|504:96,1,80,10|8,0:0|0:0,0:0:0:0:
472,40,798647,1,8,0:0:0:0:
472,40,798729,6,0,B|392:16|392:68|316:40,1,160,4|8,0:0|0:0,0:0:0:0:
197,39,799227,1,0,0:0:0:0:
220,132,799392,2,0,B|256:149|256:149|292:132,1,80,2|0,0:0|0:0,0:0:0:0:
182,213,799724,2,0,B|256:239|256:239|332:212,2,160,8|2|8,0:0|0:0|0:0,0:0:0:0:
144,276,800553,1,0,0:0:0:0:
368,276,800718,2,0,L|289:306,1,80,2|0,0:0|0:0,0:0:0:0:
144,276,801050,2,0,L|223:306,1,80,8|0,0:0|0:0,0:0:0:0:
256,164,801381,6,0,B|232:80|284:80|256:8,1,160,4|8,0:0|0:0,0:0:0:0:
320,116,801879,1,0,0:0:0:0:
196,48,802044,2,0,B|112:72|112:20|40:48,1,160,2|8,0:0|0:0,0:0:0:0:
40,192,802542,1,0,0:0:0:0:
40,192,802707,2,0,B|112:220|112:168|196:192,1,160,4|8,0:0|0:0,0:0:0:0:
256,268,803205,1,0,0:0:0:0:
316,192,803370,2,0,B|400:168|400:220|472:192,1,160,2|8,0:0|0:0,0:0:0:0:
360,256,803868,1,0,0:0:0:0:
436,128,804033,6,0,B|453:92|453:92|436:56,1,80,4|8,0:0|0:0,0:0:0:0:
328,8,804365,2,0,B|311:44|311:44|328:80,1,80,8|8,0:0|0:0,0:0:0:0:
184,80,804696,2,0,B|201:44|201:44|184:8,1,80,8|8,0:0|0:0,0:0:0:0:
76,56,805028,2,0,B|59:92|59:92|76:128,1,80,8|8,0:0|0:0,0:0:0:0:
148,192,805359,1,8,0:0:0:0:
76,256,805525,1,8,0:0:0:0:
76,256,805608,1,8,0:0:0:0:
76,256,805691,6,0,B|59:292|59:292|76:328,1,80,8|8,0:0|0:0,0:0:0:0:
184,316,806022,1,8,0:0:0:0:
300,232,806188,1,2,0:0:0:0:
256,368,806354,1,2,0:0:0:0:
212,232,806520,1,2,0:0:0:0:
327,316,806685,6,0,P|407:316|439:252,1,160,4|8,0:0|0:0,0:0:0:0:
438,132,807183,2,0,P|402:65|327:68,1,160,2|0,0:0|0:0,0:0:0:0:
256,132,807680,1,8,0:0:0:0:
184,67,807845,2,0,P|109:65|73:132,1,160,2|0,0:0|0:0,0:0:0:0:
73,251,808343,2,0,P|109:318|184:316,1,160,8|0,0:0|0:0,0:0:0:0:
196,192,808840,1,2,0:0:0:0:
196,192,809006,2,0,L|142:262,1,80,8|0,0:0|0:0,0:0:0:0:
365,255,809337,6,0,B|365:195|365:195|341:151|341:151|341:99,1,160,4|8,0:0|0:0,0:0:0:0:
171,101,809834,2,0,B|171:151|171:151|147:195|147:195|147:255,1,160,2|0,0:0|0:0,0:0:0:0:
328,352,810332,1,8,0:0:0:0:
256,288,810497,1,2,0:0:0:0:
184,352,810663,2,0,B|144:352|108:312|108:312|32:312,1,160,0|8,0:0|0:0,0:0:0:0:
36,216,811160,1,0,0:0:0:0:
176,108,811326,2,0,B|159:72|159:72|176:36,1,80,2|0,0:0|0:0,0:0:0:0:
336,36,811658,2,0,B|353:72|353:72|336:108,1,80,8|0,0:0|0:0,0:0:0:0:
256,192,811989,6,0,B|228:268|276:268|256:352,1,160,4|2,0:0|0:0,0:0:0:0:
316,236,812486,2,0,B|392:208|392:256|476:236,1,160,8|2,0:0|0:0,0:0:0:0:
192,316,812984,1,8,0:0:0:0:
192,316,813149,2,0,B|116:288|116:336|32:316,1,160,6|0,0:0|0:0,0:0:0:0:
36,192,813647,2,0,B|116:172|116:220|192:192,1,160,8|2,0:0|0:0,0:0:0:0:
320,192,814144,1,0,0:0:0:0:
292,100,814310,2,0,B|256:83|256:83|220:100,1,80,8|0,0:0|0:0,0:0:0:0:
192,192,814641,6,0,P|148:252|193:312,1,160,4|2,0:0|0:0,0:0:0:0:
318,312,815138,2,0,P|363:252|320:192,1,160,8|2,0:0|0:0,0:0:0:0:
192,108,815636,2,0,P|177:73|192:37,1,80,8|0,0:0|0:0,0:0:0:0:
319,36,815967,2,0,P|335:72|320:108,1,80,2|0,0:0|0:0,0:0:0:0:
256,192,816299,2,0,B|256:248|256:248|280:288|280:288|280:352,1,160,8|2,0:0|0:0,0:0:0:0:
328,228,816796,1,8,0:0:0:0:
212,312,816962,2,0,B|172:312|172:312|140:284,1,80,8|8,0:0|0:0,0:0:0:0:
32,192,817293,1,4,0:0:0:0:
256,192,817625,5,2,0:0:0:0:
196,7,817956,1,2,0:0:0:0:
353,121,818287,1,2,0:0:0:0:
158,121,818619,1,2,0:0:0:0:
316,7,818950,1,2,0:0:0:0:
256,192,819282,1,2,0:0:0:0:
196,7,819613,1,2,0:0:0:0:
256,192,820291,5,2,0:0:0:0:
196,377,820638,1,2,0:0:0:0:
353,263,820982,1,2,0:0:0:0:
158,263,821335,1,2,0:0:0:0:
316,377,821691,1,2,0:0:0:0:
256,192,822071,1,2,0:0:0:0:
196,377,822495,1,2,0:0:0:0:
