osu file format v14

[General]
AudioFilename: audio.mp3
AudioLeadIn: 0
PreviewTime: 924
Countdown: 0
SampleSet: Soft
StackLeniency: 0.7
Mode: 0
LetterboxInBreaks: 0
EpilepsyWarning: 1
WidescreenStoryboard: 1

[Editor]
DistanceSpacing: 1.2
BeatDivisor: 4
GridSize: 32
TimelineZoom: 1.5

[Metadata]
Title:Shoujotachi no Owaranai Yoru
TitleUnicode:少女たちの終わらない夜
Artist:HAG
ArtistUnicode:H△G
Creator:Sarawatlism
Version:Forever
Source:
Tags:Everlasting Night of Teenage Girls 星見る頃を過ぎても chiho hagu ハグ japanese j-pop pop jpop [_lost_] conner c_o_n_n_e_r Bellicose keeVY Firika ohm002
BeatmapID:2294159
BeatmapSetID:1094649

[Difficulty]
HPDrainRate:7
CircleSize:4
OverallDifficulty:8.5
ApproachRate:9.1
SliderMultiplier:1.92
SliderTickRate:1

[Events]
//Background and Video events
0,0,"BG.jpg",0,0
//Break Periods
//Storyboard Layer 0 (Background)
//Storyboard Layer 1 (Fail)
//Storyboard Layer 2 (Pass)
//Storyboard Layer 3 (Foreground)
//Storyboard Layer 4 (Overlay)
//Storyboard Sound Samples

[TimingPoints]
-688,322.58064516129,4,2,1,50,1,0
1892,-200,4,2,1,55,0,0
11166,-200,4,2,1,50,0,0
11246,-200,4,2,1,55,0,0
11731,-200,4,2,1,60,0,0
11892,-200,4,2,1,55,0,0
12215,-142.857142857143,4,2,1,60,0,0
18666,-142.857142857143,4,2,1,45,0,0
18828,-142.857142857143,4,2,1,60,0,0
19957,-90.9090909090909,4,2,1,70,0,0
23746,-90.9090909090909,4,2,1,5,0,0
23828,-90.9090909090909,4,2,1,70,0,0
27699,-83.3333333333333,4,2,1,70,0,0
27940,-83.3333333333333,4,2,1,5,0,0
28021,-83.3333333333333,4,2,1,70,0,0
28182,-100,4,2,1,70,0,0
28423,-100,4,2,1,5,0,0
28505,-100,4,2,1,70,0,0
28666,-76.9230769230769,4,2,1,70,0,0
28907,-76.9230769230769,4,2,1,5,0,0
28989,-76.9230769230769,4,2,1,70,0,0
29634,-76.9230769230769,4,2,2,75,0,0
29795,-76.9230769230769,4,2,2,65,0,0
30118,-76.9230769230769,4,2,2,50,0,0
30279,-200,4,2,2,50,0,0
37940,-200,4,2,2,5,0,0
38021,-200,4,2,2,50,0,0
39634,-166.666666666667,4,2,2,50,0,0
40602,-142.857142857143,4,2,1,60,0,0
44634,-142.857142857143,4,2,2,60,0,0
45279,-142.857142857143,4,2,2,65,0,0
45682,-142.857142857143,4,2,2,5,0,0
45763,-125,4,2,1,55,0,0
49472,-125,4,2,1,35,0,0
49634,-83.3333333333333,4,2,1,65,0,0
49741,-83.3333333333333,4,2,1,5,0,0
49849,-83.3333333333333,4,2,1,60,0,0
49956,-83.3333333333333,4,2,1,5,0,0
50064,-83.3333333333333,4,2,1,55,0,0
50171,-83.3333333333333,4,2,1,5,0,0
50279,-200,4,2,1,60,0,0
50601,-200,4,2,1,5,0,0
50763,-200,4,2,1,45,0,0
50924,-100,4,2,1,65,0,0
52456,-100,4,2,1,5,0,0
52537,-100,4,2,1,65,0,0
56004,-100,4,2,1,5,0,0
56086,-100,4,2,1,65,0,0
57617,-100,4,2,1,5,0,0
57699,-100,4,2,1,65,0,0
63746,-100,4,2,1,5,0,0
63828,-100,4,2,1,65,0,0
68989,-90.9090909090909,4,2,1,65,0,0
70602,-90.9090909090909,4,2,1,70,0,0
71086,-90.9090909090909,4,2,1,55,0,0
71247,-90.9090909090909,4,2,1,60,0,0
71570,-166.666666666667,4,2,1,50,0,0
76731,-125,4,2,1,60,0,0
78666,-125,4,2,1,70,0,0
78828,-125,4,2,2,55,0,0
78989,-125,4,2,1,65,0,0
79311,-111.111111111111,4,2,1,60,0,0
80843,-111.111111111111,4,2,1,55,0,0
80924,-111.111111111111,4,2,1,65,0,0
81892,-90.9090909090909,4,2,1,60,0,0
84473,-76.9230769230769,4,2,1,65,0,0
84714,-76.9230769230769,4,2,1,5,0,0
84795,-76.9230769230769,4,2,1,65,0,0
84957,-83.3333333333333,4,2,1,65,0,0
85198,-83.3333333333333,4,2,1,5,0,0
85279,-83.3333333333333,4,2,1,65,0,0
85441,-90.9090909090909,4,2,1,65,0,0
85763,-71.4285714285714,4,2,1,65,0,0
86086,-250,4,2,1,40,0,0
86408,-250,4,2,1,50,0,0
86731,-250,4,2,1,60,0,0
87053,-83.3333333333333,4,2,1,80,0,1
87294,-83.3333333333333,4,2,1,5,0,1
87376,-83.3333333333333,4,2,1,80,0,1
88585,-83.3333333333333,4,2,1,5,0,1
88666,-83.3333333333333,4,2,1,80,0,1
89875,-83.3333333333333,4,2,1,5,0,1
89957,-83.3333333333333,4,2,1,80,0,1
91166,-83.3333333333333,4,2,1,5,0,1
91247,-83.3333333333333,4,2,1,80,0,1
92133,-83.3333333333333,4,2,1,5,0,1
92215,-83.3333333333333,4,2,1,80,0,1
92456,-83.3333333333333,4,2,1,5,0,1
92537,-83.3333333333333,4,2,1,80,0,1
93746,-83.3333333333333,4,2,1,5,0,1
93828,-83.3333333333333,4,2,1,80,0,1
96327,-83.3333333333333,4,2,1,5,0,1
96408,-83.3333333333333,4,2,1,80,0,1
97053,-76.9230769230769,4,2,1,80,0,1
97295,-76.9230769230769,4,2,1,5,0,0
97376,-83.3333333333333,4,2,1,80,0,1
97617,-83.3333333333333,4,2,1,5,0,1
97699,-83.3333333333333,4,2,1,80,0,1
98907,-83.3333333333333,4,2,1,5,0,1
98989,-83.3333333333333,4,2,1,80,0,1
102376,-83.3333333333333,4,2,1,50,0,0
105118,-90.9090909090909,4,2,1,70,0,1
105199,-90.9090909090909,4,2,1,70,0,0
108907,-90.9090909090909,4,2,1,5,0,0
108989,-90.9090909090909,4,2,1,70,0,0
112860,-83.3333333333333,4,2,1,70,0,0
113101,-83.3333333333333,4,2,1,5,0,0
113182,-83.3333333333333,4,2,1,70,0,0
113344,-100,4,2,1,70,0,0
113585,-100,4,2,1,5,0,0
113666,-100,4,2,1,70,0,0
113828,-76.9230769230769,4,2,1,70,0,0
114069,-76.9230769230769,4,2,1,5,0,0
114150,-76.9230769230769,4,2,1,70,0,0
114795,-76.9230769230769,4,2,2,75,0,0
114957,-76.9230769230769,4,2,2,60,0,0
115441,-100,4,2,1,60,0,0
116972,-100,4,2,1,5,0,0
117053,-100,4,2,1,60,0,0
120843,-100,4,2,1,5,0,0
120924,-100,4,2,1,60,0,0
126004,-100,4,2,1,5,0,0
126086,-100,4,2,1,60,0,0
131165,-100,4,2,1,5,0,0
131247,-100,4,2,1,60,0,0
136086,-166.666666666667,4,2,1,55,0,0
141247,-125,4,2,1,55,0,0
143021,-125,4,2,1,40,0,0
143102,-125,4,2,1,55,0,0
143182,-125,4,2,1,65,0,0
143505,-125,4,2,1,55,0,0
143828,-111.111111111111,4,2,1,60,0,0
145359,-111.111111111111,4,2,1,45,0,0
145441,-111.111111111111,4,2,1,60,0,0
146408,-90.9090909090909,4,2,1,60,0,0
148989,-76.9230769230769,4,2,1,60,0,0
149230,-76.9230769230769,4,2,1,5,0,0
149311,-76.9230769230769,4,2,1,60,0,0
149473,-83.3333333333333,4,2,1,60,0,0
149714,-83.3333333333333,4,2,1,5,0,0
149795,-83.3333333333333,4,2,1,60,0,0
149957,-90.9090909090909,4,2,1,60,0,0
150279,-71.4285714285714,4,2,1,60,0,0
150602,-250,4,2,1,40,0,0
150924,-250,4,2,1,50,0,0
151247,-250,4,2,1,60,0,0
151570,-83.3333333333333,4,2,1,80,0,1
151811,-83.3333333333333,4,2,1,5,0,1
151893,-83.3333333333333,4,2,1,80,0,1
153102,-83.3333333333333,4,2,1,5,0,1
153183,-83.3333333333333,4,2,1,80,0,1
154392,-83.3333333333333,4,2,1,5,0,1
154474,-83.3333333333333,4,2,1,80,0,1
155682,-83.3333333333333,4,2,1,5,0,1
155763,-83.3333333333333,4,2,1,80,0,1
156650,-83.3333333333333,4,2,1,5,0,1
156732,-83.3333333333333,4,2,1,80,0,1
156973,-83.3333333333333,4,2,1,5,0,1
157054,-83.3333333333333,4,2,1,80,0,1
158263,-83.3333333333333,4,2,1,5,0,1
158345,-83.3333333333333,4,2,1,80,0,1
160844,-83.3333333333333,4,2,1,5,0,1
160924,-83.3333333333333,4,2,1,80,0,1
161570,-76.9230769230769,4,2,1,80,0,1
161811,-76.9230769230769,4,2,1,5,0,0
161892,-83.3333333333333,4,2,1,80,0,1
162134,-83.3333333333333,4,2,1,5,0,1
162216,-83.3333333333333,4,2,1,80,0,1
163424,-83.3333333333333,4,2,1,5,0,1
163506,-83.3333333333333,4,2,1,80,0,1
167053,-125,4,2,1,60,0,1
167134,-125,4,2,1,55,0,1
169634,-76.9230769230769,4,2,1,65,0,0
169875,-76.9230769230769,4,2,1,5,0,0
169957,-76.9230769230769,4,2,1,65,0,0
170118,-83.3333333333333,4,2,1,65,0,0
170359,-83.3333333333333,4,2,1,5,0,0
170441,-83.3333333333333,4,2,1,65,0,0
170602,-90.9090909090909,4,2,1,65,0,0
170843,-90.9090909090909,4,2,1,5,0,0
170924,-90.9090909090909,4,2,1,40,0,0
171086,-90.9090909090909,4,2,1,45,0,0
171247,-90.9090909090909,4,2,1,50,0,0
171408,-90.9090909090909,4,2,1,55,0,0
171570,-90.9090909090909,4,2,1,60,0,0
171731,-90.9090909090909,4,2,1,65,0,0
171892,-90.9090909090909,4,2,1,70,0,0
172215,-83.3333333333333,4,2,1,65,0,0
172456,-83.3333333333333,4,2,1,5,0,0
172537,-83.3333333333333,4,2,1,65,0,0
172699,-90.9090909090909,4,2,1,65,0,0
172940,-90.9090909090909,4,2,1,5,0,0
173021,-90.9090909090909,4,2,1,65,0,0
173182,-100,4,2,1,65,0,0
173423,-100,4,2,1,5,0,0
173505,-100,4,2,1,50,0,0
173666,-100,4,2,1,55,0,0
173828,-100,4,2,1,60,0,0
173989,-100,4,2,1,65,0,0
174150,-100,4,2,1,70,0,0
174634,-100,4,2,2,70,0,0
174795,-76.9230769230769,4,2,1,65,0,0
174957,-76.9230769230769,4,2,1,55,0,0
175036,-76.9230769230769,4,2,1,65,0,0
175118,-76.9230769230769,4,2,1,75,0,0
175279,-83.3333333333333,4,2,1,75,0,0
175520,-83.3333333333333,4,2,1,65,0,0
175602,-83.3333333333333,4,2,1,75,0,0
175763,-90.9090909090909,4,2,1,75,0,0
176004,-90.9090909090909,4,2,1,5,0,0
176086,-90.9090909090909,4,2,1,35,0,0
176408,-90.9090909090909,4,2,1,45,0,0
176731,-90.9090909090909,4,2,1,55,0,0
177053,-90.9090909090909,4,2,1,65,0,0
177376,-90.9090909090909,4,2,1,75,0,0
178666,-83.3333333333333,4,2,1,75,0,0
178827,-83.3333333333333,4,2,1,55,0,0
178989,-83.3333333333333,4,2,1,75,0,0
179391,-83.3333333333333,4,2,1,5,0,0
179473,-83.3333333333333,4,2,1,65,0,0
179634,-83.3333333333333,4,2,1,70,0,0
179795,-83.3333333333333,4,2,1,75,0,0
179957,-90.9090909090909,4,2,1,75,0,0
180037,-90.9090909090909,4,2,1,70,0,0
182456,-90.9090909090909,4,2,1,5,0,0
182537,-90.9090909090909,4,2,1,70,0,0
190198,-90.9090909090909,4,2,1,5,0,0
190279,-111.111111111111,4,2,1,70,0,0
198021,-100,4,2,1,70,0,0
199311,-90.9090909090909,4,2,1,70,0,0
200602,-142.857142857143,4,2,1,60,0,0
204473,-142.857142857143,4,2,1,75,0,0
205763,-76.9230769230769,4,2,1,85,0,1
206649,-76.9230769230769,4,2,1,5,0,1
206731,-76.9230769230769,4,2,1,85,0,1
207295,-76.9230769230769,4,2,1,5,0,1
207376,-76.9230769230769,4,2,1,85,0,1
208585,-76.9230769230769,4,2,1,5,0,1
208667,-76.9230769230769,4,2,1,85,0,1
209875,-76.9230769230769,4,2,1,5,0,1
209956,-76.9230769230769,4,2,1,85,0,1
210843,-76.9230769230769,4,2,1,5,0,1
210925,-76.9230769230769,4,2,1,85,0,1
211166,-76.9230769230769,4,2,1,5,0,1
211247,-76.9230769230769,4,2,1,85,0,1
212456,-76.9230769230769,4,2,1,5,0,1
212538,-76.9230769230769,4,2,1,85,0,1
215037,-76.9230769230769,4,2,1,5,0,1
215118,-76.9230769230769,4,2,1,85,0,1
215763,-71.4285714285714,4,2,1,85,0,1
216005,-71.4285714285714,4,2,1,5,0,0
216086,-76.9230769230769,4,2,1,90,0,1
216972,-76.9230769230769,4,2,1,5,0,1
217053,-76.9230769230769,4,2,1,90,0,1
217617,-76.9230769230769,4,2,1,5,0,1
217699,-76.9230769230769,4,2,1,90,0,1
220280,-76.9230769230769,4,2,1,45,0,1
220602,-76.9230769230769,4,2,1,50,0,1
220924,-76.9230769230769,4,2,1,55,0,1
221247,-76.9230769230769,4,2,1,65,0,1
221570,-76.9230769230769,4,2,1,75,0,1
221892,-76.9230769230769,4,2,1,85,0,1
222537,-76.9230769230769,4,2,1,75,0,1
223021,-62.5,4,2,1,75,0,1
223182,-62.5,4,2,1,5,0,1
223344,-62.5,4,2,1,75,0,1
223505,-62.5,4,2,1,5,0,1
223666,-62.5,4,2,1,75,0,1
223828,-90.9090909090909,4,2,1,70,0,0
226327,-90.9090909090909,4,2,1,5,0,0
226408,-90.9090909090909,4,2,1,70,0,0
228907,-90.9090909090909,4,2,1,5,0,0
228989,-90.9090909090909,4,2,1,70,0,0
231570,-83.3333333333333,4,2,1,70,0,0
233505,-83.3333333333333,4,2,1,75,0,0
233828,-76.9230769230769,4,2,1,75,0,0
234069,-76.9230769230769,4,2,1,5,0,0
234150,-90.9090909090909,4,2,1,70,0,0
239230,-90.9090909090909,4,2,1,5,0,0
239311,-90.9090909090909,4,2,1,70,0,0
241811,-90.9090909090909,4,2,1,5,0,0
241892,-76.9230769230769,4,2,1,70,0,0
242133,-76.9230769230769,4,2,1,65,0,0
242215,-76.9230769230769,4,2,1,75,0,0
242376,-90.9090909090909,4,2,1,70,0,0
242860,-83.3333333333333,4,2,1,70,0,0
243101,-83.3333333333333,4,2,1,65,0,0
243182,-83.3333333333333,4,2,1,75,0,0
243344,-100,4,2,1,70,0,0
243666,-100,4,2,1,65,0,0
243828,-100,4,2,1,75,0,0
243989,-100,4,2,1,60,0,0

[Colours]
Combo1 : 254,180,180
Combo2 : 100,113,187
Combo3 : 125,133,162
Combo4 : 115,86,201
Combo5 : 172,109,177
Combo6 : 255,184,149
Combo7 : 253,132,132
Combo8 : 253,236,168

[HitObjects]
37,195,924,21,2,2:0:0:0:
46,193,1247,1,2,2:0:0:0:
54,190,1570,1,2,2:0:0:0:
63,186,1892,6,0,P|115:179|154:207,1,96,2|2,2:0|2:0,2:0:0:0:
231,283,2537,2,0,P|283:290|321:208,1,144,2|0,2:0|2:0,2:0:0:0:
303,141,3182,2,0,B|253:130|253:130|210:156,1,96,2|2,2:0|2:0,2:0:0:0:
399,208,3828,2,0,B|449:219|449:219|492:193,1,96,2|2,2:0|2:0,2:0:0:0:
385,20,4473,102,0,P|376:61|372:117,1,96,2|0,2:0|2:0,2:0:0:0:
303,141,4957,2,0,P|312:182|316:238,1,96,2|0,2:0|2:0,2:0:0:0:
363,299,5441,1,2,2:0:0:0:
363,299,5602,1,2,2:0:0:0:
303,351,5763,6,0,P|259:342|191:335,1,96,2|2,2:0|2:0,2:0:0:0:
110,275,6408,2,0,P|70:307|12:300,1,96,2|2,2:0|2:0,2:0:0:0:
8,229,6892,1,0,2:0:0:0:
27,157,7053,102,0,P|74:158|109:188,1,96,2|2,2:0|2:0,2:0:0:0:
225,200,7699,2,0,P|274:197|300:146,2,96,2|2|2,2:0|2:0|2:0,2:0:0:0:
253,72,8666,1,2,2:0:0:0:
375,155,8989,2,0,B|430:164|430:164|474:125,1,96,2|2,2:0|2:0,2:0:0:0:
473,20,9634,6,0,B|428:2|403:29|410:33|374:59|334:40,1,144,2|0,2:0|2:0,2:0:0:0:
266,56,10279,2,0,P|237:35|211:35,1,48,2|0,2:0|2:0,2:0:0:0:
152,33,10602,2,0,P|126:49|99:49,1,48,2|2,2:0|2:0,2:0:0:0:
34,15,10924,102,0,P|37:67|37:117,1,96,0|2,2:0|2:0,2:0:0:0:
25,225,11570,2,0,P|65:185|112:193,1,96,2|2,2:0|2:0,2:0:0:0:
165,229,12053,1,0,2:0:0:0:
228,279,12215,102,0,P|280:295|338:239,2,134.399995898438,2|2|2,2:0|1:2|2:0,2:0:0:0:
165,229,13021,1,0,2:0:0:0:
208,161,13182,2,0,P|256:155|276:176,1,67.1999979492188,0|0,1:0|2:0,2:0:0:0:
349,171,13505,6,0,P|397:173|430:93,1,134.399995898438,2|2,2:0|1:2,2:0:0:0:
392,34,13989,1,0,2:0:0:0:
314,13,14150,2,0,L|316:82,1,67.1999979492188,2|0,2:0|2:0,2:0:0:0:
236,8,14473,2,0,L|238:77,1,67.1999979492188,2|0,1:2|2:0,2:0:0:0:
196,144,14795,6,0,B|161:163|123:142|128:135|98:113|59:134,1,134.399995898438,2|0,2:0|1:2,2:0:0:0:
16,191,15279,1,2,2:0:0:0:
69,251,15441,2,0,P|114:240|126:214,1,67.1999979492188,0|0,2:0|2:0,2:0:0:0:
11,308,15763,2,0,B|2:347|2:347|14:380,1,67.1999979492188,0|0,1:2|2:0,2:0:0:0:
159,323,16086,5,0,2:0:0:0:
159,323,16247,1,0,2:0:0:0:
82,340,16408,2,0,P|128:335|161:333,1,67.1999979492188,0|2,1:2|2:0,2:0:0:0:
264,259,16731,2,0,P|218:254|185:252,1,67.1999979492188,2|0,2:0|2:0,2:0:0:0:
318,348,17053,2,0,P|272:353|239:355,1,67.1999979492188,2|2,1:2|2:0,2:0:0:0:
482,281,17376,70,0,B|447:300|409:279|414:272|384:250|345:271,1,134.399995898438,0|2,2:0|1:2,2:0:0:0:
276,244,17860,1,2,2:0:0:0:
330,184,18021,2,0,P|339:144|319:111,1,67.1999979492188,2|0,2:0|2:0,2:0:0:0:
254,88,18344,2,0,P|245:128|265:161,1,67.1999979492188,2|2,1:2|2:0,2:0:0:0:
307,11,18666,101,8,2:0:0:0:
147,147,18828,1,8,2:0:0:0:
147,147,19957,6,0,B|210:171|255:137|246:128|287:94|352:120,1,211.200006445313,6|10,1:2|2:0,2:0:0:0:
438,206,20441,1,0,2:0:0:0:
352,299,20602,2,0,B|331:250|331:250|355:197,1,105.600003222656,2|0,1:2|1:2,2:0:0:0:
499,277,20924,2,0,B|520:326|520:326|496:379,1,105.600003222656,10|0,2:0|2:0,2:0:0:0:
287,367,21247,5,2,1:2:0:0:
430,307,21408,1,0,1:2:0:0:
252,240,21570,2,0,P|302:288|350:280,1,105.600003222656,10|0,2:0|1:2,2:0:0:0:
249,142,21892,2,0,P|182:161|165:206,1,105.600003222656,2|0,2:0|1:2,2:0:0:0:
334,196,22215,2,0,P|350:128|319:91,1,105.600003222656,10|0,2:0|2:0,2:0:0:0:
241,14,22537,6,0,B|178:-10|133:24|142:33|101:67|36:41,1,211.200006445313,2|8,1:2|2:0,2:0:0:0:
9,166,23021,1,2,2:0:0:0:
167,189,23182,2,0,P|132:139|84:143,1,105.600003222656,0|0,1:2|1:2,2:0:0:0:
145,276,23505,2,0,P|229:269|254:207,1,158.400004833985,8|0,2:0|2:0,2:0:0:0:
271,195,23828,6,0,P|326:153|417:249,1,211.200006445313,0|8,1:2|2:0,2:0:0:0:
319,309,24311,1,0,1:2:0:0:
181,195,24473,2,0,P|160:145|183:96,1,105.600003222656,0|0,2:0|1:2,2:0:0:0:
218,284,24795,2,0,P|239:334|216:383,1,105.600003222656,8|0,2:0|2:0,2:0:0:0:
18,255,25118,70,0,B|81:231|126:265|117:274|158:308|223:282,1,211.200006445313,6|8,1:2|2:0,2:0:0:0:
282,174,25602,1,0,2:0:0:0:
203,74,25763,2,0,B|148:60|148:60|100:93,1,105.600003222656,0|0,1:2|1:2,2:0:0:0:
282,174,26086,2,0,B|337:188|337:188|385:155,1,105.600003222656,8|0,2:0|2:0,2:0:0:0:
278,24,26408,5,2,1:2:0:0:
153,165,26570,1,0,1:2:0:0:
377,160,26731,2,0,P|334:120|281:128,1,105.600003222656,10|0,2:0|1:2,2:0:0:0:
398,260,27053,2,0,P|454:242|473:192,1,105.600003222656,2|0,2:0|1:2,2:0:0:0:
290,221,27376,2,0,P|276:278|310:320,1,105.600003222656,10|0,2:0|2:0,2:0:0:0:
434,354,27699,86,0,L|245:355,1,172.799994726563,6|0,1:2|2:0,2:0:0:0:
233,354,28021,1,8,2:0:0:0:
158,266,28182,70,0,P|251:263|287:209,1,144,2|0,1:2|2:0,2:0:0:0:
282,207,28505,1,0,2:0:0:0:
84,368,28666,6,0,P|127:296|70:208,1,187.199991430664,6|0,1:2|2:0,2:0:0:0:
49,191,28989,1,8,2:0:0:0:
233,354,29150,5,0,1:2:0:0:
13,285,29311,1,2,2:0:0:0:
224,105,29473,1,8,2:0:0:0:
224,105,29553,1,8,2:0:0:0:
224,105,29634,5,10,2:0:0:0:
84,368,29795,1,2,1:2:0:0:
84,368,30118,1,2,2:0:0:0:
13,285,30279,6,0,B|74:259|134:288|114:311|156:354|206:351|248:316|246:256|206:238,1,288,2|2,2:0|2:0,2:0:0:0:
144,163,31570,2,0,P|107:177|48:180,2,96,2|2|2,2:0|2:0|2:0,2:0:0:0:
186,99,32376,2,0,P|228:88|277:124,1,96,2|2,2:0|2:0,2:0:0:0:
323,168,32860,54,0,P|356:176|398:29,1,240,2|0,2:0|2:0,2:0:0:0:
322,11,33828,1,2,2:0:0:0:
322,11,33989,1,2,2:0:0:0:
255,50,34150,2,0,P|197:66|97:68,2,144,0|0|2,2:0|2:0|2:0,2:0:0:0:
399,29,35441,54,0,P|455:25|490:59,1,96,2|2,2:0|2:0,2:0:0:0:
455,160,36086,2,0,P|408:166|369:140,1,96,2|2,2:0|2:0,2:0:0:0:
297,107,36570,1,0,2:0:0:0:
239,162,36731,2,0,B|226:213|226:213|249:268,2,96,2|2|2,2:0|2:0|2:0,2:0:0:0:
163,74,37699,2,0,P|119:69|88:90,1,72,2|0,2:0|2:0,2:0:0:0:
91,96,38021,54,0,P|147:124|159:23,1,192,2|0,2:0|2:0,2:0:0:0:
53,19,38989,1,2,2:0:0:0:
4,75,39150,2,0,L|8:178,1,96,2|0,2:0|2:0,2:0:0:0:
67,254,39634,54,0,P|37:250|-1:248,1,57.5999982421876,2|2,2:0|2:0,2:0:0:0:
139,162,39957,2,0,P|108:174|70:177,1,57.5999982421876,2|2,2:0|2:0,2:0:0:0:
211,266,40279,2,0,P|182:248|144:246,1,57.5999982421876,2|2,2:0|2:0,2:0:0:0:
255,188,40602,6,0,B|295:200|325:181|320:172|350:152|396:173,1,134.399995898438,6|2,1:2|1:2,2:0:0:0:
439,226,41086,1,0,2:0:0:0:
501,175,41247,2,0,P|492:122|490:96,1,67.1999979492188,2|0,1:2|2:0,2:0:0:0:
417,74,41570,2,0,P|426:21|428:-5,1,67.1999979492188,2|0,1:2|2:0,2:0:0:0:
347,19,41892,6,0,B|307:31|277:12|282:3|252:-17|206:4,1,134.399995898438,2|2,1:2|1:2,2:0:0:0:
153,47,42376,1,0,2:0:0:0:
73,60,42537,2,0,P|52:11|63:-15,1,67.1999979492188,2|0,1:2|2:0,2:0:0:0:
125,123,42860,2,0,P|126:156|107:183,1,67.1999979492188,2|0,1:2|2:0,2:0:0:0:
35,219,43182,6,0,P|112:215|179:215,1,134.399995898438,2|0,1:2|1:2,2:0:0:0:
231,266,43666,1,0,2:0:0:0:
282,203,43828,1,0,1:2:0:0:
268,342,43989,1,2,2:0:0:0:
215,149,44150,1,2,1:2:0:0:
341,271,44311,1,2,2:0:0:0:
158,308,44473,70,0,P|194:281|225:282,1,67.1999979492188,0|8,1:2|2:0,2:0:0:0:
287,352,44795,1,0,1:2:0:0:
282,203,44957,1,8,3:0:0:0:
416,296,45118,2,0,P|380:269|349:270,1,67.1999979492188,0|8,1:2|2:0,2:0:0:0:
282,203,45441,2,0,P|331:197|350:144,1,100.799996923828,2|0,1:2|2:0,2:0:0:0:
350,136,45763,6,0,B|307:149|275:129|281:119|249:98|200:120,1,153.6,6|2,1:2|2:0,2:0:0:0:
136,182,46247,1,0,1:2:0:0:
51,146,46408,2,0,P|3:103|56:31,1,153.6,10|2,2:0|2:0,2:0:0:0:
121,77,46892,1,10,2:0:0:0:
192,19,47053,5,2,1:2:0:0:
268,106,47215,2,0,P|218:113|192:98,1,76.8,8|2,2:0|2:0,2:0:0:0:
293,19,47537,1,0,1:2:0:0:
363,79,47699,2,0,P|414:75|451:65,1,76.8,10|0,2:0|2:0,2:0:0:0:
489,187,48021,2,0,P|458:159|420:157,1,76.8,2|0,1:2|2:0,2:0:0:0:
414,329,48344,6,0,P|459:308|412:239,1,153.6,2|0,1:2|2:0,2:0:0:0:
347,176,48828,1,0,1:2:0:0:
268,268,48989,2,0,B|309:276|309:276|345:252,1,76.8,8|0,2:0|1:2,2:0:0:0:
255,176,49311,2,0,B|214:168|214:168|178:192,1,76.8,0|8,2:0|2:0,2:0:0:0:
174,200,49553,1,0,2:0:0:0:
162,213,49634,54,0,P|178:172|163:136,1,76.7999976562501,8|0,2:0|2:0,2:0:0:0:
36,131,49849,70,0,P|63:165|101:169,1,76.7999976562501,8|0,2:0|2:0,2:0:0:0:
166,54,50064,6,0,P|125:60|103:89,1,76.7999976562501,8|0,2:0|2:0,2:0:0:0:
160,297,50279,6,0,P|180:247|154:207,1,96,2|0,1:3|2:0,2:0:0:0:
161,212,50763,1,2,2:0:0:0:
70,331,50924,22,0,B|122:299|164:332|161:340|209:367|271:332,1,192,6|8,1:2|2:0,2:0:0:0:
328,252,51408,1,0,2:0:0:0:
229,191,51570,2,0,B|174:184|174:184|140:224,1,96,0|0,1:2|1:2,2:0:0:0:
328,252,51892,1,8,2:0:0:0:
261,106,52053,1,2,2:0:0:0:
328,252,52215,6,0,P|387:266|437:196,1,144,0|0,1:2|2:0,2:0:0:0:
439,182,52537,1,10,2:0:0:0:
488,318,52699,1,0,1:2:0:0:
351,168,52860,1,2,2:0:0:0:
510,233,53021,1,2,1:2:0:0:
389,355,53182,2,0,P|332:346|284:346,1,96,8|2,2:0|2:0,2:0:0:0:
179,330,53505,6,0,P|251:332|245:225,1,192,2|8,1:2|2:0,2:0:0:0:
198,132,53989,1,0,2:0:0:0:
85,237,54150,2,0,B|142:244|142:244|180:212,1,96,0|0,1:2|1:2,2:0:0:0:
101,126,54473,2,0,B|44:119|44:119|6:151,1,96,10|2,2:0|2:0,2:0:0:0:
0,327,54795,6,0,B|84:323|84:323|113:336|113:336|207:329,1,192,0|8,1:2|2:0,2:0:0:0:
275,253,55279,1,0,1:2:0:0:
176,191,55441,2,0,P|111:207|104:249,1,96,0|0,2:0|1:2,2:0:0:0:
246,112,55763,2,0,P|292:146|393:136,1,144,10|0,2:0|2:0,2:0:0:0:
389,138,56086,70,0,P|366:193|375:237,1,96,2|0,1:2|2:0,2:0:0:0:
462,68,56408,2,0,P|426:21|383:6,1,96,10|0,2:0|2:0,2:0:0:0:
454,191,56731,1,2,1:2:0:0:
322,74,56892,1,0,1:2:0:0:
286,249,57053,2,0,B|339:256|339:256|372:226,1,96,10|0,2:0|2:0,2:0:0:0:
230,137,57376,6,0,B|181:116|157:149|161:153|129:187|90:175,1,144,2|0,1:2|2:0,2:0:0:0:
77,170,57699,2,0,B|55:124|55:124|77:78,1,96,10|0,2:0|1:2,2:0:0:0:
207,217,58021,1,2,2:0:0:0:
207,217,58182,1,0,1:2:0:0:
126,300,58344,2,0,P|57:286|13:288,1,96,10|0,2:0|2:0,2:0:0:0:
207,217,58666,6,0,P|261:245|326:142,1,192,2|8,1:2|2:0,2:0:0:0:
226,66,59150,1,0,2:0:0:0:
124,120,59311,2,0,L|126:227,1,96,0|0,1:2|1:2,2:0:0:0:
298,89,59634,2,0,P|317:37|287:-8,1,96,10|2,2:0|2:0,2:0:0:0:
139,43,59957,5,0,1:2:0:0:
258,165,60118,1,2,1:2:0:0:
258,165,60199,1,2,2:0:0:0:
258,165,60279,1,10,2:0:0:0:
41,168,60441,1,0,1:2:0:0:
226,66,60602,69,0,2:0:0:0:
127,237,60763,1,0,1:2:0:0:
53,28,60924,1,10,2:0:0:0:
142,137,61086,1,0,2:0:0:0:
317,89,61247,6,0,B|266:69|223:110|232:112|194:159|133:134,1,192,4|10,1:2|2:0,2:0:0:0:
61,53,61731,1,0,2:0:0:0:
17,206,61892,2,0,P|60:171|58:128,1,96,2|0,1:2|1:2,2:0:0:0:
106,320,62215,2,0,P|46:304|1:313,1,96,10|0,2:0|2:0,2:0:0:0:
143,218,62537,6,0,P|190:253|239:247,1,96,2|0,1:2|1:2,2:0:0:0:
291,134,62860,2,0,P|244:137|209:168,1,96,10|0,2:0|1:2,2:0:0:0:
308,230,63182,1,2,2:0:0:0:
205,68,63344,1,0,1:2:0:0:
308,230,63505,2,0,P|355:227|401:144,1,144,10|0,2:0|2:0,2:0:0:0:
408,137,63828,6,0,L|411:348,1,192,2|8,1:2|2:0,2:0:0:0:
303,369,64311,1,0,2:0:0:0:
234,276,64473,2,0,P|282:246|323:262,1,96,0|2,1:2|1:2,2:0:0:0:
164,358,64795,1,10,2:0:0:0:
122,250,64957,1,2,2:0:0:0:
0,328,65118,70,0,P|70:349|107:238,1,192,0|8,1:2|2:0,2:0:0:0:
39,173,65602,1,0,1:2:0:0:
132,106,65763,2,0,P|174:146|217:147,1,96,0|0,2:0|1:2,2:0:0:0:
289,64,66086,1,10,2:0:0:0:
352,159,66247,1,0,2:0:0:0:
451,32,66408,6,0,P|405:40|373:75,1,96,2|0,1:2|2:0,2:0:0:0:
433,220,66731,2,0,B|450:169|450:169|425:116,1,96,10|0,2:0|2:0,2:0:0:0:
349,269,67053,2,0,B|332:320|332:320|357:373,1,96,2|0,1:2|1:2,2:0:0:0:
444,315,67376,1,10,2:0:0:0:
344,175,67537,1,2,2:0:0:0:
444,315,67699,6,0,P|499:299|508:242,1,96,2|0,1:2|1:2,2:0:0:0:
344,175,68021,2,0,P|289:191|280:248,1,96,10|0,2:0|1:2,2:0:0:0:
227,363,68344,2,0,P|241:307|196:271,1,96,2|0,2:0|1:2,2:0:0:0:
122,161,68666,2,0,P|163:201|217:180,1,96,10|0,2:0|2:0,2:0:0:0:
243,77,68989,6,0,B|187:55|140:100|150:102|109:154|42:126,1,211.200006445313,6|8,1:2|2:0,2:0:0:0:
80,5,69473,1,0,1:2:0:0:
243,77,69634,1,8,2:0:0:0:
43,131,69795,1,0,1:2:0:0:
264,67,69957,1,8,2:0:0:0:
80,5,70118,1,0,1:2:0:0:
159,256,70279,69,8,2:0:0:0:
281,58,70441,1,8,2:0:0:0:
41,228,70602,1,8,2:0:0:0:
343,158,70763,1,8,2:0:0:0:
80,5,70924,5,10,2:0:0:0:
169,354,71086,1,10,2:0:0:0:
237,156,71247,1,2,1:2:0:0:
30,243,71408,1,8,2:0:0:0:
264,363,71570,102,0,P|285:316|258:251,1,115.199996484375,6|2,1:2|2:0,2:0:0:0:
257,245,72215,2,0,P|297:250|326:250,2,57.5999982421876,2|2|0,2:0|2:0|2:0,2:0:0:0:
195,192,72699,1,2,2:0:0:0:
220,115,72860,54,0,P|272:78|336:86,1,115.199996484375,0|2,2:0|2:0,2:0:0:0:
368,39,73344,1,0,2:0:0:0:
450,89,73505,2,0,P|452:44|455:21,1,57.5999982421876,2|0,2:0|2:0,2:0:0:0:
393,202,73828,2,0,P|391:157|388:134,1,57.5999982421876,2|0,2:0|2:0,2:0:0:0:
467,236,74150,54,0,P|437:193|359:258,1,172.799994726563,2|2,2:0|2:0,2:0:0:0:
370,321,74795,2,0,P|412:311|433:311,1,57.5999982421876,2|0,2:0|2:0,2:0:0:0:
238,275,75118,2,0,P|280:291|301:291,1,57.5999982421876,2|2,2:0|2:0,2:0:0:0:
128,368,75441,54,0,P|177:362|251:362,1,115.199996484375,2|2,2:0|2:0,2:0:0:0:
242,361,76086,53,2,2:0:0:0:
154,225,76247,1,2,1:2:0:0:
154,225,76570,1,10,3:0:0:0:
44,299,76731,54,0,P|106:312|138:224,1,153.6,6|2,1:2|1:2,2:0:0:0:
114,147,77215,1,0,2:0:0:0:
38,212,77376,2,0,L|41:296,1,76.8,2|0,1:2|2:0,2:0:0:0:
114,147,77699,2,0,P|127:109|111:77,1,76.8,2|8,1:2|3:0,2:0:0:0:
24,30,78021,70,0,B|74:48|104:24|99:18|132:-4|195:18,2,153.6,2|2|0,1:2|1:2|1:2,2:0:0:0:
12,129,78828,1,8,2:0:0:0:
107,158,78989,1,10,3:0:0:0:
12,129,79150,1,8,3:0:0:0:
22,240,79311,6,0,B|97:236|97:236|135:244|135:244|196:241,1,172.799994726563,6|2,1:2|1:2,2:0:0:0:
281,170,79795,1,0,2:0:0:0:
235,66,79957,2,0,P|185:66|167:102,1,86.3999973632813,0|0,1:2|2:0,2:0:0:0:
328,85,80279,2,0,P|343:34|322:4,1,86.3999973632813,2|8,1:2|3:0,2:0:0:0:
295,182,80602,6,0,P|365:189|401:142,1,129.599996044922,2|8,1:2|2:0,2:0:0:0:
411,143,80924,2,0,P|396:194|417:224,1,86.3999973632813,2|8,1:2|3:0,2:0:0:0:
501,288,81247,1,0,1:2:0:0:
478,178,81408,1,8,3:0:0:0:
397,305,81570,2,0,P|454:300|492:301,1,86.3999973632813,2|10,1:2|3:0,2:0:0:0:
295,182,81892,70,0,B|238:158|199:208|202:213|164:255|101:235,1,211.200006445313,6|8,1:2|2:0,2:0:0:0:
17,127,82376,1,0,2:0:0:0:
119,35,82537,2,0,B|152:77|152:77|135:136,1,105.600003222656,0|0,1:2|1:2,2:0:0:0:
44,300,82860,2,0,B|11:258|11:258|28:199,1,105.600003222656,8|0,2:0|2:0,2:0:0:0:
247,108,83182,5,4,1:2:0:0:
102,235,83344,1,0,2:0:0:0:
5,14,83505,2,0,P|60:45|109:42,1,105.600003222656,8|0,2:0|1:2,2:0:0:0:
247,108,83828,2,0,P|195:110|151:138,1,105.600003222656,8|0,2:0|1:2,2:0:0:0:
322,21,84150,2,0,P|366:49|418:51,1,105.600003222656,8|8,2:0|3:0,2:0:0:0:
505,182,84473,86,0,L|313:183,1,187.199991430664,4|0,1:2|2:0,2:0:0:0:
284,183,84795,1,8,2:0:0:0:
219,365,84957,70,0,P|259:318|213:229,1,172.799994726563,0|0,1:2|2:0,2:0:0:0:
150,177,85279,1,8,2:0:0:0:
45,289,85441,6,0,P|106:298|141:251,1,105.600003222656,0|0,1:2|2:0,2:0:0:0:
63,60,85763,6,0,B|39:132|39:132|73:189,1,134.399995898438,8|0,2:0|1:2,2:0:0:0:
206,113,86086,38,0,P|172:97|134:100,2,76.8,2|2|2,2:0|2:0|2:0,2:0:0:0:
206,113,87053,86,0,P|287:131|330:60,1,172.799994726563,6|0,1:0|2:0,2:0:0:0:
395,25,87376,2,0,P|454:18|492:64,1,115.199996484375,10|0,2:0|2:0,2:0:0:0:
410,182,87699,1,2,1:2:0:0:
330,64,87860,1,0,1:2:0:0:
380,252,88021,2,0,P|440:259|482:216,1,115.199996484375,8|0,2:0|2:0,2:0:0:0:
262,140,88344,70,0,L|262:317,1,172.799994726563,2|0,1:2|2:0,2:0:0:0:
251,323,88666,2,0,P|185:327|149:287,1,115.199996484375,10|0,2:0|2:0,2:0:0:0:
262,140,88989,1,2,1:2:0:0:
380,252,89150,1,0,1:2:0:0:
500,95,89311,2,0,P|452:48|401:62,1,115.199996484375,10|0,2:0|2:0,2:0:0:0:
262,140,89634,6,0,B|310:110|352:148|346:151|385:184|445:152,1,172.799994726563,2|0,1:2|2:0,2:0:0:0:
496,196,89957,2,0,P|522:139|497:93,1,115.199996484375,8|2,2:0|1:2,2:0:0:0:
344,17,90279,1,0,1:2:0:0:
289,215,90441,1,0,1:2:0:0:
138,103,90602,2,0,P|179:59|234:63,1,115.199996484375,8|0,2:0|2:0,2:0:0:0:
180,202,90924,6,0,P|100:220|48:156,1,173.468154726563,0|0,1:2|2:0,2:0:0:0:
48,155,91247,2,0,L|50:288,1,115.199996484375,10|0,2:0|2:0,2:0:0:0:
138,103,91570,1,2,1:2:0:0:
7,30,91731,1,0,1:2:0:0:
180,202,91892,2,0,P|246:162|245:69,1,172.799994726563,10|0,2:0|2:0,2:0:0:0:
191,26,92215,6,0,B|245:49|281:16|274:16|310:-18|358:2,1,172.799994726563,2|0,1:2|2:0,2:0:0:0:
408,74,92537,2,0,P|446:86|501:41,1,115.199996484375,10|0,2:0|2:0,2:0:0:0:
354,0,92860,1,2,1:2:0:0:
461,174,93021,1,0,1:2:0:0:
274,179,93182,2,0,P|312:143|379:155,1,115.199996484375,10|0,2:0|2:0,2:0:0:0:
432,286,93505,70,0,L|255:289,1,172.799994726563,0|0,1:2|2:0,2:0:0:0:
201,326,93828,2,0,B|223:271|223:271|196:209,1,115.199996484375,10|0,2:0|2:0,2:0:0:0:
79,132,94150,1,2,1:2:0:0:
132,271,94311,1,0,1:2:0:0:
266,169,94473,2,0,P|224:132|168:137,1,115.199996484375,10|0,2:0|2:0,2:0:0:0:
40,217,94795,6,0,P|142:213|148:86,1,230.39999296875,2|8,1:2|2:0,2:0:0:0:
25,18,95279,1,0,1:2:0:0:
95,150,95441,1,2,2:0:0:0:
168,20,95602,1,0,1:2:0:0:
18,99,95763,2,0,L|19:217,1,115.199996484375,10|2,2:0|2:0,2:0:0:0:
106,336,96086,6,0,B|174:332|174:332|219:344|219:344|296:336,1,172.799994726563,0|0,1:2|2:0,2:0:0:0:
344,302,96408,2,0,P|374:243|344:194,1,115.199996484375,10|0,2:0|2:0,2:0:0:0:
248,96,96731,1,10,2:0:0:0:
225,95,96811,1,0,2:0:0:0:
203,103,96892,1,0,1:2:0:0:
184,117,96973,1,0,2:0:0:0:
173,139,97053,6,0,P|253:164|301:64,1,187.199991430664,10|0,2:0|2:0,2:0:0:0:
266,25,97376,70,0,B|219:-7|185:24|186:29|148:66|94:43,1,172.799994726563,6|0,1:0|2:0,2:0:0:0:
39,8,97699,2,0,P|69:71|38:123,1,115.199996484375,10|0,2:0|2:0,2:0:0:0:
4,238,98021,1,2,1:2:0:0:
124,171,98182,1,0,1:2:0:0:
173,324,98344,2,0,P|140:292|70:299,1,115.199996484375,8|0,2:0|2:0,2:0:0:0:
273,316,98666,6,0,P|355:320|400:251,1,172.799994726563,2|0,1:2|2:0,2:0:0:0:
402,233,98989,2,0,B|402:359,1,115.199996484375,10|0,2:0|2:0,2:0:0:0:
479,202,99311,1,2,1:2:0:0:
338,158,99473,1,0,1:2:0:0:
479,202,99634,2,0,P|503:140|476:96,1,115.199996484375,10|0,2:0|2:0,2:0:0:0:
367,21,99957,6,0,B|307:-6|261:35|268:35|212:83|150:59,1,230.39999296875,2|8,1:2|2:0,2:0:0:0:
23,1,100441,1,2,1:2:0:0:
3,150,100602,2,0,B|64:160|64:160|107:117,1,115.199996484375,0|0,2:0|1:2,2:0:0:0:
267,228,100924,2,0,B|229:190|229:190|168:200,1,115.199996484375,8|0,2:0|2:0,2:0:0:0:
94,360,101247,5,0,1:2:0:0:
122,361,101328,1,0,2:0:0:0:
147,351,101408,1,8,2:0:0:0:
166,331,101489,1,8,2:0:0:0:
176,305,101570,69,8,2:0:0:0:
69,217,101731,1,10,2:0:0:0:
255,360,101892,1,10,3:0:0:0:
227,100,102053,1,10,3:0:0:0:
0,270,102215,5,10,2:0:0:0:
304,234,102376,1,2,1:2:0:0:
267,228,105118,38,0,P|184:257|121:151,1,211.200006445313,4|8,1:2|2:0,2:0:0:0:
159,49,105602,1,0,2:0:0:0:
271,107,105763,2,0,L|272:216,1,105.600003222656,0|0,1:2|1:2,2:0:0:0:
182,361,106086,2,0,B|154:316|154:316|179:261,1,105.600003222656,8|0,2:0|2:0,2:0:0:0:
298,297,106408,5,2,1:2:0:0:
194,174,106570,1,0,1:2:0:0:
298,297,106731,2,0,P|370:293|391:254,1,105.600003222656,10|0,2:0|1:2,2:0:0:0:
374,110,107053,2,0,P|341:174|364:212,1,105.600003222656,2|0,2:0|1:2,2:0:0:0:
495,269,107376,2,0,P|455:208|411:209,1,105.600003222656,10|0,2:0|2:0,2:0:0:0:
298,297,107699,6,0,B|245:319|199:278|204:276|153:238|94:270,1,211.200006445313,2|8,1:2|2:0,2:0:0:0:
0,348,108182,1,2,2:0:0:0:
98,267,108344,2,0,P|120:216|92:172,1,105.600003222656,0|0,1:2|1:2,2:0:0:0:
13,80,108666,2,0,P|57:164|128:137,1,158.400004833985,10|0,2:0|2:0,2:0:0:0:
122,158,108989,6,0,P|160:79|274:111,1,211.200006445313,0|8,1:2|2:0,2:0:0:0:
364,179,109473,1,0,1:2:0:0:
466,104,109634,2,0,B|421:69|421:69|362:90,1,105.600003222656,0|0,2:0|1:2,2:0:0:0:
323,256,109957,1,8,2:0:0:0:
452,189,110118,1,0,2:0:0:0:
276,113,110279,70,0,L|278:327,1,211.200006445313,6|8,1:2|2:0,2:0:0:0:
394,374,110763,1,0,2:0:0:0:
485,286,110924,2,0,P|438:242|392:253,1,105.600003222656,0|0,1:2|1:2,2:0:0:0:
266,344,111247,2,0,P|317:344|349:305,1,105.600003222656,8|0,2:0|2:0,2:0:0:0:
168,199,111570,5,2,1:2:0:0:
276,264,111731,1,0,1:2:0:0:
168,199,111892,2,0,P|101:207|81:246,1,105.600003222656,10|0,2:0|1:2,2:0:0:0:
145,372,112215,2,0,P|171:309|147:273,1,105.600003222656,2|0,2:0|1:2,2:0:0:0:
6,267,112537,2,0,P|46:321|90:318,1,105.600003222656,10|0,2:0|2:0,2:0:0:0:
230,104,112860,86,0,B|175:79|141:113|145:118|114:149|55:126,1,172.799994726563,6|0,1:2|2:0,2:0:0:0:
48,118,113182,1,8,2:0:0:0:
237,206,113344,70,0,P|302:193|331:116,1,144,2|0,1:2|2:0,2:0:0:0:
330,110,113666,1,0,2:0:0:0:
38,3,113828,6,0,L|39:206,1,187.199991430664,6|0,1:2|2:0,2:0:0:0:
40,227,114150,1,8,2:0:0:0:
230,104,114311,5,0,1:2:0:0:
152,340,114473,1,0,2:0:0:0:
137,54,114634,1,8,2:0:0:0:
137,54,114715,1,8,2:0:0:0:
137,54,114795,5,10,2:0:0:0:
379,179,114957,1,2,1:2:0:0:
379,179,115279,1,2,2:0:0:0:
447,272,115441,6,0,B|370:276|370:276|334:263|334:263|257:267,1,192,6|0,1:2|1:2,2:0:0:0:
169,341,115924,1,0,2:0:0:0:
91,255,116086,2,0,B|128:219|128:219|185:237,1,96,0|0,1:2|2:0,2:0:0:0:
25,342,116408,1,10,1:2:0:0:
0,215,116570,1,2,2:0:0:0:
25,342,116731,6,0,P|110:340|183:341,1,144,0|0,1:2|2:0,2:0:0:0:
195,340,117053,1,10,2:0:0:0:
91,255,117215,1,2,2:0:0:0:
257,199,117376,2,0,P|196:215|185:257,1,96,2|2,1:2|2:0,2:0:0:0:
336,243,117699,2,0,P|355:191|334:154,1,96,8|0,2:0|2:0,2:0:0:0:
300,331,118021,6,0,P|364:342|431:247,1,192,2|8,1:2|1:2,2:0:0:0:
369,151,118505,1,0,2:0:0:0:
258,120,118666,2,0,L|259:227,1,96,0|0,1:2|2:0,2:0:0:0:
369,151,118989,2,0,P|383:95|360:58,1,96,10|2,1:2|2:0,2:0:0:0:
260,17,119311,5,0,1:2:0:0:
164,82,119473,1,8,2:0:0:0:
148,93,119553,1,8,2:0:0:0:
133,102,119634,1,8,3:0:0:0:
270,111,119795,1,8,3:0:0:0:
127,4,119957,2,0,B|72:-1|72:-1|36:44,1,96,0|8,1:2|3:0,2:0:0:0:
29,137,120279,2,0,B|84:142|84:142|120:97,1,96,2|8,1:2|3:0,2:0:0:0:
249,220,120602,70,0,P|201:171|135:208,1,144,2|0,1:2|2:0,2:0:0:0:
128,213,120924,2,0,P|143:157|117:115,1,96,10|0,1:2|2:0,2:0:0:0:
82,318,121247,1,2,1:2:0:0:
189,276,121408,1,0,2:0:0:0:
3,269,121570,2,0,L|4:376,1,96,10|8,1:2|2:0,2:0:0:0:
117,216,121892,6,0,P|83:180|22:188,1,96,2|0,1:2|2:0,2:0:0:0:
189,276,122215,2,0,P|235:273|267:238,1,96,10|8,1:2|2:0,2:0:0:0:
306,129,122537,1,2,1:2:0:0:
198,185,122699,1,8,3:0:0:0:
366,200,122860,1,2,1:2:0:0:
248,58,123021,1,8,3:0:0:0:
267,238,123182,6,0,B|343:233|343:233|380:245|380:245|469:238,1,192,2|8,1:2|2:0,2:0:0:0:
510,136,123666,1,0,2:0:0:0:
425,57,123828,2,0,P|365:54|342:94,1,96,0|8,1:2|2:0,2:0:0:0:
337,96,124070,1,8,2:0:0:0:
337,96,124150,1,2,1:2:0:0:
260,10,124311,1,10,2:0:0:0:
176,193,124473,5,0,1:2:0:0:
253,107,124634,1,8,2:0:0:0:
98,25,124795,1,0,1:2:0:0:
175,111,124956,1,8,2:0:0:0:
5,149,125118,2,0,B|41:115|41:115|100:131,1,96,0|8,1:2|2:0,2:0:0:0:
137,265,125441,2,0,B|92:277|92:277|56:243,1,96,2|8,1:2|3:0,2:0:0:0:
199,194,125763,70,0,B|243:176|274:200|269:203|307:221|354:204,1,144,6|0,1:2|2:0,2:0:0:0:
358,200,126086,2,0,P|383:148|360:110,1,96,10|0,1:2|2:0,2:0:0:0:
218,62,126408,2,0,P|250:109|294:108,1,96,2|0,1:2|2:0,2:0:0:0:
409,10,126731,2,0,P|351:14|330:53,1,96,10|0,1:2|2:0,2:0:0:0:
476,147,127053,6,0,P|481:83|486:45,1,96,2|0,1:2|2:0,2:0:0:0:
377,212,127376,2,0,P|372:148|367:110,1,96,10|0,1:2|2:0,2:0:0:0:
448,282,127699,1,2,1:2:0:0:
288,218,127860,1,2,2:0:0:0:
448,282,128021,1,8,1:2:0:0:
367,116,128182,1,2,2:0:0:0:
240,300,128344,6,0,P|341:298|443:298,1,192,2|8,1:2|1:2,2:0:0:0:
480,192,128828,1,0,2:0:0:0:
389,121,128989,2,0,P|328:125|312:167,1,96,0|2,1:2|2:0,2:0:0:0:
208,198,129311,2,0,P|231:138|208:108,1,96,10|2,1:2|2:0,2:0:0:0:
120,50,129634,5,0,1:2:0:0:
30,122,129795,1,8,2:0:0:0:
18,137,129876,1,8,2:0:0:0:
7,150,129957,1,8,1:2:0:0:
149,150,130118,1,8,3:0:0:0:
35,38,130279,69,0,1:2:0:0:
72,226,130441,1,8,2:0:0:0:
217,115,130602,1,2,1:2:0:0:
7,150,130763,1,10,2:0:0:0:
63,315,130924,6,0,P|144:314|220:313,1,144,2|0,1:2|2:0,2:0:0:0:
230,309,131247,1,10,1:2:0:0:
316,233,131408,1,0,2:0:0:0:
219,126,131570,2,0,B|199:172|199:172|221:220,1,96,2|0,1:2|2:0,2:0:0:0:
296,75,131892,2,0,P|261:36|212:37,1,96,10|0,1:2|2:0,2:0:0:0:
359,144,132215,6,0,P|415:148|447:123,1,96,2|0,1:2|2:0,2:0:0:0:
495,22,132537,2,0,P|439:18|407:43,1,96,10|8,1:2|2:0,2:0:0:0:
359,144,132860,1,2,1:2:0:0:
219,33,133021,1,8,2:0:0:0:
231,223,133182,1,10,1:2:0:0:
296,75,133344,1,8,3:0:0:0:
48,139,133505,6,0,L|251:138,1,192,2|8,1:2|1:2,2:0:0:0:
321,56,133989,1,0,2:0:0:0:
214,12,134150,2,0,P|163:11|138:56,1,96,0|0,1:2|2:0,2:0:0:0:
316,149,134473,2,0,P|367:150|392:105,1,96,8|0,1:2|2:0,2:0:0:0:
214,12,134795,53,4,1:2:0:0:
154,218,134957,1,0,2:0:0:0:
321,56,135118,1,8,2:0:0:0:
65,136,135279,1,8,2:0:0:0:
278,314,135441,69,10,3:0:0:0:
135,59,135602,1,2,2:0:0:0:
122,312,135763,1,10,2:0:0:0:
316,149,135924,1,8,2:0:0:0:
52,15,136086,54,0,L|54:146,1,115.199996484375,6|2,2:0|2:0,2:0:0:0:
59,149,136731,2,0,P|103:135|134:137,2,57.5999982421876,2|2|0,2:0|2:0|2:0,2:0:0:0:
41,227,137215,1,2,0:0:0:0:
95,286,137376,54,0,P|177:271|223:273,1,115.199996484375,0|2,2:0|2:0,2:0:0:0:
266,328,137860,1,2,2:0:0:0:
336,288,138021,2,0,P|311:235|339:173,1,115.199996484375,2|2,2:0|2:0,2:0:0:0:
401,149,138505,1,0,2:0:0:0:
391,69,138666,54,0,B|347:95|298:66|303:63|259:33|214:67,1,172.799994726563,2|0,2:0|2:0,2:0:0:0:
160,99,139311,2,0,P|208:84|216:70,1,57.5999982421876,2|0,2:0|2:0,2:0:0:0:
97,8,139634,2,0,P|143:27|158:21,1,57.5999982421876,2|2,2:0|2:0,2:0:0:0:
76,146,139957,54,0,P|115:130|161:183,1,115.199996484375,2|2,2:0|2:0,2:0:0:0:
161,176,140602,53,2,2:0:0:0:
33,71,140763,1,2,1:2:0:0:
33,71,141086,1,10,3:0:0:0:
112,242,141247,54,0,P|199:254|240:200,1,153.6,6|2,1:2|1:2,2:0:0:0:
277,118,141731,1,0,2:0:0:0:
184,72,141892,2,0,P|158:118|172:155,1,76.8,2|0,1:2|2:0,2:0:0:0:
257,41,142215,2,0,P|233:6|184:4,1,76.8,2|8,1:2|3:0,2:0:0:0:
340,65,142537,70,0,P|389:66|419:51,1,76.8,2|0,1:2|2:0,2:0:0:0:
503,9,142860,2,0,P|502:101|506:175,1,153.6,2|0,1:2|1:2,2:0:0:0:
497,262,143344,1,8,2:0:0:0:
415,205,143505,1,10,3:0:0:0:
497,262,143666,1,8,3:0:0:0:
354,329,143828,6,0,P|408:322|451:322,1,86.3999973632813,6|0,1:2|2:0,2:0:0:0:
222,263,144150,2,0,P|286:277|327:183,1,172.799994726563,2|0,1:2|1:2,2:0:0:0:
255,110,144634,1,0,2:0:0:0:
160,170,144795,2,0,P|105:177|70:144,1,86.3999973632813,2|8,1:2|3:0,2:0:0:0:
29,70,145118,6,0,L|31:219,1,129.599996044922,2|8,1:2|2:0,2:0:0:0:
30,222,145441,1,2,1:2:0:0:
160,170,145602,1,8,3:0:0:0:
188,284,145763,2,0,P|145:259|100:266,1,86.3999973632813,0|8,1:2|3:0,2:0:0:0:
243,210,146086,2,0,P|285:211|321:187,1,86.3999973632813,2|8,1:2|3:0,2:0:0:0:
398,87,146408,38,0,P|348:140|423:241,1,211.200006445313,6|8,1:2|2:0,2:0:0:0:
505,327,146892,1,0,2:0:0:0:
413,240,147053,2,0,P|350:240|329:293,1,105.600003222656,0|0,1:2|1:2,2:0:0:0:
240,362,147376,2,0,B|264:309|264:309|234:258,1,105.600003222656,8|0,2:0|2:0,2:0:0:0:
92,210,147699,69,4,1:2:0:0:
169,310,147860,1,8,2:0:0:0:
169,310,147941,1,8,2:0:0:0:
169,310,148021,1,8,2:0:0:0:
161,129,148182,1,0,1:2:0:0:
26,273,148344,37,8,2:0:0:0:
238,261,148505,1,0,1:2:0:0:
58,90,148666,1,8,2:0:0:0:
89,377,148828,1,8,3:0:0:0:
307,204,148989,6,0,L|111:205,1,187.199991430664,4|0,1:2|2:0,2:0:0:0:
92,210,149311,1,8,2:0:0:0:
220,35,149473,70,0,P|259:104|367:99,1,172.799994726563,0|0,1:2|2:0,2:0:0:0:
360,101,149795,1,8,2:0:0:0:
493,260,149957,6,0,P|451:218|386:226,1,105.600003222656,0|0,1:2|2:0,2:0:0:0:
221,374,150279,6,0,P|265:316|247:254,1,134.399995898438,8|0,2:0|1:2,2:0:0:0:
92,210,150602,38,0,P|139:209|161:184,2,76.8,2|2|2,2:0|2:0|2:0,2:0:0:0:
92,210,151570,86,0,P|142:148|230:191,1,172.799994726563,6|0,1:0|2:0,2:0:0:0:
279,223,151893,2,0,P|253:164|280:113,1,115.199996484375,10|0,2:0|2:0,2:0:0:0:
377,30,152216,1,2,1:2:0:0:
336,170,152377,1,0,1:2:0:0:
502,152,152538,2,0,P|453:112|402:120,1,115.199996484375,8|0,2:0|2:0,2:0:0:0:
458,318,152861,70,0,P|494:256|406:227,1,172.799994726563,2|0,1:2|2:0,2:0:0:0:
350,256,153183,2,0,L|350:384,1,115.199996484375,10|0,2:0|2:0,2:0:0:0:
407,132,153506,1,2,1:2:0:0:
350,256,153667,1,0,1:2:0:0:
198,190,153828,2,0,P|239:152|297:158,1,115.199996484375,10|0,2:0|2:0,2:0:0:0:
97,90,154151,6,0,B|97:280,1,172.799994726563,2|0,1:2|2:0,2:0:0:0:
58,331,154474,2,0,P|105:290|161:296,1,115.199996484375,8|2,2:0|1:2,2:0:0:0:
276,358,154796,1,0,2:0:0:0:
177,203,154958,1,0,1:2:0:0:
276,358,155119,2,0,P|331:358|368:316,1,115.199996484375,8|0,2:0|2:0,2:0:0:0:
391,180,155441,6,0,P|309:185|285:266,1,172.799994726563,0|0,1:2|2:0,2:0:0:0:
283,261,155763,2,0,P|287:199|234:146,1,115.199996484375,10|0,2:0|2:0,2:0:0:0:
81,189,156086,2,0,P|132:223|205:204,1,115.199996484375,2|0,1:2|1:2,2:0:0:0:
238,6,156409,2,0,P|172:46|173:139,1,172.799994726563,10|0,2:0|2:0,2:0:0:0:
170,134,156732,6,0,B|224:157|260:124|253:124|289:90|337:110,1,172.799994726563,2|0,1:2|2:0,2:0:0:0:
398,150,157054,2,0,B|423:93|423:93|393:35,1,115.199996484375,10|0,2:0|2:0,2:0:0:0:
330,208,157377,1,2,1:2:0:0:
484,148,157538,1,0,1:2:0:0:
330,208,157699,2,0,L|332:341,1,115.199996484375,10|0,2:0|2:0,2:0:0:0:
196,352,158022,70,0,P|141:298|48:308,1,172.799994726563,2|0,1:2|2:0,2:0:0:0:
51,306,158345,2,0,B|73:251|73:251|46:189,1,115.199996484375,10|0,2:0|2:0,2:0:0:0:
20,65,158666,2,0,B|56:111|56:111|123:119,1,115.199996484375,2|0,1:2|1:2,2:0:0:0:
244,164,158990,2,0,P|187:171|156:217,1,115.199996484375,10|0,2:0|2:0,2:0:0:0:
283,269,159312,6,0,P|365:224|330:98,1,230.39999296875,2|8,1:2|2:0,2:0:0:0:
223,32,159796,1,0,1:2:0:0:
259,165,159958,1,2,2:0:0:0:
331,22,160119,1,0,1:2:0:0:
145,98,160280,2,0,L|146:218,1,115.199996484375,10|2,2:0|2:0,2:0:0:0:
238,316,160603,6,0,B|170:312|170:312|125:324|125:324|48:316,1,172.799994726563,0|0,1:2|2:0,2:0:0:0:
0,281,160925,2,0,L|128:289,1,115.199996484375,10|0,2:0|2:0,2:0:0:0:
392,244,161247,1,10,2:0:0:0:
369,243,161328,1,0,2:0:0:0:
347,251,161409,1,0,1:2:0:0:
328,265,161490,1,0,2:0:0:0:
317,287,161570,6,0,P|397:312|445:212,1,187.199991430664,10|0,2:0|2:0,2:0:0:0:
438,168,161893,70,0,B|391:136|357:167|358:172|320:209|266:186,1,172.799994726563,6|0,1:0|2:0,2:0:0:0:
205,225,162216,2,0,B|231:170|231:170|204:110,1,115.199996484375,10|0,2:0|2:0,2:0:0:0:
108,26,162538,1,2,1:2:0:0:
142,167,162699,1,0,1:2:0:0:
0,155,162861,2,0,P|30:112|105:114,1,115.199996484375,8|0,2:0|2:0,2:0:0:0:
63,381,163183,6,0,B|58:207,1,172.799994726563,2|0,1:2|2:0,2:0:0:0:
58,208,163506,2,0,B|120:213|120:213|165:168,1,115.199996484375,10|0,2:0|2:0,2:0:0:0:
246,70,163828,1,2,1:2:0:0:
157,175,163990,1,0,1:2:0:0:
362,220,164151,2,0,P|321:174|265:178,1,115.199996484375,10|0,2:0|2:0,2:0:0:0:
201,296,164474,6,0,B|263:322|308:276|302:274|354:218|415:240,1,230.39999296875,2|8,1:2|2:0,2:0:0:0:
496,349,164958,1,0,1:2:0:0:
506,165,165119,2,0,B|468:127|468:127|407:137,1,115.199996484375,0|0,2:0|1:2,2:0:0:0:
224,179,165441,2,0,B|285:189|285:189|323:151,1,115.199996484375,8|0,2:0|2:0,2:0:0:0:
187,22,165764,5,0,1:2:0:0:
159,21,165845,1,0,2:0:0:0:
134,31,165925,1,8,2:0:0:0:
115,51,166006,1,8,2:0:0:0:
105,77,166087,69,8,2:0:0:0:
224,179,166248,1,10,2:0:0:0:
39,139,166409,1,10,3:0:0:0:
261,67,166570,1,8,3:0:0:0:
131,285,166732,5,10,2:0:0:0:
31,17,166893,1,2,1:2:0:0:
224,179,167053,6,0,P|296:182|401:172,1,153.6,4|2,1:2|2:0,2:0:0:0:
434,103,167537,1,2,1:2:0:0:
365,40,167699,2,0,P|316:35|294:63,1,76.8,8|0,2:0|2:0,2:0:0:0:
215,91,168021,2,0,P|162:90|141:54,1,76.8,2|10,1:2|2:0,2:0:0:0:
76,16,168344,5,0,1:2:0:0:
5,75,168505,1,0,2:0:0:0:
28,164,168666,2,0,P|77:152|113:151,1,76.8,10|2,2:0|1:2,2:0:0:0:
169,248,168989,2,0,P|120:236|84:235,1,76.8,10|10,2:0|2:0,2:0:0:0:
74,237,169231,1,8,2:0:0:0:
74,237,169311,1,10,2:0:0:0:
179,163,169473,1,10,3:0:0:0:
272,343,169634,54,0,P|346:349|377:233,1,187.199991430664,4|0,1:2|2:0,2:0:0:0:
381,231,169957,1,8,2:0:0:0:
287,18,170118,54,0,L|290:206,1,172.799994726563,0|0,1:2|2:0,2:0:0:0:
291,206,170441,1,8,2:0:0:0:
499,180,170602,54,0,P|459:109|383:129,1,158.400004833985,4|0,1:2|2:0,2:0:0:0:
378,130,170924,85,8,2:0:0:0:
474,269,171086,1,8,2:0:0:0:
399,34,171247,1,8,2:0:0:0:
291,206,171408,1,8,2:0:0:0:
499,180,171570,5,8,2:0:0:0:
281,25,171731,1,8,2:0:0:0:
375,338,171892,1,8,2:0:0:0:
378,130,172053,1,8,2:0:0:0:
150,264,172215,70,0,B|194:241|237:277|233:280|276:304|324:284,1,172.799994726563,4|0,1:2|2:0,2:0:0:0:
334,273,172537,1,8,2:0:0:0:
212,97,172699,54,0,P|182:156|68:164,1,158.400004833985,0|0,1:2|2:0,2:0:0:0:
81,172,173021,1,8,2:0:0:0:
0,20,173182,54,0,P|68:7|121:64,1,144,4|0,1:2|2:0,2:0:0:0:
122,66,173505,21,8,2:0:0:0:
0,200,173666,1,8,2:0:0:0:
211,99,173828,1,8,2:0:0:0:
0,20,173989,1,8,2:0:0:0:
68,275,174150,6,0,P|104:268|143:264,2,64,8|8|8,2:0|2:0|2:0,2:0:0:0:
194,220,174473,2,0,P|230:227|269:231,2,64,8|8|8,3:0|3:0|3:0,2:0:0:0:
332,272,174795,70,0,P|417:276|449:173,1,187.199991430664,4|8,1:2|2:0,2:0:0:0:
451,173,175118,1,8,2:0:0:0:
332,0,175279,54,0,B|298:18|298:18|299:166,1,172.799994726563,4|8,1:2|2:0,2:0:0:0:
300,172,175602,1,8,2:0:0:0:
70,180,175763,54,0,P|140:152|190:221,1,158.400004833985,4|0,1:2|2:0,2:0:0:0:
194,220,176086,53,8,1:2:0:0:
171,75,176247,1,8,2:0:0:0:
157,298,176408,1,8,2:0:0:0:
300,172,176570,1,8,2:0:0:0:
70,180,176731,6,0,L|73:298,1,105.600003222656,8|8,2:0|2:0,2:0:0:0:
300,172,177053,2,0,B|320:118|320:118|295:56,1,105.600003222656,8|8,2:0|2:0,2:0:0:0:
194,220,177376,5,8,2:0:0:0:
338,269,177537,1,8,2:0:0:0:
234,120,177699,1,8,2:0:0:0:
256,355,177860,1,8,2:0:0:0:
399,169,178021,5,8,2:0:0:0:
157,298,178182,1,8,2:0:0:0:
481,237,178344,1,8,2:0:0:0:
219,25,178505,1,8,2:0:0:0:
256,355,178666,86,0,L|385:353,1,115.199996484375,4|8,1:2|3:0,2:0:0:0:
384,347,178908,1,0,2:0:0:0:
397,340,178989,2,0,L|389:275,1,57.5999982421876,8|8,2:0|2:0,2:0:0:0:
163,204,179150,38,0,B|219:219|258:184|247:179|279:146|330:168,1,172.799994726563,4|0,1:2|2:0,2:0:0:0:
399,172,179473,70,0,L|414:103,1,57.5999982421876,8|8,2:0|2:0,2:0:0:0:
301,243,179634,2,0,L|316:312,1,57.5999982421876,8|8,2:0|2:0,2:0:0:0:
215,91,179795,2,0,L|230:22,1,57.5999982421876,8|8,2:0|2:0,2:0:0:0:
12,192,179957,54,0,P|73:137|161:230,1,211.200006445313,6|8,1:2|2:0,2:0:0:0:
221,316,180441,1,0,2:0:0:0:
108,373,180602,2,0,B|85:321|85:321|110:271,1,105.600003222656,2|0,1:2|1:2,2:0:0:0:
161,107,180924,2,0,B|184:159|184:159|159:209,1,105.600003222656,10|0,2:0|2:0,2:0:0:0:
61,37,181247,6,0,B|111:11|162:40|152:49|207:84|264:49,1,211.200006445313,2|8,1:2|2:0,2:0:0:0:
381,6,181731,1,2,1:2:0:0:
426,135,181892,2,0,P|382:90|330:95,1,105.600003222656,0|0,2:0|1:2,2:0:0:0:
392,206,182215,2,0,P|468:215|504:152,1,158.400004833985,8|0,2:0|2:0,2:0:0:0:
504,151,182537,6,0,L|508:364,1,211.200006445313,0|10,1:2|2:0,2:0:0:0:
382,381,183021,1,0,2:0:0:0:
332,264,183182,2,0,B|389:249|389:249|438:289,1,105.600003222656,2|0,1:2|1:2,2:0:0:0:
246,334,183505,2,0,B|189:349|189:349|140:309,1,105.600003222656,10|0,2:0|2:0,2:0:0:0:
95,192,183828,5,2,1:2:0:0:
206,252,183989,1,0,2:0:0:0:
47,364,184150,2,0,P|24:309|53:263,1,105.600003222656,8|2,2:0|1:2,2:0:0:0:
201,158,184473,2,0,P|224:213|195:259,1,105.600003222656,0|0,2:0|1:2,2:0:0:0:
14,144,184795,2,0,P|-9:89|20:43,1,105.600003222656,10|0,2:0|2:0,2:0:0:0:
132,14,185118,70,0,B|182:-12|233:17|223:26|278:61|335:26,1,211.200006445313,0|10,1:2|2:0,2:0:0:0:
458,9,185602,1,0,2:0:0:0:
413,178,185763,2,0,P|406:114|394:68,1,105.600003222656,2|0,1:2|1:2,2:0:0:0:
512,217,186086,2,0,P|500:268|495:321,1,105.600003222656,10|0,2:0|2:0,2:0:0:0:
283,302,186408,5,2,1:2:0:0:
404,263,186570,1,0,2:0:0:0:
228,170,186731,2,0,P|285:207|332:205,1,105.600003222656,10|0,2:0|1:2,2:0:0:0:
190,339,187053,2,0,P|247:302|294:304,1,105.600003222656,2|0,2:0|1:2,2:0:0:0:
72,198,187376,2,0,P|129:235|176:233,1,105.600003222656,10|0,2:0|2:0,2:0:0:0:
54,371,187699,6,0,P|98:324|45:198,1,211.200006445313,2|8,1:2|2:0,2:0:0:0:
87,79,188182,1,0,2:0:0:0:
193,148,188344,1,2,1:2:0:0:
9,130,188505,1,0,1:2:0:0:
192,25,188666,2,0,L|192:136,1,105.600003222656,8|0,2:0|2:0,2:0:0:0:
87,79,188989,5,2,1:2:0:0:
273,148,189150,1,0,2:0:0:0:
118,272,189311,2,0,P|96:228|117:176,1,105.600003222656,8|0,2:0|1:2,2:0:0:0:
201,323,189634,2,0,P|174:364|118:372,1,105.600003222656,2|0,2:0|1:2,2:0:0:0:
200,231,189957,2,0,P|278:236|332:305,1,158.400004833985,8|0,3:0|2:0,2:0:0:0:
333,308,190279,102,0,P|398:324|447:237,1,172.799994726563,4|0,1:2|2:0,2:0:0:0:
447,140,190763,1,0,1:2:0:0:
355,91,190924,2,0,B|306:69|272:104|279:108|239:142|194:120,1,172.799994726563,10|8,2:0|3:0,2:0:0:0:
112,56,191408,1,8,2:0:0:0:
62,147,191570,101,2,1:2:0:0:
112,56,191731,1,0,2:0:0:0:
0,0,191892,2,0,L|1:97,1,86.3999973632813,0|0,1:2|2:0,2:0:0:0:
0,213,192215,2,0,P|30:162|134:197,1,172.799994726563,8|2,2:0|2:0,2:0:0:0:
201,256,192699,1,0,2:0:0:0:
300,228,192860,6,0,P|342:178|290:87,1,172.799994726563,0|2,1:2|2:0,2:0:0:0:
217,26,193344,1,0,1:2:0:0:
299,90,193505,2,0,B|348:112|382:77|375:73|415:39|460:61,1,172.799994726563,10|10,2:0|3:0,2:0:0:0:
507,152,193989,1,8,2:0:0:0:
507,152,194070,1,0,2:0:0:0:
507,152,194150,102,0,P|520:211|503:247,1,86.3999973632813,2|0,1:2|2:0,2:0:0:0:
428,296,194473,2,0,P|415:237|432:201,1,86.3999973632813,2|0,1:2|2:0,2:0:0:0:
512,337,194795,2,0,P|425:337|329:340,1,172.799994726563,10|2,2:0|2:0,2:0:0:0:
237,362,195279,1,0,2:0:0:0:
153,300,195441,6,0,P|206:284|183:177,1,172.799994726563,0|2,1:2|2:0,2:0:0:0:
123,111,195924,1,0,1:2:0:0:
79,205,196086,2,0,B|128:227|162:192|155:188|195:154|240:176,1,172.799994726563,10|10,2:0|3:0,2:0:0:0:
333,219,196570,1,8,2:0:0:0:
408,143,196731,102,0,B|422:94|422:94|406:59,1,86.3999973632813,2|0,1:2|2:0,2:0:0:0:
320,6,197053,2,0,B|306:55|306:55|322:90,1,86.3999973632813,2|0,1:2|2:0,2:0:0:0:
333,219,197376,2,0,B|403:216|403:216|440:227|440:227|516:221,1,172.799994726563,10|2,2:0|2:0,2:0:0:0:
507,117,197860,1,0,2:0:0:0:
431,30,198021,6,0,P|371:25|346:62,1,96,2|0,1:2|2:0,2:0:0:0:
228,133,198344,2,0,P|288:138|313:101,1,96,0|0,2:0|1:2,2:0:0:0:
185,15,198666,2,0,L|186:221,1,192,8|8,2:0|3:0,2:0:0:0:
243,307,199150,1,8,2:0:0:0:
72,325,199311,102,0,P|113:286|168:296,1,105.600003222656,0|0,1:2|2:0,2:0:0:0:
329,341,199634,2,0,P|278:343|242:306,1,105.600003222656,10|0,2:0|1:2,2:0:0:0:
379,255,199957,1,10,2:0:0:0:
462,350,200118,1,0,1:2:0:0:
301,254,200279,1,10,3:0:0:0:
462,350,200441,1,8,3:0:0:0:
481,162,200602,102,0,B|445:176|416:156|418:151|379:124|339:151,1,134.399995898438,4|2,1:2|2:0,2:0:0:0:
277,174,201086,1,0,1:2:0:0:
198,156,201247,2,0,P|153:109|185:42,1,134.399995898438,10|0,2:0|1:2,2:0:0:0:
246,13,201731,1,8,2:0:0:0:
308,64,201892,54,0,P|348:63|386:57,1,67.1999979492188,2|0,1:2|2:0,2:0:0:0:
438,9,202215,2,0,P|474:5|508:22,1,67.1999979492188,2|0,1:2|2:0,2:0:0:0:
510,96,202537,2,0,L|509:250,1,134.399995898438,10|2,2:0|2:0,2:0:0:0:
461,296,203021,1,8,2:0:0:0:
391,254,203182,54,0,P|332:226|280:268,1,134.399995898438,2|0,1:2|2:0,2:0:0:0:
256,340,203666,1,2,1:2:0:0:
176,323,203828,2,0,B|133:309|112:331|118:334|85:356|47:344,1,134.399995898438,8|0,2:0|1:2,2:0:0:0:
5,276,204311,1,8,2:0:0:0:
159,112,204473,53,14,2:0:0:0:
83,253,204634,1,10,2:0:0:0:
40,39,205118,53,14,2:0:0:0:
83,253,205279,1,10,2:0:0:0:
83,253,205763,102,0,P|149:254|184:197,1,124.79999428711,6|0,1:0|2:0,2:0:0:0:
253,78,206086,2,0,P|187:77|152:134,1,124.79999428711,10|0,2:0|2:0,2:0:0:0:
80,267,206408,2,0,L|277:265,1,187.199991430664,2|0,1:2|2:0,2:0:0:0:
342,261,206731,1,8,2:0:0:0:
154,120,206892,1,2,2:0:0:0:
364,350,207054,70,0,P|425:307|393:191,1,187.199991430664,2|0,1:2|2:0,2:0:0:0:
337,172,207376,2,0,L|206:174,1,124.79999428711,10|0,2:0|2:0,2:0:0:0:
406,97,207699,1,2,1:2:0:0:
287,5,207860,1,0,1:2:0:0:
406,97,208021,2,0,P|463:95|494:31,1,124.79999428711,10|0,2:0|2:0,2:0:0:0:
287,5,208344,6,0,B|227:-18|201:18|206:22|169:57|110:44,1,187.199991430664,2|0,1:2|2:0,2:0:0:0:
46,7,208667,2,0,P|87:54|80:117,1,124.79999428711,8|2,2:0|1:2,2:0:0:0:
7,246,208989,1,0,2:0:0:0:
143,181,209151,1,0,1:2:0:0:
195,323,209312,2,0,P|159:281|88:277,1,124.79999428711,8|0,2:0|2:0,2:0:0:0:
288,357,209634,6,0,P|401:346|418:277,1,187.199991430664,0|0,1:2|2:0,2:0:0:0:
382,211,209956,2,0,B|317:203|317:203|267:260,1,124.79999428711,10|0,2:0|2:0,2:0:0:0:
133,173,210279,2,0,B|198:181|198:181|248:124,1,124.79999428711,2|0,1:2|1:2,2:0:0:0:
49,0,210602,2,0,L|51:199,1,187.199991430664,10|0,2:0|2:0,2:0:0:0:
0,248,210925,6,0,B|61:222|101:259|93:259|134:298|188:275,1,187.199991430664,2|0,1:2|2:0,2:0:0:0:
245,235,211247,2,0,B|272:175|272:175|241:113,1,124.79999428711,8|0,2:0|2:0,2:0:0:0:
129,26,211570,1,2,1:2:0:0:
180,179,211731,1,0,1:2:0:0:
314,69,211892,2,0,P|258:30|198:48,1,124.79999428711,10|0,2:0|2:0,2:0:0:0:
355,183,212215,70,0,P|437:189|488:89,1,187.199991430664,2|0,1:2|2:0,2:0:0:0:
489,108,212538,2,0,B|491:240,1,124.79999428711,8|0,2:0|2:0,2:0:0:0:
335,373,212860,2,0,B|308:311|308:311|335:254,1,124.79999428711,2|0,1:2|1:2,2:0:0:0:
512,315,213182,2,0,P|451:329|392:316,1,124.79999428711,10|0,2:0|2:0,2:0:0:0:
191,245,213505,6,0,P|231:152|362:198,1,249.599988574219,2|8,1:2|2:0,2:0:0:0:
238,323,213989,1,0,1:2:0:0:
113,205,214150,1,2,2:0:0:0:
238,323,214312,1,0,1:2:0:0:
28,325,214473,2,0,P|95:323|154:323,1,124.79999428711,10|0,2:0|2:0,2:0:0:0:
217,131,214796,6,0,B|148:135|148:135|103:123|103:123|25:131,1,187.199991430664,2|0,1:2|2:0,2:0:0:0:
31,130,215118,2,0,P|59:65|24:10,1,124.79999428711,10|0,2:0|1:2,2:0:0:0:
252,226,215440,1,10,2:0:0:0:
275,227,215521,1,0,2:0:0:0:
297,219,215602,1,0,1:2:0:0:
316,205,215683,1,0,2:0:0:0:
327,183,215763,6,0,P|247:158|200:272,1,201.599993847656,14|0,2:0|2:0,2:0:0:0:
223,324,216086,70,0,L|365:322,1,124.79999428711,6|0,1:0|2:0,2:0:0:0:
511,196,216409,2,0,B|444:181|444:181|404:227,1,124.79999428711,10|0,2:0|2:0,2:0:0:0:
512,384,216731,2,0,L|511:179,1,187.199991430664,2|0,1:2|2:0,2:0:0:0:
507,114,217053,1,8,2:0:0:0:
407,223,217215,1,2,2:0:0:0:
258,92,217376,6,0,P|352:58|406:130,1,187.199991430664,2|0,1:2|2:0,2:0:0:0:
403,113,217699,2,0,P|378:40|415:-3,1,124.79999428711,10|0,2:0|2:0,2:0:0:0:
285,185,218021,1,2,1:2:0:0:
191,46,218183,1,0,1:2:0:0:
99,205,218344,2,0,P|155:203|193:148,1,124.79999428711,10|0,2:0|2:0,2:0:0:0:
20,0,218667,6,0,B|20:258,1,249.599988574219,2|8,1:2|2:0,2:0:0:0:
118,362,219151,1,2,1:2:0:0:
254,300,219312,2,0,B|213:256|213:256|149:268,1,124.79999428711,0|0,2:0|1:2,2:0:0:0:
363,364,219634,2,0,B|427:376|427:376|468:332,1,124.79999428711,8|0,2:0|2:0,2:0:0:0:
481,182,219957,6,0,P|395:165|357:255,1,187.199991430664,4|0,1:2|2:0,2:0:0:0:
353,241,220280,69,8,2:0:0:0:
485,318,220441,1,10,2:0:0:0:
355,93,220602,1,10,2:0:0:0:
363,364,220763,1,8,2:0:0:0:
481,182,220924,5,10,2:0:0:0:
254,300,221086,1,10,2:0:0:0:
485,318,221247,5,8,2:0:0:0:
262,131,221408,1,8,2:0:0:0:
363,364,221570,1,10,2:0:0:0:
459,68,221731,1,10,2:0:0:0:
197,210,221892,5,10,2:0:0:0:
481,182,222053,1,10,2:0:0:0:
252,21,222215,1,10,2:0:0:0:
363,364,222376,1,10,2:0:0:0:
355,93,222537,69,12,2:0:0:0:
120,244,222699,1,0,2:0:0:0:
120,244,222779,1,8,2:0:0:0:
120,244,222860,1,10,2:0:0:0:
413,273,223021,6,0,P|345:211|281:224,1,153.6,10|0,3:0|2:0,2:0:0:0:
95,364,223344,2,0,P|169:366|218:310,1,153.6,8|0,3:0|2:0,2:0:0:0:
49,76,223666,1,10,3:0:0:0:
4,225,223828,38,0,B|89:220|89:220|132:235|132:235|236:228,1,211.200006445313,6|10,1:2|2:0,2:0:0:0:
304,142,224311,1,0,2:0:0:0:
193,78,224473,1,0,1:2:0:0:
301,243,224634,1,0,1:2:0:0:
410,109,224795,2,0,B|354:95|354:95|298:135,1,105.600003222656,10|0,2:0|2:0,2:0:0:0:
403,214,225118,5,2,1:2:0:0:
506,141,225279,1,0,1:2:0:0:
403,214,225441,2,0,L|404:326,1,105.600003222656,10|0,2:0|1:2,2:0:0:0:
506,141,225763,2,0,P|526:89|493:39,1,105.600003222656,2|0,2:0|1:2,2:0:0:0:
282,42,226086,2,0,P|315:112|406:104,1,158.400004833985,10|0,2:0|2:0,2:0:0:0:
410,109,226408,6,0,B|339:83|306:127|311:132|271:174|204:148,1,211.200006445313,2|8,1:2|2:0,2:0:0:0:
131,54,226892,1,2,2:0:0:0:
48,185,227053,2,0,P|104:184|134:139,1,105.600003222656,0|0,1:2|1:2,2:0:0:0:
16,6,227376,2,0,B|-7:60|-7:60|24:108,1,105.600003222656,10|0,2:0|2:0,2:0:0:0:
161,267,227699,6,0,P|125:209|-3:236,1,211.200006445313,2|8,1:2|2:0,2:0:0:0:
68,337,228182,1,0,1:2:0:0:
235,317,228344,2,0,P|253:256|229:216,1,105.600003222656,2|0,2:0|1:2,2:0:0:0:
157,364,228666,2,0,L|343:364,1,158.400004833985,8|0,2:0|2:0,2:0:0:0:
341,365,228989,70,0,P|418:336|373:228,1,211.200006445313,6|8,1:2|2:0,2:0:0:0:
298,140,229473,1,0,2:0:0:0:
386,232,229634,2,0,B|450:240|450:240|495:201,1,105.600003222656,0|0,1:2|1:2,2:0:0:0:
494,86,229957,2,0,B|430:78|430:78|385:117,1,105.600003222656,8|0,2:0|2:0,2:0:0:0:
304,222,230279,5,2,1:2:0:0:
216,129,230441,1,0,1:2:0:0:
304,222,230602,1,10,2:0:0:0:
263,49,230763,1,0,1:2:0:0:
114,214,230924,2,0,L|228:214,1,105.600003222656,2|0,2:0|1:2,2:0:0:0:
125,95,231247,2,0,P|69:91|38:127,1,105.600003222656,10|0,2:0|2:0,2:0:0:0:
9,261,231570,6,0,B|86:232|120:278|115:283|148:326|227:300,1,230.39999296875,6|8,1:2|2:0,2:0:0:0:
329,213,232053,1,2,1:2:0:0:
238,107,232215,2,0,B|216:161|216:161|242:217,1,115.199996484375,0|0,2:0|2:0,2:0:0:0:
376,118,232537,2,0,B|398:64|398:64|372:8,1,115.199996484375,6|0,1:2|2:0,2:0:0:0:
190,42,232860,37,8,2:0:0:0:
329,213,233021,1,2,1:2:0:0:
283,2,233182,1,8,2:0:0:0:
123,160,233344,1,0,1:2:0:0:
123,160,233424,1,0,2:0:0:0:
123,160,233505,6,0,P|189:166|228:117,1,115.199996484375,10|0,2:0|1:2,2:0:0:0:
12,10,233828,102,0,L|12:221,1,187.199991430664,14|0,2:0|2:0,2:0:0:0:
1,288,234150,38,0,P|22:228|154:244,1,211.200006445313,4|10,1:2|2:0,2:0:0:0:
243,320,234634,1,0,2:0:0:0:
307,210,234795,1,0,1:2:0:0:
155,313,234957,1,0,1:2:0:0:
339,382,235118,2,0,P|359:331|335:283,1,105.600003222656,10|0,2:0|2:0,2:0:0:0:
230,172,235441,5,2,1:2:0:0:
339,287,235602,1,0,1:2:0:0:
411,183,235763,2,0,B|354:168|354:168|320:199,1,105.600003222656,10|0,2:0|1:2,2:0:0:0:
167,333,236086,2,0,B|224:348|224:348|258:317,1,105.600003222656,2|0,2:0|1:2,2:0:0:0:
230,172,236408,2,0,B|173:157|173:157|139:188,1,105.600003222656,10|0,2:0|2:0,2:0:0:0:
33,260,236731,6,0,P|95:262|97:126,1,211.200006445313,2|8,1:2|2:0,2:0:0:0:
47,32,237215,1,2,2:0:0:0:
167,69,237376,2,0,P|225:68|257:14,1,105.600003222656,0|0,1:2|1:2,2:0:0:0:
330,200,237699,2,0,P|295:163|243:165,1,105.600003222656,10|0,2:0|2:0,2:0:0:0:
357,27,238021,6,0,P|390:93|518:76,1,211.200006445313,0|8,1:2|2:0,2:0:0:0:
509,210,238505,1,0,1:2:0:0:
424,304,238666,2,0,P|371:279|314:288,1,105.600003222656,0|0,2:0|1:2,2:0:0:0:
230,368,238989,2,0,P|283:324|245:254,1,158.400004833985,10|0,2:0|2:0,2:0:0:0:
229,245,239311,70,0,B|158:219|125:263|130:268|90:310|23:284,1,211.200006445313,6|8,1:2|2:0,2:0:0:0:
17,161,239795,1,0,2:0:0:0:
96,61,239957,2,0,B|145:39|145:39|202:69,1,105.600003222656,0|0,1:2|1:2,2:0:0:0:
339,152,240279,2,0,B|290:174|290:174|233:144,1,105.600003222656,10|0,2:0|2:0,2:0:0:0:
315,44,240602,5,2,1:2:0:0:
430,156,240763,1,0,1:2:0:0:
481,36,240924,2,0,P|420:33|395:80,1,105.600003222656,10|0,2:0|1:2,2:0:0:0:
327,252,241247,1,2,2:0:0:0:
430,156,241408,1,0,1:2:0:0:
236,18,241570,2,0,L|236:192,1,158.400004833985,10|0,2:0|2:0,2:0:0:0:
309,249,241892,86,0,P|277:189|166:219,1,187.199991430664,6|8,1:2|2:0,2:0:0:0:
135,275,242215,1,8,2:0:0:0:
405,367,242376,70,0,P|452:311|395:191,1,211.200006445313,2|0,1:2|1:2,2:0:0:0:
123,108,242860,6,0,B|176:128|208:93|202:91|239:58|288:80,1,172.799994726563,6|8,1:2|2:0,2:0:0:0:
348,118,243182,1,8,2:0:0:0:
188,341,243344,6,0,P|91:351|49:267,1,192,2|8,1:2|3:0,2:0:0:0:
149,31,243828,5,10,3:0:0:0:
255,272,243989,1,2,1:0:0:0:
