osu file format v14

[General]
AudioFilename: audio.mp3
AudioLeadIn: 0
PreviewTime: 924
Countdown: 0
SampleSet: Soft
StackLeniency: 0.6
Mode: 0
LetterboxInBreaks: 0
EpilepsyWarning: 1
WidescreenStoryboard: 1

[Editor]
DistanceSpacing: 0.4
BeatDivisor: 4
GridSize: 32
TimelineZoom: 2

[Metadata]
Title:Shoujotachi no Owaranai Yoru
TitleUnicode:少女たちの終わらない夜
Artist:HAG
ArtistUnicode:H△G
Creator:Sarawatlism
Version:Bellicose's Insane
Source:
Tags:Everlasting Night of Teenage Girls 星見る頃を過ぎても chiho hagu ハグ japanese j-pop pop jpop [_lost_] conner c_o_n_n_e_r Bellicose keeVY Firika ohm002
BeatmapID:2294005
BeatmapSetID:1094649

[Difficulty]
HPDrainRate:6
CircleSize:4
OverallDifficulty:8
ApproachRate:9
SliderMultiplier:1.8
SliderTickRate:1

[Events]
//Background and Video events
0,0,"BG.jpg",0,0
//Break Periods
2,29995,40002
2,71770,75486
//Storyboard Layer 0 (Background)
//Storyboard Layer 1 (Fail)
//Storyboard Layer 2 (Pass)
//Storyboard Layer 3 (Foreground)
//Storyboard Layer 4 (Overlay)
//Storyboard Sound Samples

[TimingPoints]
-688,322.58064516129,4,2,1,50,1,0
1892,-200,4,2,1,55,0,0
11731,-200,4,2,1,60,0,0
11892,-200,4,2,1,55,0,0
12215,-166.666666666667,4,2,1,60,0,0
18666,-166.666666666667,4,2,1,45,0,0
18828,-166.666666666667,4,2,1,60,0,0
19957,-100,4,2,1,70,0,0
28907,-100,4,2,1,5,0,0
28989,-100,4,2,1,70,0,0
29634,-100,4,2,2,75,0,0
29795,-100,4,2,2,65,0,0
40602,-133.333333333333,4,2,1,60,0,0
44634,-133.333333333333,4,2,2,60,0,0
45279,-133.333333333333,4,2,2,65,0,0
45682,-133.333333333333,4,2,2,5,0,0
45763,-133.333333333333,4,2,1,55,0,0
49472,-133.333333333333,4,2,1,35,0,0
49634,-100,4,2,1,65,0,0
49849,-100,4,2,1,60,0,0
50064,-100,4,2,1,55,0,0
50279,-100,4,2,1,60,0,0
50924,-100,4,2,1,65,0,0
56004,-100,4,2,1,5,0,0
56086,-100,4,2,1,65,0,0
58585,-100,4,2,1,5,0,0
58666,-100,4,2,1,65,0,0
63746,-100,4,2,1,5,0,0
63828,-100,4,2,1,65,0,0
69230,-100,4,2,1,5,0,0
69311,-100,4,2,1,65,0,0
70602,-100,4,2,1,70,0,0
71085,-100,4,2,1,55,0,0
71247,-100,4,2,1,60,0,0
71570,-100,4,2,1,50,0,0
76247,-133.333333333333,4,2,1,50,0,0
76731,-100,4,2,1,60,0,0
78666,-100,4,2,1,70,0,0
78828,-100,4,2,2,55,0,0
78989,-100,4,2,1,65,0,0
79311,-100,4,2,1,60,0,0
79552,-100,4,2,1,5,0,0
79634,-100,4,2,1,60,0,0
80844,-100,4,2,1,55,0,0
80924,-100,4,2,1,65,0,0
81892,-100,4,2,1,60,0,0
84473,-100,4,2,1,65,0,0
87053,-83.3333333333333,4,2,1,80,0,1
97295,-83.3333333333333,4,2,1,5,0,0
97376,-83.3333333333333,4,2,1,80,0,1
102376,-83.3333333333333,4,2,1,50,0,1
102537,-83.3333333333333,4,2,1,50,0,0
105118,-100,4,2,1,70,0,0
114069,-100,4,2,1,5,0,0
114150,-100,4,2,1,70,0,0
114795,-100,4,2,2,75,0,0
114957,-100,4,2,2,60,0,0
115441,-100,4,2,1,60,0,0
136086,-100,4,2,1,55,0,0
140763,-133.333333333333,4,2,1,55,0,0
141247,-100,4,2,1,55,0,0
143021,-100,4,2,1,40,0,0
143102,-100,4,2,1,55,0,0
143182,-100,4,2,1,65,0,0
143505,-100,4,2,1,55,0,0
143828,-100,4,2,1,60,0,0
144069,-100,4,2,1,5,0,0
144150,-100,4,2,1,60,0,0
145360,-100,4,2,1,45,0,0
145441,-100,4,2,1,60,0,0
151570,-83.3333333333333,4,2,1,80,0,1
161811,-83.3333333333333,4,2,1,5,0,0
161892,-83.3333333333333,4,2,1,80,0,1
167053,-133.333333333333,4,2,1,60,0,1
167134,-133.333333333333,4,2,1,55,0,1
169634,-83.3333333333333,4,2,1,65,0,0
170924,-83.3333333333333,4,2,1,40,0,0
171086,-83.3333333333333,4,2,1,45,0,0
171247,-83.3333333333333,4,2,1,50,0,0
171408,-83.3333333333333,4,2,1,55,0,0
171570,-83.3333333333333,4,2,1,60,0,0
171731,-83.3333333333333,4,2,1,65,0,0
171892,-83.3333333333333,4,2,1,70,0,0
172215,-83.3333333333333,4,2,1,65,0,0
173504,-83.3333333333333,4,2,1,50,0,0
173666,-83.3333333333333,4,2,1,55,0,0
173828,-83.3333333333333,4,2,1,60,0,0
173989,-83.3333333333333,4,2,1,65,0,0
174150,-83.3333333333333,4,2,1,70,0,0
174634,-83.3333333333333,4,2,2,70,0,0
174795,-83.3333333333333,4,2,1,65,0,0
175117,-83.3333333333333,4,2,1,75,0,0
176085,-83.3333333333333,4,2,1,35,0,0
176408,-83.3333333333333,4,2,1,45,0,0
176731,-83.3333333333333,4,2,1,55,0,0
177053,-83.3333333333333,4,2,1,65,0,0
177376,-83.3333333333333,4,2,1,75,0,0
179472,-83.3333333333333,4,2,1,65,0,0
179634,-83.3333333333333,4,2,1,70,0,0
179795,-83.3333333333333,4,2,1,75,0,0
179957,-100,4,2,1,75,0,0
180037,-100,4,2,1,70,0,0
182456,-100,4,2,1,5,0,0
182537,-100,4,2,1,70,0,0
185036,-100,4,2,1,5,0,0
185118,-100,4,2,1,70,0,0
190279,-133.333333333333,4,2,1,70,0,0
199311,-100,4,2,1,70,0,0
200602,-200,4,2,1,60,0,0
204473,-200,4,2,1,75,0,0
205763,-76.9230769230769,4,2,1,85,0,1
216005,-76.9230769230769,4,2,1,5,0,0
216086,-76.9230769230769,4,2,1,90,0,1
220279,-76.9230769230769,4,2,1,45,0,1
220602,-76.9230769230769,4,2,1,50,0,1
220924,-76.9230769230769,4,2,1,55,0,1
221247,-76.9230769230769,4,2,1,65,0,1
221570,-76.9230769230769,4,2,1,75,0,1
221892,-76.9230769230769,4,2,1,85,0,1
222537,-76.9230769230769,4,2,1,75,0,1
223828,-90.9090909090909,4,2,1,70,0,0
233505,-90.9090909090909,4,2,1,75,0,0
234150,-100,4,2,1,70,0,0
243101,-100,4,2,1,65,0,0
243182,-100,4,2,1,75,0,0
243344,-100,4,2,1,70,0,0
243666,-100,4,2,1,65,0,0
243828,-100,4,2,1,75,0,0
243989,-100,4,2,1,60,0,0

[Colours]
Combo1 : 254,180,180
Combo2 : 100,113,187
Combo3 : 125,133,162
Combo4 : 115,86,201
Combo5 : 172,109,177
Combo6 : 255,184,149
Combo7 : 253,132,132
Combo8 : 253,236,168

[HitObjects]
108,323,1892,22,0,P|176:307|212:303,1,90,2|2,2:0|2:0,2:0:0:0:
267,332,2376,1,0,2:0:0:0:
267,332,2537,2,0,P|231:275|270:225,1,135,2|0,2:0|2:0,2:0:0:0:
408,268,3182,6,0,P|371:284|322:267,1,90,2|2,2:0|2:0,2:0:0:0:
266,226,3666,1,0,2:0:0:0:
266,226,3828,2,0,L|277:127,1,90,2|2,2:0|2:0,2:0:0:0:
390,34,4473,102,0,L|399:123,1,90,2|0,2:0|2:0,2:0:0:0:
367,192,4957,2,0,P|409:149|496:165,1,135,2|2,2:0|2:0,2:0:0:0:
502,226,5602,1,2,2:0:0:0:
502,226,5763,5,2,2:0:0:0:
418,354,6086,2,0,L|509:364,2,90,2|2|2,2:0|2:0|2:0,2:0:0:0:
293,266,7053,102,0,P|247:270|199:254,1,90,2|2,2:0|2:0,2:0:0:0:
153,207,7537,1,0,2:0:0:0:
153,207,7699,2,0,P|156:253|122:289,1,90,2|2,2:0|2:0,2:0:0:0:
10,381,8344,6,0,B|18:271|18:272,1,90,2|2,2:0|2:0,2:0:0:0:
68,234,8828,1,0,2:0:0:0:
68,234,8989,2,0,L|61:129,1,90,2|2,2:0|2:0,2:0:0:0:
129,6,9634,102,0,B|106:33|106:33|45:18,1,90,2|0,2:0|2:0,2:0:0:0:
163,126,10279,2,0,B|186:99|186:99|247:114,1,90,2|2,2:0|2:0,2:0:0:0:
288,170,10763,2,0,P|302:94|313:71,1,90,2|0,2:0|2:0,2:0:0:0:
379,58,11247,2,0,L|485:68,2,90,2|2|2,2:0|2:0|2:0,2:0:0:0:
287,217,12215,102,0,P|279:149|317:118,1,107.999996704102,2|2,2:0|1:2,2:0:0:0:
392,148,12699,1,0,2:0:0:0:
392,148,12860,2,0,P|381:207|364:315,1,161.999995056152,2|0,2:0|2:0,2:0:0:0:
438,363,13505,6,0,P|468:320|454:269,1,107.999996704102,2|2,2:0|1:2,2:0:0:0:
369,234,13989,1,0,2:0:0:0:
369,234,14150,2,0,P|440:220|476:187,1,107.999996704102,2|2,2:0|1:2,2:0:0:0:
483,107,14634,1,0,2:0:0:0:
483,107,14795,6,0,B|433:92|433:92|419:76|419:76|376:66,1,107.999996704102,2|0,2:0|1:2,2:0:0:0:
293,67,15279,2,0,L|302:7,2,53.9999983520508,2|0|0,2:0|2:0|2:0,2:0:0:0:
222,125,15763,2,0,L|230:178,1,53.9999983520508,0|0,1:2|2:0,2:0:0:0:
376,158,16086,6,0,P|333:185|332:247,1,107.999996704102,0|0,2:0|1:2,2:0:0:0:
368,326,16570,1,2,2:0:0:0:
368,326,16731,2,0,P|289:306|237:300,1,107.999996704102,2|2,2:0|1:2,2:0:0:0:
180,338,17215,1,2,2:0:0:0:
180,338,17376,69,0,2:0:0:0:
77,185,17699,2,0,L|68:256,1,53.9999983520508,2|2,1:2|2:0,2:0:0:0:
152,138,18021,2,0,L|145:84,1,53.9999983520508,2|0,2:0|2:0,2:0:0:0:
168,237,18344,1,2,1:2:0:0:
168,237,18505,1,2,2:0:0:0:
43,315,18666,101,8,2:0:0:0:
206,348,18828,1,8,2:0:0:0:
367,192,19957,6,0,P|275:187|201:265,2,180,6|10|2,1:2|2:0|1:2,2:0:0:0:
416,288,20763,1,0,1:2:0:0:
486,148,20924,2,0,P|470:74|464:17,1,90,10|0,2:0|2:0,2:0:0:0:
256,81,21247,6,0,P|315:71|368:54,1,90,2|0,1:2|1:2,2:0:0:0:
205,170,21570,2,0,P|161:158|117:151,1,90,10|0,2:0|1:2,2:0:0:0:
324,248,21892,1,2,2:0:0:0:
324,248,22053,1,0,1:2:0:0:
220,349,22215,2,0,P|233:272|244:219,1,90,10|0,2:0|2:0,2:0:0:0:
17,274,22537,6,0,P|99:286|120:384,2,180,2|8|0,1:2|2:0|1:2,2:0:0:0:
124,181,23344,1,0,1:2:0:0:
19,88,23505,2,0,P|31:138|40:217,1,90,8|0,2:0|2:0,2:0:0:0:
227,163,23828,6,0,P|215:213|206:292,1,90,0|0,1:2|1:2,2:0:0:0:
114,92,24150,1,8,2:0:0:0:
207,26,24311,2,0,P|291:54|414:23,1,180,0|0,1:2|1:2,2:0:0:0:
487,178,24795,1,8,2:0:0:0:
511,66,24957,1,0,2:0:0:0:
316,149,25118,70,0,P|385:171|399:288,2,180,6|8|0,1:2|2:0|1:2,2:0:0:0:
199,221,25924,1,0,1:2:0:0:
303,355,26086,2,0,P|306:282|305:232,1,90,8|0,2:0|2:0,2:0:0:0:
115,343,26408,6,0,P|171:358|214:382,1,90,2|0,1:2|1:2,2:0:0:0:
84,246,26731,2,0,P|28:261|-15:285,1,90,10|0,2:0|1:2,2:0:0:0:
211,267,27053,1,2,2:0:0:0:
211,267,27215,1,0,1:2:0:0:
175,95,27376,2,0,P|159:167|157:199,1,90,10|0,2:0|2:0,2:0:0:0:
4,8,27699,86,0,P|32:82|41:193,1,180,6|8,1:2|2:0,2:0:0:0:
282,33,28182,2,0,B|156:55|156:55|136:82|188:100,1,180,2|0,1:2|2:0,2:0:0:0:
275,279,28666,2,0,B|220:263|220:263|205:239|205:239|157:225,1,135,6|0,1:2|2:0,2:0:0:0:
126,218,28989,69,8,2:0:0:0:
342,159,29150,2,0,P|417:185|471:97,1,180,0|8,1:2|2:0,2:0:0:0:
342,359,29634,1,10,2:0:0:0:
485,301,29795,1,2,1:2:0:0:
273,123,40602,6,0,P|226:168|140:152,1,135.000005149842,6|2,1:2|1:2,2:0:0:0:
99,100,41086,1,0,2:0:0:0:
99,100,41247,2,0,B|41:60|41:60|49:127,1,135.000005149842,2|2,1:2|1:2,2:0:0:0:
75,357,41892,6,0,P|48:295|79:218,1,135.000005149842,2|2,1:2|1:2,2:0:0:0:
138,291,42376,1,0,2:0:0:0:
138,291,42537,2,0,L|279:274,1,135.000005149842,2|2,1:2|1:2,2:0:0:0:
98,186,43182,6,0,L|11:176,1,67.5000025749208,2|0,1:2|2:0,2:0:0:0:
166,101,43505,2,0,L|253:111,2,67.5000025749208,0|0|0,1:2|2:0|1:2,2:0:0:0:
90,65,43989,1,2,2:0:0:0:
90,65,44150,1,2,1:2:0:0:
30,178,44311,1,2,2:0:0:0:
186,252,44473,6,0,P|184:192|179:159,1,67.5000025749208,0|8,1:2|2:0,2:0:0:0:
108,353,44795,53,0,1:2:0:0:
262,368,44957,1,8,3:0:0:0:
187,335,45118,53,0,1:2:0:0:
183,384,45279,1,8,2:0:0:0:
124,257,45441,2,0,B|114:232|114:232|201:256,1,101.250003862381,2|0,1:2|2:0,2:0:0:0:
228,261,45763,54,0,B|306:253|281:207|363:208,1,135.000005149842,6|2,1:2|2:0,2:0:0:0:
404,276,46247,1,0,1:2:0:0:
234,177,46408,2,0,L|258:19,1,135.000005149842,10|2,2:0|2:0,2:0:0:0:
401,93,46892,1,10,2:0:0:0:
348,208,47053,53,2,1:2:0:0:
493,180,47215,2,0,P|488:208|483:255,1,67.5000025749208,8|2,2:0|2:0,2:0:0:0:
403,118,47537,1,0,1:2:0:0:
274,253,47699,2,0,P|354:256|421:307,1,135.000005149842,10|2,2:0|1:2,2:0:0:0:
399,283,48344,6,0,B|359:305|359:305|375:207,1,135.000005149842,2|0,1:2|2:0,2:0:0:0:
389,130,48828,1,0,1:2:0:0:
264,33,48989,5,8,2:0:0:0:
211,103,49150,2,0,B|121:80|174:49|84:28,1,135.000005149842,0|8,1:2|2:0,2:0:0:0:
8,237,49634,6,0,L|135:221,2,120,8|8|8,2:0|2:0|2:0,2:0:0:0:
221,263,50279,1,2,1:3:0:0:
63,88,50924,70,0,B|26:129|26:129|46:183|46:183|38:221|-17:251,2,180,6|8|0,1:2|2:0|1:2,2:0:0:0:
177,177,51731,1,0,1:2:0:0:
116,15,51892,2,0,P|48:10|14:4,1,90,8|2,2:0|2:0,2:0:0:0:
254,72,52215,6,0,P|209:77|165:86,1,90,0|0,1:2|1:2,2:0:0:0:
406,100,52537,2,0,P|364:116|324:137,1,90,10|0,2:0|1:2,2:0:0:0:
399,11,52860,1,2,2:0:0:0:
290,144,53021,2,0,P|316:190|344:239,1,90,2|8,1:2|2:0,2:0:0:0:
500,91,53344,1,2,2:0:0:0:
468,301,53505,6,0,P|501:254|421:184,2,180,2|8|0,1:2|2:0|1:2,2:0:0:0:
319,172,54311,1,0,1:2:0:0:
408,82,54473,2,0,P|459:76|507:63,1,90,10|2,2:0|2:0,2:0:0:0:
245,69,54795,5,0,1:2:0:0:
340,151,54957,1,0,1:2:0:0:
161,276,55118,69,8,2:0:0:0:
252,203,55279,2,0,B|276:249|276:249|343:265|415:216,1,180,0|0,1:2|1:2,2:0:0:0:
160,90,55763,2,0,P|187:153|120:206,1,135,10|0,2:0|2:0,2:0:0:0:
113,196,56086,6,0,B|5:181|5:181|-35:209|17:256,2,180,2|10|2,1:2|2:0|1:2,2:0:0:0:
238,274,56892,1,0,1:2:0:0:
282,112,57053,2,0,P|276:40|272:-10,1,90,10|0,2:0|2:0,2:0:0:0:
194,184,57376,5,2,1:2:0:0:
323,221,57537,1,0,1:2:0:0:
111,368,57699,5,10,2:0:0:0:
260,313,57860,2,0,P|215:299|159:280,1,90,0|2,1:2|2:0,2:0:0:0:
348,349,58182,1,0,1:2:0:0:
373,199,58344,2,0,P|396:269|363:329,1,135,10|0,2:0|2:0,2:0:0:0:
348,349,58666,70,0,P|384:296|478:330,2,180,2|8|0,1:2|2:0|1:2,2:0:0:0:
465,185,59473,1,0,1:2:0:0:
351,111,59634,2,0,P|368:176|375:211,1,90,10|2,2:0|2:0,2:0:0:0:
483,64,59957,5,0,1:2:0:0:
383,11,60118,1,0,1:2:0:0:
211,137,60279,5,8,2:0:0:0:
321,88,60441,2,0,P|345:146|321:276,1,180,0|0,1:2|1:2,2:0:0:0:
164,51,60924,2,0,P|239:40|275:30,1,90,10|0,2:0|2:0,2:0:0:0:
176,224,61247,6,0,B|104:205|104:205|77:174|77:174|13:160,2,180,4|10|2,1:2|2:0|1:2,2:0:0:0:
69,73,62053,1,0,1:2:0:0:
200,13,62215,2,0,P|177:74|168:112,1,90,10|0,2:0|2:0,2:0:0:0:
277,249,62537,69,2,1:2:0:0:
130,302,62699,1,0,1:2:0:0:
183,191,62860,5,10,2:0:0:0:
239,348,63021,2,0,P|299:337|337:331,1,90,0|2,1:2|2:0,2:0:0:0:
138,269,63344,1,0,1:2:0:0:
315,158,63505,2,0,B|314:255|314:255|277:249,1,135,10|0,2:0|2:0,2:0:0:0:
246,227,63828,6,0,P|300:221|422:323,2,180,2|8|0,1:2|2:0|1:2,2:0:0:0:
185,130,64634,1,2,1:2:0:0:
298,16,64795,2,0,P|309:90|312:131,1,90,10|2,2:0|2:0,2:0:0:0:
470,171,65118,6,0,P|474:126|482:81,1,90,0|0,1:2|1:2,2:0:0:0:
320,209,65441,1,8,2:0:0:0:
416,297,65602,2,0,B|387:253|387:253|528:287,1,180,0|0,1:2|1:2,2:0:0:0:
377,364,66086,2,0,B|388:319|388:319|356:279,1,90,10|0,2:0|2:0,2:0:0:0:
126,377,66408,70,0,P|218:356|325:337,2,180,2|10|2,1:2|2:0|1:2,2:0:0:0:
248,242,67215,1,0,1:2:0:0:
130,158,67376,2,0,B|149:220|149:220|139:252,1,90,10|2,2:0|2:0,2:0:0:0:
73,276,67618,1,8,0:0:0:0:
73,276,67699,6,0,P|38:272|66:245,1,90,2|0,1:2|1:2,2:0:0:0:
224,150,68021,2,0,P|250:124|214:118,1,90,10|0,2:0|1:2,2:0:0:0:
6,82,68344,2,0,P|24:144|37:201,1,90,2|0,2:0|1:2,2:0:0:0:
132,87,68666,2,0,P|143:43|156:0,1,90,10|0,2:0|2:0,2:0:0:0:
267,288,68989,6,0,P|197:254|100:243,1,135,6|0,1:2|2:0,2:0:0:0:
105,246,69311,1,8,2:0:0:0:
273,161,69473,1,0,1:2:0:0:
171,53,69634,2,0,P|183:122|189:171,1,90,8|0,2:0|1:2,2:0:0:0:
359,5,69957,2,0,P|351:49|345:94,1,90,8|0,2:0|1:2,2:0:0:0:
295,278,70279,5,8,2:0:0:0:
470,303,70441,1,8,2:0:0:0:
512,128,70602,69,8,2:0:0:0:
377,190,70763,1,8,2:0:0:0:
171,53,70924,6,0,P|254:41|288:37,1,90,10|10,2:0|2:0,2:0:0:0:
129,286,71247,2,0,P|46:274|12:270,1,90,2|8,1:2|2:0,2:0:0:0:
256,192,71570,101,6,1:2:0:0:
216,343,76086,53,2,2:0:0:0:
298,251,76247,2,0,L|306:318,1,67.5000025749208,2|10,1:2|3:0,2:0:0:0:
218,208,76570,1,10,3:0:0:0:
43,348,76731,54,0,P|63:289|169:274,2,180,6|2|2,1:2|1:2|1:2,2:0:0:0:
130,183,77537,1,0,2:0:0:0:
11,115,77699,2,0,P|32:179|41:236,1,90,2|8,1:2|3:0,2:0:0:0:
139,0,78021,6,0,P|88:67|162:96,1,180,2|2,1:2|1:2,2:0:0:0:
263,72,78505,1,8,2:0:0:0:
263,72,78586,1,8,2:0:0:0:
263,72,78666,5,0,1:2:0:0:
178,193,78828,1,8,2:0:0:0:
336,197,78989,5,10,3:0:0:0:
250,150,79150,1,8,3:0:0:0:
200,340,79311,70,0,B|179:304|179:304|293:327,1,135,6|0,1:2|2:0,2:0:0:0:
305,312,79634,2,0,L|112:274,1,180,2|0,1:2|1:2,2:0:0:0:
304,220,80118,1,0,2:0:0:0:
235,61,80279,2,0,P|246:118|251:177,1,90,2|8,1:2|3:0,2:0:0:0:
87,286,80602,6,0,P|92:241|101:197,1,90,2|0,1:2|2:0,2:0:0:0:
166,162,80844,1,8,2:0:0:0:
166,162,80924,2,0,B|233:174|233:174|211:191,1,90,2|8,1:2|3:0,2:0:0:0:
79,28,81247,2,0,P|123:22|168:18,1,90,0|8,1:2|3:0,2:0:0:0:
101,197,81570,2,0,P|56:191|11:187,1,90,2|10,1:2|3:0,2:0:0:0:
241,114,81892,86,0,P|280:174|408:159,2,180,6|8|0,1:2|2:0|1:2,2:0:0:0:
397,89,82699,1,0,1:2:0:0:
461,238,82860,2,0,P|468:193|477:149,1,90,8|0,2:0|2:0,2:0:0:0:
291,304,83182,70,0,P|384:289|450:351,2,180,4|8|8,1:2|2:0|2:0,2:0:0:0:
196,179,83989,1,0,1:2:0:0:
322,99,84150,2,0,P|305:169|297:210,1,90,8|8,2:0|3:0,2:0:0:0:
159,384,84473,6,0,P|189:327|100:248,1,180,4|8,1:2|2:0,2:0:0:0:
7,133,84957,2,0,P|41:187|154:149,1,180,0|8,1:2|2:0,2:0:0:0:
300,128,85441,2,0,P|235:130|211:247,1,180,0|8,1:2|2:0,2:0:0:0:
148,29,85924,1,0,1:2:0:0:
198,226,87053,22,0,P|110:216|93:95,2,215.999993408203,6|10|2,1:0|2:0|1:2,2:0:0:0:
305,90,87860,1,0,1:2:0:0:
212,2,88021,2,0,P|196:83|191:134,1,107.999996704102,8|0,2:0|2:0,2:0:0:0:
307,312,88344,70,0,B|326:271|326:271|302:204,1,107.999996704102,2|0,1:2|2:0,2:0:0:0:
52,343,88666,2,0,P|106:280|257:279,1,215.999993408203,10|2,2:0|1:2,2:0:0:0:
163,384,89150,1,0,1:2:0:0:
18,230,89311,2,0,P|32:145|44:94,1,107.999996704102,10|0,2:0|2:0,2:0:0:0:
338,235,89634,6,0,P|369:156|279:72,2,215.999993408203,2|8|0,1:2|2:0|1:2,2:0:0:0:
210,111,90441,1,0,1:2:0:0:
389,38,90602,2,0,P|460:16|518:4,1,107.999996704102,8|0,2:0|2:0,2:0:0:0:
456,275,90924,6,0,B|333:238|406:186|270:155,2,215.999993408203,0|10|2,1:2|2:0|1:2,2:0:0:0:
512,110,91731,1,0,1:2:0:0:
406,16,91892,2,0,P|414:87|415:146,1,107.999996704102,10|0,2:0|2:0,2:0:0:0:
301,356,92215,6,0,B|278:320|278:320|293:237,1,107.999996704102,2|0,1:2|2:0,2:0:0:0:
415,123,92537,2,0,P|323:117|258:3,1,215.999993408203,10|2,2:0|1:2,2:0:0:0:
122,163,93021,1,0,1:2:0:0:
225,248,93182,2,0,P|306:222|367:214,1,107.999996704102,10|0,2:0|2:0,2:0:0:0:
15,271,93505,70,0,P|120:275|158:380,2,215.999993408203,0|10|2,1:2|2:0|1:2,2:0:0:0:
144,177,94311,1,0,1:2:0:0:
37,46,94473,2,0,P|47:106|52:164,1,107.999996704102,10|0,2:0|2:0,2:0:0:0:
298,56,94795,6,0,B|217:86|165:78|165:78|123:45|155:-27,2,215.999993408203,2|8|2,1:2|2:0|2:0,2:0:0:0:
432,114,95602,1,0,1:2:0:0:
344,295,95763,2,0,P|323:208|306:156,1,107.999996704102,10|2,2:0|2:0,2:0:0:0:
50,332,96086,6,0,P|132:329|275:376,1,215.999993408203,0|10,1:2|2:0,2:0:0:0:
103,242,96570,1,0,2:0:0:0:
76,246,96650,1,0,2:0:0:0:
51,234,96731,1,10,2:0:0:0:
39,209,96811,1,0,2:0:0:0:
46,182,96892,1,0,1:2:0:0:
67,165,96973,1,0,2:0:0:0:
93,165,97053,2,0,B|135:139|135:139|135:62|85:31,1,161.999995056153,10|0,2:0|2:0,2:0:0:0:
44,94,97376,6,0,P|126:106|209:15,2,215.999993408203,6|10|2,1:0|2:0|1:2,2:0:0:0:
213,208,98182,1,0,1:2:0:0:
44,327,98344,2,0,P|36:254|19:178,1,107.999996704102,8|0,2:0|2:0,2:0:0:0:
232,352,98666,70,0,B|209:383|209:383|135:367,1,107.999996704102,2|0,1:2|2:0,2:0:0:0:
388,226,98989,2,0,P|320:269|206:177,1,215.999993408203,10|2,2:0|1:2,2:0:0:0:
379,125,99473,1,0,1:2:0:0:
260,15,99634,2,0,P|280:91|291:145,1,107.999996704102,10|0,2:0|2:0,2:0:0:0:
373,357,99957,6,0,P|368:310|490:218,1,215.999993408203,2|8,1:2|2:0,2:0:0:0:
212,207,100441,1,2,1:2:0:0:
212,207,100602,2,0,P|286:223|346:209,1,107.999996704102,0|0,2:0|1:2,2:0:0:0:
477,36,100924,2,0,P|453:108|411:153,1,107.999996704102,8|0,2:0|2:0,2:0:0:0:
211,66,101247,5,0,1:2:0:0:
232,49,101328,1,0,2:0:0:0:
258,43,101408,1,8,2:0:0:0:
285,43,101489,1,8,2:0:0:0:
311,48,101570,2,0,P|242:42|182:3,1,107.999996704102,8|10,2:0|2:0,2:0:0:0:
34,213,101892,5,10,3:0:0:0:
171,157,102053,1,10,3:0:0:0:
251,374,102215,69,10,2:0:0:0:
114,318,102376,1,2,1:2:0:0:
361,343,105118,54,0,P|274:337|223:230,2,180,4|8|0,1:2|2:0|1:2,2:0:0:0:
453,278,105924,1,0,1:2:0:0:
371,146,106086,2,0,P|362:192|356:234,1,90,8|0,2:0|2:0,2:0:0:0:
376,33,106408,6,0,P|442:53|474:59,1,90,2|0,1:2|1:2,2:0:0:0:
276,82,106731,2,0,P|210:62|178:56,1,90,10|0,2:0|1:2,2:0:0:0:
257,258,107053,1,2,2:0:0:0:
257,258,107215,1,0,1:2:0:0:
374,146,107376,2,0,P|361:204|352:264,1,90,10|0,2:0|2:0,2:0:0:0:
90,249,107699,6,0,P|124:190|262:179,2,180,2|8|0,1:2|2:0|1:2,2:0:0:0:
218,298,108505,1,0,1:2:0:0:
88,376,108666,2,0,P|30:360|-19:353,1,90,10|0,2:0|2:0,2:0:0:0:
75,160,108989,6,0,P|88:236|90:268,1,90,0|0,1:2|1:2,2:0:0:0:
207,114,109311,1,8,2:0:0:0:
156,14,109473,2,0,P|121:45|3:5,1,180,0|0,1:2|1:2,2:0:0:0:
201,139,109957,2,0,P|261:127|312:118,1,90,8|0,2:0|2:0,2:0:0:0:
275,376,110279,70,0,P|234:332|107:338,2,180,6|8|0,1:2|2:0|1:2,2:0:0:0:
402,327,111086,1,0,1:2:0:0:
304,198,111247,2,0,P|315:262|318:308,1,90,8|0,2:0|2:0,2:0:0:0:
405,131,111570,6,0,P|394:67|391:21,1,90,2|0,1:2|1:2,2:0:0:0:
215,211,111892,2,0,P|259:206|303:197,1,90,10|0,2:0|1:2,2:0:0:0:
147,127,112215,1,2,2:0:0:0:
147,127,112376,1,0,1:2:0:0:
272,13,112537,2,0,P|265:73|261:122,1,90,10|0,2:0|2:0,2:0:0:0:
122,315,112860,86,0,P|110:235|5:202,1,180,6|8,1:2|2:0,2:0:0:0:
297,309,113344,2,0,B|369:299|369:299|389:270|389:270|484:256,1,180,2|0,1:2|2:0,2:0:0:0:
211,321,113828,2,0,B|239:347|239:347|248:234,1,135,6|0,1:2|2:0,2:0:0:0:
252,215,114150,69,8,2:0:0:0:
160,33,114311,2,0,P|84:65|130:161,1,180,0|8,1:2|2:0,2:0:0:0:
358,171,114795,1,10,2:0:0:0:
211,114,114957,1,2,1:2:0:0:
211,114,115441,6,0,B|252:127|291:104|291:104|328:104|356:130|356:130|297:140,1,180,6|0,1:2|1:2,2:0:0:0:
235,224,115924,1,0,2:0:0:0:
361,339,116086,2,0,P|345:274|333:216,1,90,0|0,1:2|2:0,2:0:0:0:
188,362,116408,1,10,1:2:0:0:
125,262,116570,6,0,P|154:312|271:323,1,180,2|0,2:0|2:0,2:0:0:0:
247,134,117053,2,0,P|235:222|233:240,1,90,10|2,2:0|2:0,2:0:0:0:
331,104,117376,1,2,1:2:0:0:
131,66,117537,2,0,P|143:154|145:172,1,90,2|8,2:0|2:0,2:0:0:0:
265,24,117860,1,0,2:0:0:0:
339,231,118021,6,0,P|378:174|496:175,2,180,2|8|0,1:2|1:2|1:2,2:0:0:0:
247,134,118828,1,0,2:0:0:0:
191,287,118989,2,0,P|263:304|302:317,1,90,10|2,1:2|2:0,2:0:0:0:
105,205,119311,5,0,1:2:0:0:
140,376,119473,1,8,2:0:0:0:
140,376,119553,1,8,2:0:0:0:
140,376,119634,2,0,P|96:363|52:354,1,90,8|8,3:0|3:0,2:0:0:0:
191,287,119957,2,0,L|245:279,2,45,0|0|8,1:2|2:0|3:0,2:0:0:0:
76,175,120279,2,0,P|86:239|89:279,1,90,2|8,1:2|3:0,2:0:0:0:
180,85,120602,6,0,P|96:87|35:-4,2,180,2|10|2,1:2|1:2|1:2,2:0:0:0:
299,37,121408,1,0,2:0:0:0:
274,221,121570,2,0,P|265:154|254:99,1,90,10|8,1:2|2:0,2:0:0:0:
120,315,121892,6,0,P|207:305|244:306,1,90,2|0,1:2|2:0,2:0:0:0:
383,229,122215,1,10,1:2:0:0:
383,229,122295,1,0,2:0:0:0:
383,229,122376,2,0,L|375:286,2,45,8|0|2,2:0|2:0|1:2,2:0:0:0:
171,135,122699,1,8,3:0:0:0:
171,135,122860,2,0,P|234:133|264:131,1,90,2|8,1:2|3:0,2:0:0:0:
512,41,123182,118,0,P|449:39|419:37,1,90,2|0,1:2|2:0,2:0:0:0:
348,32,123424,1,0,2:0:0:0:
348,32,123505,2,0,B|329:75|329:75|346:120,1,90,8|0,2:0|2:0,2:0:0:0:
474,288,123828,2,0,P|458:201|455:171,1,90,0|8,1:2|2:0,2:0:0:0:
458,126,124070,1,8,2:0:0:0:
458,126,124150,1,2,1:2:0:0:
328,236,124311,2,0,L|375:195,1,45,10|0,2:0|2:0,2:0:0:0:
380,192,124473,6,0,B|345:209|345:209|275:175,1,90,0|8,1:2|2:0,2:0:0:0:
191,318,124795,1,0,1:2:0:0:
191,318,124957,2,0,P|283:318|355:379,1,180,8|8,2:0|2:0,2:0:0:0:
321,146,125441,2,0,P|327:209|328:266,1,90,2|8,1:2|3:0,2:0:0:0:
107,103,125763,70,0,P|139:192|231:198,2,180,6|10|2,1:2|1:2|1:2,2:0:0:0:
0,210,126570,1,0,2:0:0:0:
59,337,126731,2,0,P|71:286|97:223,1,90,10|0,1:2|2:0,2:0:0:0:
195,37,127053,6,0,P|226:89|205:219,2,180,2|10|2,1:2|1:2|1:2,2:0:0:0:
92,109,127860,1,2,2:0:0:0:
298,56,128021,2,0,P|343:65|390:74,1,90,8|2,1:2|2:0,2:0:0:0:
362,269,128344,6,0,P|251:296|162:335,2,180,2|8|0,1:2|1:2|1:2,2:0:0:0:
459,352,129150,1,2,2:0:0:0:
490,205,129311,2,0,P|477:125|469:88,1,90,10|2,1:2|2:0,2:0:0:0:
251,134,129634,5,0,1:2:0:0:
376,180,129795,1,8,2:0:0:0:
376,180,129876,1,8,2:0:0:0:
376,180,129957,2,0,P|367:224|361:268,1,90,8|8,1:2|3:0,2:0:0:0:
119,298,130279,69,0,1:2:0:0:
266,240,130441,1,8,2:0:0:0:
316,377,130602,5,2,1:2:0:0:
207,337,130763,1,10,2:0:0:0:
82,187,130924,6,0,B|144:171|144:171|180:136|180:136|254:122,2,180,2|10|2,1:2|1:2|1:2,2:0:0:0:
0,110,131731,1,0,2:0:0:0:
93,5,131892,2,0,P|100:66|107:102,1,90,10|0,1:2|2:0,2:0:0:0:
161,336,132215,6,0,P|91:280|1:295,1,180,2|10,1:2|1:2,2:0:0:0:
184,214,132699,1,8,2:0:0:0:
184,214,132779,1,0,2:0:0:0:
184,214,132860,2,0,P|243:205|285:198,1,90,2|8,1:2|2:0,2:0:0:0:
397,363,133182,69,10,1:2:0:0:
255,310,133344,1,8,3:0:0:0:
439,131,133505,6,0,P|375:185|375:290,2,180,2|8|0,1:2|1:2|1:2,2:0:0:0:
493,228,134311,1,0,2:0:0:0:
340,95,134473,2,0,P|351:32|356:-1,1,90,8|0,1:2|2:0,2:0:0:0:
368,276,134795,86,0,B|263:294|331:340|204:363,1,180,4|8,1:2|2:0,2:0:0:0:
98,163,135279,1,8,2:0:0:0:
223,268,135441,2,0,P|212:205|207:172,1,90,10|2,3:0|2:0,2:0:0:0:
95,289,135763,1,10,2:0:0:0:
307,211,135924,1,8,2:0:0:0:
101,71,136086,69,6,2:0:0:0:
233,143,140602,53,2,2:0:0:0:
317,41,140763,2,0,B|301:72|301:72|317:102,1,67.5000025749208,2|10,1:2|3:0,2:0:0:0:
221,31,141086,1,10,3:0:0:0:
79,128,141247,54,0,P|145:132|178:244,2,180,6|2|2,1:2|1:2|1:2,2:0:0:0:
6,219,142053,1,0,2:0:0:0:
109,350,142215,2,0,P|100:284|97:225,1,90,2|8,1:2|3:0,2:0:0:0:
308,345,142537,70,0,B|346:308|346:308|205:322,1,180,2|2,1:2|1:2,2:0:0:0:
185,227,143021,1,8,2:0:0:0:
185,227,143102,1,8,2:0:0:0:
185,227,143182,5,0,1:2:0:0:
298,113,143344,1,8,2:0:0:0:
400,256,143505,5,10,3:0:0:0:
291,212,143666,1,8,3:0:0:0:
431,142,143828,38,0,B|466:160|502:145|502:145|494:183|523:224,1,135,6|0,1:2|2:0,2:0:0:0:
490,239,144150,2,0,P|406:238|354:348,1,180,2|0,1:2|1:2,2:0:0:0:
460,358,144634,1,0,2:0:0:0:
291,212,144795,2,0,P|240:223|184:230,1,90,2|8,1:2|3:0,2:0:0:0:
322,21,145118,70,0,P|311:72|304:128,1,90,2|0,1:2|2:0,2:0:0:0:
361,165,145360,1,8,2:0:0:0:
361,165,145441,2,0,B|432:158|432:158|405:144,1,90,2|8,1:2|3:0,2:0:0:0:
177,236,145763,2,0,P|188:287|195:343,1,90,0|8,1:2|3:0,2:0:0:0:
58,90,146086,2,0,P|109:101|165:108,1,90,2|8,1:2|3:0,2:0:0:0:
30,342,146408,38,0,P|71:311|219:351,2,180,6|8|0,1:2|2:0|1:2,2:0:0:0:
141,208,147215,1,0,1:2:0:0:
20,117,147376,2,0,P|40:191|49:240,1,90,8|0,2:0|2:0,2:0:0:0:
267,131,147699,5,4,1:2:0:0:
159,24,147860,1,8,2:0:0:0:
159,24,147941,1,8,2:0:0:0:
159,24,148021,2,0,P|139:98|130:147,1,90,8|0,2:0|1:2,2:0:0:0:
248,358,148344,2,0,P|237:314|225:270,1,90,8|0,2:0|1:2,2:0:0:0:
18,351,148666,2,0,P|72:326|136:303,1,90,8|8,2:0|3:0,2:0:0:0:
347,255,148989,70,0,P|260:236|222:153,1,180,4|8,1:2|2:0,2:0:0:0:
425,217,149473,2,0,P|452:301|399:376,1,180,0|8,1:2|2:0,2:0:0:0:
351,167,149957,2,0,P|410:101|501:109,1,180,0|8,1:2|2:0,2:0:0:0:
347,255,150441,1,0,1:2:0:0:
119,131,151570,38,0,P|173:150|270:23,2,215.999993408203,6|10|2,1:0|2:0|1:2,2:0:0:0:
183,22,152376,1,0,1:2:0:0:
246,222,152537,2,0,P|226:281|209:340,1,107.999996704102,8|0,2:0|2:0,2:0:0:0:
26,105,152860,70,0,B|56:76|56:76|131:111,1,107.999996704102,2|0,1:2|2:0,2:0:0:0:
374,241,153182,2,0,P|328:166|424:66,1,215.999993408203,10|2,2:0|1:2,2:0:0:0:
493,250,153666,1,0,1:2:0:0:
415,346,153828,2,0,P|355:335|295:328,1,107.999996704102,10|0,2:0|2:0,2:0:0:0:
31,230,154150,6,0,P|223:190|291:182,2,215.999993408203,2|8|0,1:2|2:0|2:0,2:0:0:0:
165,106,154957,1,0,1:2:0:0:
38,25,155118,2,0,P|52:100|57:140,1,107.999996704102,8|0,2:0|2:0,2:0:0:0:
196,332,155441,6,0,P|74:313|13:405,2,215.999993408203,0|10|2,1:2|2:0|1:2,2:0:0:0:
363,247,156247,1,0,1:2:0:0:
292,368,156408,2,0,P|282:298|274:227,1,107.999996704102,10|0,2:0|2:0,2:0:0:0:
365,9,156731,6,0,B|333:29|333:29|362:133,1,107.999996704102,2|0,1:2|2:0,2:0:0:0:
472,238,157053,2,0,P|405:199|254:182,1,215.999993408203,10|2,2:0|1:2,2:0:0:0:
441,118,157537,1,0,1:2:0:0:
385,321,157699,2,0,P|372:260|357:204,1,107.999996704102,10|0,2:0|2:0,2:0:0:0:
92,349,158021,70,0,B|140:361|173:342|173:342|201:296|201:296|233:271|302:283,2,215.999993408203,2|10|2,1:2|2:0|1:2,2:0:0:0:
10,213,158828,1,0,1:2:0:0:
142,156,158989,2,0,P|126:221|114:281,1,107.999996704102,10|0,2:0|2:0,2:0:0:0:
0,66,159311,6,0,P|104:85|148:-4,2,215.999993408203,2|8|2,1:2|2:0|2:0,2:0:0:0:
142,156,160118,1,0,1:2:0:0:
329,43,160279,2,0,P|258:55|220:61,1,107.999996704102,10|2,2:0|2:0,2:0:0:0:
320,311,160602,6,0,B|455:300|371:241|509:220,1,215.999993408203,0|10,1:2|2:0,2:0:0:0:
294,119,161086,1,0,2:0:0:0:
319,118,161166,1,0,2:0:0:0:
345,128,161247,1,10,2:0:0:0:
361,148,161328,1,0,2:0:0:0:
369,173,161408,1,0,1:2:0:0:
362,200,161489,1,0,2:0:0:0:
340,217,161570,2,0,P|344:131|355:46,1,161.999995056153,10|0,2:0|2:0,2:0:0:0:
425,34,161892,6,0,P|347:75|230:-24,2,215.999993408203,6|10|2,1:0|2:0|1:2,2:0:0:0:
273,189,162699,1,0,1:2:0:0:
437,277,162860,2,0,P|413:208|399:152,1,107.999996704102,8|0,2:0|2:0,2:0:0:0:
227,331,163182,70,0,B|254:362|254:362|340:321,1,107.999996704102,2|0,1:2|2:0,2:0:0:0:
26,246,163505,2,0,P|130:246|172:123,1,215.999993408203,10|2,2:0|1:2,2:0:0:0:
95,43,163989,1,0,1:2:0:0:
275,138,164150,2,0,P|288:73|306:17,1,107.999996704102,10|0,2:0|2:0,2:0:0:0:
83,170,164473,6,0,P|169:174|249:292,1,215.999993408203,2|8,1:2|2:0,2:0:0:0:
185,24,164957,1,0,1:2:0:0:
185,24,165118,2,0,P|167:71|173:131,1,107.999996704102,0|0,2:0|1:2,2:0:0:0:
50,360,165441,2,0,P|55:306|36:256,1,107.999996704102,8|0,2:0|2:0,2:0:0:0:
272,230,165763,5,0,1:2:0:0:
252,248,165844,1,0,2:0:0:0:
227,259,165924,1,8,2:0:0:0:
200,263,166005,1,8,2:0:0:0:
173,260,166086,2,0,P|246:284|297:310,1,107.999996704102,8|10,2:0|2:0,2:0:0:0:
512,244,166408,5,10,3:0:0:0:
412,350,166570,1,8,3:0:0:0:
314,135,166731,69,10,2:0:0:0:
414,241,166893,1,2,1:2:0:0:
511,110,167053,6,0,P|476:153|390:140,1,135.000005149842,4|2,1:2|2:0,2:0:0:0:
402,150,167537,1,2,1:2:0:0:
299,0,167699,2,0,P|306:53|314:148,1,135.000005149842,8|2,2:0|1:2,2:0:0:0:
313,134,168182,1,10,2:0:0:0:
218,274,168344,6,0,P|171:223|96:232,1,135.000005149842,0|10,1:2|2:0,2:0:0:0:
109,224,168828,1,2,1:2:0:0:
237,159,168989,1,10,2:0:0:0:
143,59,169150,1,10,2:0:0:0:
143,59,169231,1,8,2:0:0:0:
143,59,169311,2,0,P|157:124|161:149,1,67.5000025749208,10|10,2:0|3:0,2:0:0:0:
58,332,169634,70,0,B|26:380|26:380|186:311,1,215.999993408203,4|8,1:2|2:0,2:0:0:0:
328,177,170118,2,0,P|251:204|154:110,1,215.999993408203,0|8,1:2|2:0,2:0:0:0:
87,255,170602,2,0,P|118:217|13:120,1,215.999993408203,4|8,1:2|2:0,2:0:0:0:
267,1,171086,1,8,2:0:0:0:
267,1,171247,2,0,L|254:113,1,107.999996704102,8|8,2:0|2:0,2:0:0:0:
315,284,171570,2,0,L|327:176,1,107.999996704102,8|8,2:0|2:0,2:0:0:0:
431,21,171892,2,0,P|486:32|508:105,1,107.999996704102,8|8,2:0|2:0,2:0:0:0:
222,197,172215,86,0,B|341:201|297:131|423:137,1,215.999993408203,4|8,1:2|2:0,2:0:0:0:
477,339,172699,2,0,P|472:271|364:341,1,215.999993408203,0|8,1:2|2:0,2:0:0:0:
74,337,173182,2,0,P|180:350|267:269,1,215.999993408203,4|8,1:2|2:0,2:0:0:0:
49,249,173666,1,8,2:0:0:0:
49,249,173828,2,0,L|33:135,1,107.999996704102,8|8,2:0|2:0,2:0:0:0:
259,284,174150,2,0,L|275:170,1,107.999996704102,8|8,2:0|2:0,2:0:0:0:
131,67,174473,6,0,B|108:99|108:99|131:152,2,71.9999978027344,8|0|0,3:0|2:0|2:0,2:0:0:0:
166,60,174795,70,0,B|306:63|236:-3|376:0,1,215.999993408203,4|8,1:2|2:0,2:0:0:0:
259,284,175279,2,0,B|177:265|177:265|141:226|141:226|61:208,1,215.999993408203,4|8,1:2|2:0,2:0:0:0:
341,157,175763,2,0,P|372:230|500:214,1,215.999993408203,4|8,1:2|1:2,2:0:0:0:
471,12,176247,1,8,2:0:0:0:
471,12,176408,2,0,L|454:124,1,107.999996704102,8|8,2:0|2:0,2:0:0:0:
357,263,176731,2,0,L|340:156,1,107.999996704102,8|8,2:0|2:0,2:0:0:0:
161,24,177053,2,0,P|226:58|281:16,1,107.999996704102,8|8,2:0|2:0,2:0:0:0:
107,274,177376,70,0,L|-26:257,1,107.999996704102,8|8,2:0|2:0,2:0:0:0:
255,279,177699,2,0,L|173:385,1,107.999996704102,8|8,2:0|2:0,2:0:0:0:
340,156,178021,2,0,L|391:279,1,107.999996704102,8|8,2:0|2:0,2:0:0:0:
282,9,178344,1,8,2:0:0:0:
426,82,178505,1,8,2:0:0:0:
167,201,178666,6,0,P|205:145|354:175,1,215.999993408203,4|8,1:2|2:0,2:0:0:0:
94,19,179150,2,0,B|76:96|76:96|90:126|90:126|69:238,1,215.999993408203,4|8,1:2|2:0,2:0:0:0:
67,249,179553,1,8,2:0:0:0:
63,270,179634,1,8,2:0:0:0:
60,291,179715,1,8,2:0:0:0:
56,312,179795,1,8,2:0:0:0:
6,138,179957,38,0,P|102:138|153:215,2,180,6|8|2,1:2|2:0|1:2,2:0:0:0:
137,44,180763,1,0,1:2:0:0:
235,122,180924,2,0,P|246:50|257:3,1,90,10|0,2:0|2:0,2:0:0:0:
351,214,181247,6,0,P|269:217|225:306,1,180,2|8,1:2|2:0,2:0:0:0:
511,149,181731,2,0,P|443:137|330:109,1,180,2|0,1:2|1:2,2:0:0:0:
415,374,182215,2,0,B|376:343|376:343|415:251,1,135,8|0,2:0|2:0,2:0:0:0:
436,261,182537,6,0,P|390:287|285:225,2,180,0|10|2,1:2|2:0|1:2,2:0:0:0:
506,152,183344,1,0,1:2:0:0:
380,60,183505,2,0,P|397:134|406:185,1,90,10|0,2:0|2:0,2:0:0:0:
238,347,183828,6,0,P|258:257|170:194,1,180,2|8,1:2|2:0,2:0:0:0:
0,339,184311,2,0,P|56:317|198:279,1,180,2|0,1:2|1:2,2:0:0:0:
74,42,184795,2,0,B|99:138|99:138|61:118,1,135,10|0,2:0|2:0,2:0:0:0:
40,113,185118,70,0,P|81:83|204:95,2,180,0|10|2,1:2|2:0|1:2,2:0:0:0:
149,197,185924,1,0,1:2:0:0:
43,319,186086,2,0,P|51:275|60:212,1,90,10|0,2:0|2:0,2:0:0:0:
292,310,186408,6,0,B|166:297|166:297|153:337|203:362,1,180,2|10,1:2|2:0,2:0:0:0:
309,198,186892,2,0,P|295:134|287:95,1,90,0|2,1:2|2:0,2:0:0:0:
438,254,187215,1,0,1:2:0:0:
438,254,187376,2,0,P|428:298|419:341,1,90,10|0,2:0|2:0,2:0:0:0:
235,132,187699,6,0,P|341:140|400:74,2,180,2|8|2,1:2|2:0|1:2,2:0:0:0:
265,15,188505,1,0,1:2:0:0:
127,132,188666,2,0,P|152:187|166:227,1,90,8|0,2:0|2:0,2:0:0:0:
359,240,188989,6,0,P|303:265|287:387,1,180,2|8,1:2|2:0,2:0:0:0:
82,313,189473,2,0,P|144:313|197:325,1,90,0|2,1:2|2:0,2:0:0:0:
263,181,189795,1,0,1:2:0:0:
263,181,189957,2,0,P|263:119|275:66,1,90,8|0,3:0|2:0,2:0:0:0:
26,146,190279,102,0,P|94:158|134:231,1,135.000005149842,4|0,1:2|2:0,2:0:0:0:
130,208,190763,1,0,1:2:0:0:
267,91,190924,2,0,P|169:80|114:72,1,135.000005149842,10|8,2:0|3:0,2:0:0:0:
263,181,191408,1,8,2:0:0:0:
179,317,191570,102,0,B|260:313|218:266|322:266,2,135.000005149842,2|0|8,1:2|1:2|2:0,2:0:0:0:
30,296,192376,2,0,P|49:345|58:390,1,67.5000025749208,0|2,1:2|2:0,2:0:0:0:
52,359,192699,1,0,2:0:0:0:
121,202,192860,6,0,P|113:139|173:73,1,135.000005149842,0|2,1:2|2:0,2:0:0:0:
152,83,193344,1,0,1:2:0:0:
330,183,193505,2,0,P|262:167|188:158,1,135.000005149842,10|10,2:0|3:0,2:0:0:0:
307,86,193989,1,8,2:0:0:0:
336,279,194150,102,0,B|388:260|388:260|405:237|405:237|460:221,2,135.000005149842,2|2|10,1:2|1:2|2:0,2:0:0:0:
241,204,194957,1,0,1:2:0:0:
206,358,195118,2,0,B|265:371|290:379,1,67.5000025749208,2|0,2:0|2:0,2:0:0:0:
129,261,195441,6,0,P|81:280|4:231,1,135.000005149842,0|2,1:2|2:0,2:0:0:0:
10,243,195924,1,0,1:2:0:0:
203,132,196086,2,0,P|136:119|70:104,1,135.000005149842,10|10,2:0|3:0,2:0:0:0:
216,223,196570,1,8,2:0:0:0:
302,53,196731,102,0,P|332:102|311:181,2,135.000005149842,2|2|10,1:2|1:2|2:0,2:0:0:0:
203,132,197537,1,0,1:2:0:0:
338,283,197699,2,0,L|333:327,3,33.7500012874604,2|0|0|0,2:0|0:0|0:0|0:0,0:0:0:0:
374,272,198021,6,0,P|287:265|220:282,1,135.000005149842,2|0,1:2|2:0,2:0:0:0:
240,274,198505,1,0,1:2:0:0:
82,381,198666,2,0,B|43:355|43:355|75:259,1,135.000005149842,8|8,2:0|3:0,2:0:0:0:
70,271,199150,1,8,2:0:0:0:
130,68,199311,102,0,P|155:122|164:248,1,180,0|10,1:2|2:0,2:0:0:0:
165,240,199795,1,0,1:2:0:0:
357,197,199957,2,0,L|461:206,1,90,10|0,2:0|1:2,2:0:0:0:
301,45,200279,1,10,3:0:0:0:
290,59,200360,1,8,3:0:0:0:
275,69,200441,1,8,3:0:0:0:
257,70,200521,1,8,3:0:0:0:
239,65,200602,102,0,P|301:59|346:119,1,135,4|0,1:2|1:2,2:0:0:0:
283,252,201247,2,0,P|266:206|279:162,1,90,10|0,2:0|1:2,2:0:0:0:
369,272,201731,1,8,2:0:0:0:
303,342,201892,54,0,P|247:331|198:325,2,90,2|2|10,1:2|1:2|2:0,2:0:0:0:
368,271,202699,2,0,P|412:280|457:286,1,90,0|8,1:2|2:0,2:0:0:0:
301,191,203182,54,0,P|270:149|315:79,1,135,2|2,1:2|1:2,2:0:0:0:
187,232,203828,54,0,L|135:239,5,30,10|2|2|2|2|2,2:0|2:0|2:0|1:2|2:0|2:0,2:0:0:0:
84,246,204473,53,14,0:0:0:0:
255,336,204634,1,10,2:0:0:0:
273,61,205118,53,14,2:0:0:0:
187,232,205279,1,10,2:0:0:0:
28,42,205763,38,0,P|49:98|221:112,2,233.999989288331,6|10|2,1:0|2:0|1:2,2:0:0:0:
200,21,206570,1,0,1:2:0:0:
40,253,206731,2,0,P|52:176|69:112,1,116.999994644165,8|2,2:0|2:0,2:0:0:0:
187,360,207053,70,0,B|207:332|207:332|82:349,1,116.999994644165,2|0,1:2|2:0,2:0:0:0:
434,243,207376,2,0,P|325:244|293:97,1,233.999989288331,10|2,2:0|1:2,2:0:0:0:
352,19,207860,1,0,1:2:0:0:
147,69,208021,2,0,P|170:146|184:201,1,116.999994644165,10|0,2:0|2:0,2:0:0:0:
0,351,208344,6,0,P|116:349|120:248,1,233.999989288331,2|8,1:2|2:0,2:0:0:0:
266,257,208828,1,2,1:2:0:0:
28,148,208989,2,0,P|20:225|17:287,1,116.999994644165,0|0,2:0|1:2,2:0:0:0:
184,121,209311,2,0,P|180:62|173:4,1,116.999994644165,8|0,2:0|2:0,2:0:0:0:
376,316,209634,6,0,P|400:216|453:96,2,233.999989288331,0|10|2,1:2|2:0|1:2,2:0:0:0:
512,221,210441,1,0,1:2:0:0:
279,133,210602,2,0,P|332:192|367:226,1,116.999994644165,10|0,2:0|2:0,2:0:0:0:
71,344,210924,6,0,B|161:329|161:329|189:292|189:292|289:280,2,233.999989288331,2|8|2,1:2|2:0|1:2,2:0:0:0:
227,189,211731,1,0,1:2:0:0:
53,246,211892,2,0,P|39:172|22:108,1,116.999994644165,10|0,2:0|2:0,2:0:0:0:
318,219,212215,70,0,P|306:144|170:121,2,233.999989288331,2|8|2,1:2|2:0|1:2,2:0:0:0:
395,106,213021,1,0,1:2:0:0:
212,216,213182,2,0,P|230:271|248:327,1,116.999994644165,10|0,2:0|2:0,2:0:0:0:
503,286,213505,6,0,B|339:323|339:323|423:360,1,233.999989288331,2|8,1:2|2:0,2:0:0:0:
286,156,213989,2,0,P|218:121|113:229,1,233.999989288331,0|0,1:2|1:2,2:0:0:0:
375,126,214473,1,10,2:0:0:0:
241,323,214634,1,2,2:0:0:0:
241,323,214795,6,0,P|227:233|137:88,1,233.999989288331,2|10,1:2|2:0,2:0:0:0:
38,67,215279,1,0,1:2:0:0:
237,34,215441,2,0,P|318:21|383:13,1,116.999994644165,10|0,2:0|1:2,2:0:0:0:
58,202,215763,2,0,P|115:209|243:232,1,175.499991966248,14|0,2:0|2:0,2:0:0:0:
306,207,216086,6,0,P|241:197|180:350,2,233.999989288331,6|10|2,1:0|2:0|1:2,2:0:0:0:
408,314,216892,1,0,1:2:0:0:
475,136,217053,2,0,P|461:47|451:-5,1,116.999994644165,8|2,2:0|2:0,2:0:0:0:
214,171,217376,70,0,P|250:242|394:202,2,233.999989288331,2|10|2,1:2|2:0|1:2,2:0:0:0:
384,68,218182,1,0,1:2:0:0:
266,0,218344,2,0,P|284:81|296:148,1,116.999994644165,10|0,2:0|2:0,2:0:0:0:
115,339,218666,6,0,B|45:312|45:312|207:261,1,233.999989288331,2|8,1:2|2:0,2:0:0:0:
19,35,219150,2,0,P|50:129|182:105,1,233.999989288331,2|0,1:2|1:2,2:0:0:0:
399,201,219634,2,0,P|299:195|258:195,1,116.999994644165,8|0,2:0|2:0,2:0:0:0:
461,61,219957,6,0,P|378:85|239:-8,1,233.999989288331,4|8,1:2|2:0,2:0:0:0:
54,110,220441,1,10,2:0:0:0:
54,110,220602,2,0,L|80:247,1,116.999994644165,10|8,2:0|2:0,2:0:0:0:
139,22,220924,2,0,L|165:159,1,116.999994644165,10|10,2:0|2:0,2:0:0:0:
228,364,221247,6,0,P|246:301|327:273,1,116.999994644165,8|8,2:0|2:0,2:0:0:0:
492,316,221570,2,0,P|428:331|363:275,1,116.999994644165,10|10,2:0|2:0,2:0:0:0:
316,114,221892,2,0,P|361:161|345:245,1,116.999994644165,10|10,2:0|2:0,2:0:0:0:
236,162,222215,1,10,2:0:0:0:
428,85,222376,1,10,2:0:0:0:
443,367,222537,70,0,P|463:246|479:185,1,175.499991966248,12|8,2:0|2:0,2:0:0:0:
485,165,222860,1,10,2:0:0:0:
363,210,223021,5,10,3:0:0:0:
104,83,223344,5,8,3:0:0:0:
193,327,223666,5,10,3:0:0:0:
178,248,223828,6,0,P|130:312|5:301,2,198.000006042481,6|10|0,1:2|2:0|1:2,2:0:0:0:
288,249,224634,1,0,1:2:0:0:
136,133,224795,2,0,P|199:152|239:162,1,99.0000030212403,10|0,2:0|2:0,2:0:0:0:
28,217,225118,6,0,P|38:152|43:91,1,99.0000030212403,2|0,1:2|1:2,2:0:0:0:
178,248,225441,2,0,P|168:313|163:374,1,99.0000030212403,10|0,2:0|1:2,2:0:0:0:
334,171,225763,1,2,2:0:0:0:
334,171,225924,1,0,1:2:0:0:
353,356,226086,2,0,P|307:339|255:325,1,99.0000030212403,10|0,2:0|2:0,2:0:0:0:
488,148,226408,6,0,P|466:235|358:245,2,198.000006042481,2|8|0,1:2|2:0|1:2,2:0:0:0:
424,42,227215,1,0,1:2:0:0:
286,131,227376,2,0,P|360:138|403:147,1,99.0000030212403,10|0,2:0|2:0,2:0:0:0:
290,323,227699,6,0,P|283:249|274:206,1,99.0000030212403,2|0,1:2|1:2,2:0:0:0:
127,108,228021,1,8,2:0:0:0:
112,211,228182,2,0,B|231:199|171:135|298:130,1,198.000006042481,0|0,1:2|1:2,2:0:0:0:
127,315,228666,2,0,P|70:299|18:289,1,99.0000030212403,8|0,2:0|2:0,2:0:0:0:
361,329,228989,70,0,P|329:351|231:256,2,198.000006042481,6|8|0,1:2|2:0|1:2,2:0:0:0:
480,262,229795,1,0,1:2:0:0:
367,143,229957,2,0,P|383:203|393:259,1,99.0000030212403,8|0,2:0|2:0,2:0:0:0:
488,25,230279,6,0,P|472:85|462:141,1,99.0000030212403,2|0,1:2|1:2,2:0:0:0:
287,19,230602,2,0,P|347:35|403:45,1,99.0000030212403,10|0,2:0|1:2,2:0:0:0:
233,126,230924,1,2,2:0:0:0:
233,126,231086,1,0,1:2:0:0:
389,239,231247,2,0,P|329:255|273:265,1,99.0000030212403,10|0,2:0|2:0,2:0:0:0:
37,297,231570,6,0,P|120:276|204:351,1,198.000006042481,6|8,1:2|2:0,2:0:0:0:
325,173,232053,1,2,1:2:0:0:
224,224,232215,2,0,P|228:159|236:110,1,99.0000030212403,0|0,2:0|2:0,2:0:0:0:
72,35,232537,2,0,P|78:84|80:133,1,99.0000030212403,6|0,1:2|2:0,2:0:0:0:
292,29,232860,38,0,P|227:25|178:17,1,99.0000030212403,8|2,2:0|1:2,2:0:0:0:
331,154,233182,1,8,2:0:0:0:
224,224,233344,1,0,1:2:0:0:
413,60,233505,2,0,P|409:132|409:174,1,99.0000030212403,10|0,2:0|1:2,2:0:0:0:
228,322,233828,2,0,P|227:272|223:223,1,99.0000030212403,14|0,2:0|1:2,2:0:0:0:
466,364,234150,38,0,P|441:323|305:324,2,180,4|10|0,1:2|2:0|1:2,2:0:0:0:
359,219,234957,1,0,1:2:0:0:
481,154,235118,2,0,P|463:209|452:265,1,90,10|0,2:0|2:0,2:0:0:0:
330,72,235441,6,0,P|406:62|444:55,1,90,2|0,1:2|1:2,2:0:0:0:
191,142,235763,2,0,P|235:149|280:154,1,90,10|0,2:0|1:2,2:0:0:0:
126,51,236086,1,2,2:0:0:0:
126,51,236247,1,0,1:2:0:0:
87,219,236408,2,0,P|59:149|37:110,1,90,10|0,2:0|2:0,2:0:0:0:
242,248,236731,6,0,P|184:273|187:378,2,180,2|8|0,1:2|2:0|1:2,2:0:0:0:
268,350,237537,1,0,1:2:0:0:
88,292,237699,2,0,P|28:281|-13:274,1,90,10|0,2:0|2:0,2:0:0:0:
216,150,238021,6,0,P|276:139|317:132,1,90,0|0,1:2|1:2,2:0:0:0:
108,61,238344,1,8,2:0:0:0:
39,144,238505,2,0,P|89:183|87:292,1,180,0|0,1:2|1:2,2:0:0:0:
217,117,238989,2,0,P|219:61|225:15,1,90,10|0,2:0|2:0,2:0:0:0:
366,272,239311,70,0,P|264:224|160:244,2,180,6|8|0,1:2|2:0|1:2,2:0:0:0:
424,165,240118,1,0,1:2:0:0:
451,350,240279,2,0,P|467:301|493:247,1,90,10|0,2:0|2:0,2:0:0:0:
289,65,240602,6,0,P|307:106|320:149,1,90,2|0,1:2|1:2,2:0:0:0:
153,328,240924,2,0,P|194:309|237:296,1,90,10|0,2:0|1:2,2:0:0:0:
65,222,241247,1,2,2:0:0:0:
65,222,241408,1,0,1:2:0:0:
203,120,241570,2,0,P|184:161|171:204,1,90,10|0,2:0|2:0,2:0:0:0:
13,25,241892,86,0,B|46:70|46:70|203:17,1,180,6|8,1:2|2:0,2:0:0:0:
327,277,242376,2,0,B|258:259|258:259|230:221|230:221|157:200,1,180,2|0,1:2|1:2,2:0:0:0:
459,81,242860,2,0,P|411:113|424:191,1,135,6|8,1:2|2:0,2:0:0:0:
429,213,243182,1,8,2:0:0:0:
163,30,243344,70,0,P|261:27|375:19,1,180,2|8,1:2|3:0,2:0:0:0:
145,197,243828,1,10,3:0:0:0:
292,158,243989,1,2,1:0:0:0:
