osu file format v14

[General]
AudioFilename: audio.mp3
AudioLeadIn: 0
PreviewTime: -1
Countdown: 1
SampleSet: Soft
StackLeniency: 0.7
Mode: 0
LetterboxInBreaks: 0
WidescreenStoryboard: 0

[Editor]
DistanceSpacing: 2.3
BeatDivisor: 4
GridSize: 16
TimelineZoom: 2.5

[Metadata]
Title:Shoujotachi no Owaranai Yoru
TitleUnicode:少女たちの終わらない夜
Artist:HAG
ArtistUnicode:ハグ
Creator:Alsty-
Version:Natsukashisa
Source:
Tags:Chiho
BeatmapID:2146848
BeatmapSetID:1026543

[Difficulty]
HPDrainRate:5.2
CircleSize:4.2
OverallDifficulty:8
ApproachRate:9.3
SliderMultiplier:1.4
SliderTickRate:1

[Events]
//Background and Video events
0,0,"61829883_p0.png",0,0
//Break Periods
2,72591,76354
2,103398,105386
2,137108,140870
//Storyboard Layer 0 (Background)
//Storyboard Layer 1 (Fail)
//Storyboard Layer 2 (Pass)
//Storyboard Layer 3 (Foreground)
//Storyboard Layer 4 (Overlay)
//Storyboard Sound Samples

[TimingPoints]
1752,322.58064516129,4,2,1,60,1,0
2720,-142.857142857143,4,2,1,60,0,0
13042,-100,4,2,1,60,0,0
20779,322.58064516129,4,2,1,60,1,0
30779,-166.666666666667,4,2,1,60,0,0
41424,-100,4,2,1,60,0,0
70133,-100,4,2,1,30,0,0
70295,-100,4,2,1,35,0,0
70456,-100,4,2,1,40,0,0
70617,-100,4,2,1,45,0,0
70778,-100,4,2,1,50,0,0
70940,-100,4,2,1,55,0,0
71101,-100,4,2,1,60,0,0
171746,-100,4,2,1,15,0,0
171908,-100,4,2,1,20,0,0
172069,-100,4,2,1,25,0,0
172230,-100,4,2,1,30,0,0
172391,-100,4,2,1,35,0,0
172553,-100,4,2,1,40,0,0
172714,-100,4,2,1,50,0,0
172875,-100,4,2,1,60,0,0
191424,-100,4,2,1,40,0,0
191585,-100,4,2,1,60,0,0
198843,-166.666666666667,4,2,1,60,0,0
201746,-100,4,2,1,60,0,0
221101,-100,4,2,1,45,0,0
222069,-100,4,2,1,50,0,0
222230,-100,4,2,1,52,0,0
222391,-100,4,2,1,54,0,0
222553,-100,4,2,1,56,0,0
222714,-100,4,2,1,58,0,0
222875,-100,4,2,1,60,0,0

[HitObjects]
384,111,1752,6,0,P|403:157|392:247,2,140
163,106,2720,6,0,B|97:160|107:243|107:243|163:200|163:200|179:250|197:258|213:249,1,293.999991027832
337,70,4010,2,0,B|352:171|352:171|411:207|417:263|369:310|369:310|338:301|327:299,1,293.999991027832
445,166,5300,2,0,B|366:114|368:84|368:84|260:105|220:184,1,293.999991027832
103,78,6590,2,0,B|126:137|109:173|109:173|182:238|182:238|182:306|249:261,1,293.999991027832
439,320,7881,2,0,B|434:256|403:216|403:216|445:140|445:140|384:126|358:82|389:75,1,293.999991027832
202,89,9171,2,0,B|172:127|183:186|183:186|121:191|78:161|84:256|145:308,1,293.999991027832
393,288,10461,2,0,B|371:194|371:194|385:164|308:128|308:128|277:148|277:148|278:79,1,293.999991027832
92,291,11752,2,0,B|136:201|136:201|91:141|120:80|120:80|195:102,1,293.999991027832
309,88,13042,6,0,L|268:152,1,70,2|0,2:0|0:0,0:0:0:0:
481,157,13365,2,0,L|415:199,1,70,2|0,0:0|0:0,0:0:0:0:
418,343,13687,2,0,L|349:310,1,70,2|0,0:0|0:0,0:0:0:0:
143,313,14010,2,0,L|216:256,1,70,2|0,0:0|0:0,0:0:0:0:
181,60,14332,2,0,L|248:183,2,140,2|2|2,0:0|0:0|0:0,0:0:0:0:
385,111,15139,5,0,0:0:0:0:
385,111,15300,2,0,L|329:164,1,70,2|0,0:0|0:0,0:0:0:0:
185,308,15623,2,0,L|128:148,1,140,2|0,0:0|0:0,0:0:0:0:
83,37,16106,2,0,L|111:106,1,70,2|0,0:0|0:0,0:0:0:0:
200,98,16429,6,0,L|226:171,1,70
424,100,16752,2,0,L|386:172,1,70
232,300,17074,2,0,L|288:223,1,70
100,44,17397,2,0,L|164:112,1,70,2|2,0:0|0:0,0:0:0:0:
351,44,17719,2,0,L|310:106,1,70,0|2,0:0|0:0,0:0:0:0:
288,311,18042,2,0,L|218:178,1,140,2|0,0:0|0:0,0:0:0:0:
171,68,18526,5,2,0:0:0:0:
93,164,18687,1,2,0:0:0:0:
297,83,18849,2,0,L|383:207,1,140,2|2,0:0|0:0,0:0:0:0:
311,263,19332,1,2,0:0:0:0:
215,64,19494,1,8,0:2:0:0:
131,308,19655,1,8,0:2:0:0:
337,67,20779,6,0,P|378:137|380:198,1,140,6|8,1:2|0:0,0:0:0:0:
265,176,21262,1,0,0:0:0:0:
103,109,21424,1,0,1:2:0:0:
263,33,21585,1,0,1:2:0:0:
154,215,21746,2,0,P|113:262|83:343,2,140,10|2|10,0:0|1:2|0:0,0:0:0:0:
240,109,22553,5,0,1:2:0:0:
394,63,22714,2,0,P|390:120|374:150,1,70,2|0,0:0|1:2,0:0:0:0:
466,221,23037,2,0,P|453:266|426:299,1,70,10|2,0:0|0:0,0:0:0:0:
287,319,23359,2,0,P|241:264|256:185,1,140,2|8,1:2|0:0,0:0:0:0:
436,140,23843,2,0,P|466:215|460:281,1,140,2|0,1:2|1:2,0:0:0:0:
241,313,24327,2,0,P|311:324|384:304,1,140,10|2,0:0|0:0,0:0:0:0:
332,197,24811,5,2,1:2:0:0:
254,78,24972,1,8,0:2:0:0:
222,214,25133,1,2,1:2:0:0:
324,119,25295,1,2,0:0:0:0:
202,188,25456,1,2,1:2:0:0:
319,265,25617,2,0,P|358:219|361:191,1,70,10|2,0:0|0:0,0:0:0:0:
256,123,25940,6,0,P|196:103|114:135,2,140,4|8|2,1:2|0:0|1:2,0:0:0:0:
153,228,26746,2,0,L|112:294,1,70,0|8,1:2|0:0,0:0:0:0:
252,256,27069,1,0,0:0:0:0:
350,152,27230,2,0,L|365:254,1,70,2|0,0:0|1:2,0:0:0:0:
411,92,27553,2,0,L|429:166,1,70,10|0,0:0|0:0,0:0:0:0:
328,60,27875,2,0,L|248:68,1,70,2|0,0:0|1:2,0:0:0:0:
185,185,28198,5,8,0:0:0:0:
119,310,28359,1,0,0:0:0:0:
318,232,28520,2,0,P|271:129|237:86,1,140,6|10,1:2|0:0,0:0:0:0:
101,49,29004,2,0,P|67:125|53:193,1,140,6|10,1:2|0:0,0:0:0:0:
230,140,29488,2,0,P|286:216|276:274,1,140,6|10,1:2|0:0,0:0:0:0:
439,261,29972,2,0,L|464:118,1,140,4|2,1:2|1:2,0:0:0:0:
114,233,30456,5,10,0:0:0:0:
342,64,30617,1,10,0:0:0:0:
342,119,30940,5,2,0:0:0:0:
342,119,31101,2,0,P|365:233|282:285,1,209.999993591309,2|0,0:0|0:0,0:0:0:0:
259,173,32069,2,0,P|185:169|171:184,1,83.9999974365235,2|2,0:0|0:0,0:0:0:0:
160,283,32714,1,2,0:0:0:0:
262,60,33037,1,2,0:0:0:0:
301,143,33198,2,0,P|256:157|220:147,1,83.9999974365235,2|0,0:0|0:0,0:0:0:0:
262,60,33682,2,0,P|132:66|77:164,1,251.999992309571,2|2,0:0|0:0,0:0:0:0:
186,138,34811,6,0,L|268:334,1,209.999993591309,2|0,0:0|0:0,0:0:0:0:
385,289,35940,2,0,L|405:242,1,41.9999987182618,2|0,0:0|0:0,0:0:0:0:
479,121,36262,2,0,L|493:62,1,41.9999987182618,2|0,0:0|0:0,0:0:0:0:
328,106,36585,2,0,L|292:78,1,41.9999987182618,2|0,0:0|0:0,0:0:0:0:
219,268,36908,2,0,L|291:220,2,83.9999974365235,2|2|2,0:0|0:0|0:0,0:0:0:0:
178,58,37875,2,0,L|142:147,1,83.9999974365235,2|2,0:0|0:0,0:0:0:0:
344,66,38520,1,2,0:0:0:0:
369,278,38843,2,0,B|310:195|247:169|137:184,1,251.999992309571,2|2,0:0|0:0,0:0:0:0:
229,281,39972,6,0,P|159:306|136:300,1,83.9999974365235,2|0,0:0|0:0,0:0:0:0:
132,182,40456,6,0,L|98:136,2,41.9999987182618
206,115,40940,2,0,L|213:57,2,41.9999987182618,0|2|0,0:0|0:0|0:0,0:0:0:0:
299,192,41424,6,0,L|260:330,1,140,6|2,1:2|1:2,0:0:0:0:
174,215,41908,1,0,0:0:0:0:
204,78,42069,2,0,L|341:114,1,140,2|2,1:2|1:2,0:0:0:0:
234,207,42553,1,0,0:0:0:0:
110,272,42714,2,0,L|162:108,1,140,2|2,1:2|1:2,0:0:0:0:
278,201,43198,1,0,0:0:0:0:
448,230,43359,1,2,1:2:0:0:
405,92,43520,1,0,0:0:0:0:
363,219,43682,6,0,L|315:72,2,140,2|2|0,1:2|1:2|1:2,0:0:0:0:
413,113,44488,1,0,0:0:0:0:
458,244,44649,2,0,P|396:279|335:319,1,140,2|2,1:2|1:2,0:0:0:0:
263,197,45133,1,2,0:0:0:0:
306,63,45295,2,0,L|233:130,1,70,0|8,1:2|1:2,0:0:0:0:
152,85,45617,5,8,0:0:0:0:
78,224,45778,1,2,3:3:0:0:
209,168,45940,1,8,0:0:0:0:
145,300,46101,1,0,1:1:0:0:
237,186,46262,1,2,1:2:0:0:
425,93,46585,6,0,L|378:250,1,140,6|2,1:2|0:0,0:0:0:0:
279,231,47069,1,0,1:2:0:0:
177,72,47230,1,10,0:0:0:0:
75,211,47391,2,0,P|143:176|210:192,1,140,2|10,1:2|0:0,0:0:0:0:
143,297,47875,1,2,1:2:0:0:
259,95,48037,2,0,P|339:155|351:209,1,140,8|0,0:0|1:2,0:0:0:0:
257,189,48520,5,10,0:0:0:0:
446,46,48843,1,2,1:2:0:0:
432,322,49166,2,0,P|350:272|338:226,1,140,2|2,1:2|0:2,1:2:0:0:
423,216,49649,1,0,1:2:0:0:
239,314,49811,1,8,0:0:0:0:
362,174,49972,2,0,P|311:121|243:125,1,140,0|0,1:2|1:2,0:0:0:0:
101,258,50456,5,8,2:2:0:0:
213,77,50671,1,8,2:2:0:0:
302,250,50886,1,0,1:0:0:0:
393,88,51101,1,0,1:0:0:0:
414,136,51585,5,2,0:0:0:0:
422,153,51746,2,0,P|438:227|414:295,1,140,6|8,1:2|0:0,0:0:0:0:
178,231,52391,1,2,0:0:0:0:
278,101,52553,1,0,1:0:0:0:
151,198,52714,1,10,0:0:0:0:
303,189,52875,2,0,P|302:245|323:274,1,70,2|0,1:2|0:0,0:0:0:0:
410,154,53198,5,0,1:2:0:0:
338,336,53359,2,0,P|255:305|229:251,1,140,10|2,0:0|0:0,0:0:0:0:
126,223,53843,2,0,P|183:183|202:113,1,140,2|2,1:2|1:2,0:0:0:0:
100,36,54327,2,0,P|54:96|74:170,1,140,2|8,1:2|0:0,0:0:0:0:
194,115,54811,1,0,0:0:0:0:
130,255,54972,2,0,L|97:321,1,70,0|0,1:0|1:0,0:0:0:0:
219,255,55295,1,10,0:0:0:0:
273,142,55456,6,0,P|329:214|325:288,1,140,2|0,1:2|1:2,0:0:0:0:
425,63,55940,2,0,L|435:132,1,70,8|0,0:0|0:0,0:0:0:0:
436,268,56262,2,0,L|380:205,1,70,0|0,1:2|1:2,0:0:0:0:
257,306,56585,2,0,L|324:154,1,140,10|2,0:0|1:2,0:0:0:0:
189,175,57069,1,0,1:2:0:0:
320,65,57230,2,0,P|256:60|237:71,1,70,10|0,0:0|1:2,0:0:0:0:
285,146,57553,6,0,P|344:153|365:144,1,70,2|0,0:0|1:2,0:0:0:0:
268,226,57875,2,0,P|270:269|282:306,1,70,10|0,0:0|0:0,0:0:0:0:
199,173,58198,2,0,P|169:142|149:102,1,70,2|0,1:2|1:2,0:0:0:0:
257,78,58520,1,10,0:0:0:0:
287,206,58682,2,0,P|268:247|232:275,1,70,0|2,1:2|0:0,0:0:0:0:
124,114,59004,1,0,1:2:0:0:
99,306,59166,2,0,P|165:292|180:274,1,70,10|0,0:0|0:0,0:0:0:0:
118,208,59488,6,0,P|52:153|43:91,2,140,2|8|0,1:2|0:0|1:0,0:0:0:0:
147,101,60295,1,0,1:0:0:0:
281,165,60456,1,10,2:2:0:0:
263,47,60617,2,0,L|219:129,1,70,2|0,1:2|0:0,0:0:0:0:
160,176,60940,2,0,L|204:259,1,70,0|8,1:0|0:0,0:0:0:0:
285,293,61262,2,0,L|262:370,1,70,0|0,1:0|0:0,0:0:0:0:
272,205,61585,2,0,L|306:144,1,70,0|10,1:0|0:0,0:0:0:0:
202,68,61908,5,0,1:2:0:0:
140,172,62069,1,6,1:2:0:0:
304,65,62230,5,0,0:0:0:0:
389,144,62391,2,0,P|389:199|380:229,1,70,10|0,0:0|0:0,0:0:0:0:
475,123,62714,2,0,P|470:71|478:39,1,70,2|0,1:2|1:2,0:0:0:0:
476,204,63037,2,0,P|476:263|471:284,1,70,10|0,0:0|1:0,0:0:0:0:
369,315,63359,2,0,P|318:316|294:305,2,70,2|0|10,0:0|1:0|0:2,0:0:0:0:
313,197,63843,1,0,1:0:0:0:
217,202,64004,6,0,P|186:168|172:131,1,70,2|0,0:0|1:0,0:0:0:0:
68,54,64327,2,0,P|88:98|90:128,1,70,10|0,0:2|0:0,0:0:0:0:
67,237,64649,2,0,P|180:163|315:210,1,280,2|0,1:2|1:0,1:0:0:0:
187,268,65456,1,2,1:2:0:0:
217,59,65617,1,10,0:0:0:0:
283,169,65778,2,0,P|198:154|138:183,1,140,2|0,1:2|1:0,1:0:0:0:
79,261,66262,6,0,L|35:194,1,70,8|0,0:0|0:0,0:0:0:0:
156,232,66585,2,0,L|201:290,1,70,0|0,1:2|1:2,0:0:0:0:
173,148,66908,2,0,P|230:106|297:116,1,140,10|2,0:2|1:2,0:0:0:0:
261,206,67391,1,0,1:0:0:0:
265,311,67553,2,0,P|341:268|357:206,1,140,10|2,0:0|1:2,0:0:0:0:
309,140,68037,1,0,1:0:0:0:
302,46,68198,6,0,P|346:60|360:80,1,70,10|2,0:0|1:2,0:0:0:0:
332,238,68520,2,0,P|377:189|377:171,1,70,2|0,0:0|1:0,0:0:0:0:
426,78,68843,1,10,0:0:0:0:
457,198,69004,2,0,L|462:270,1,70,0|2,0:0|1:2,0:0:0:0:
359,165,69327,1,0,1:0:0:0:
381,334,69488,2,0,L|334:267,1,70,10|0,0:0|0:0,0:0:0:0:
204,313,69811,2,0,P|240:218|277:162,1,140,6|8,1:2|0:0,0:0:0:0:
314,89,70295,5,8,0:0:0:0:
349,233,70456,1,8,0:0:0:0:
229,159,70617,5,8,0:0:0:0:
176,317,70778,1,8,0:0:0:0:
161,88,70940,1,8,0:0:0:0:
334,251,71101,1,8,0:0:0:0:
99,207,71262,1,8,0:0:0:0:
261,68,71424,1,8,0:0:0:0:
259,313,71585,1,8,0:0:0:0:
142,62,71746,2,0,L|209:125,1,70,10|10,0:0|2:0,0:0:0:0:
224,141,72069,5,6,2:3:0:0:
266,177,72230,1,4,0:3:0:0:
309,211,72391,1,6,1:2:0:0:
302,51,76908,5,8,0:0:0:0:
211,342,77069,1,0,1:2:0:0:
151,317,77391,5,0,1:2:0:0:
130,103,77553,1,6,1:2:0:0:
180,97,77875,1,2,1:2:0:0:
225,89,78198,1,2,1:2:0:0:
369,89,78520,5,2,1:2:0:0:
369,199,78682,1,2,0:0:0:0:
365,315,78843,1,2,1:2:0:0:
314,298,79166,1,2,1:2:0:0:
187,235,79327,5,8,0:0:0:0:
187,235,79408,1,8,0:0:0:0:
187,235,79488,1,8,0:0:0:0:
327,79,79649,1,0,1:2:0:0:
168,63,79811,1,2,1:2:0:0:
286,220,79972,1,0,1:2:0:0:
415,84,80133,2,0,L|449:222,1,140,6|2,1:2|1:2,1:2:0:0:
435,263,80778,5,8,2:3:0:0:
374,322,80940,1,4,2:3:0:0:
292,316,81101,1,2,1:2:0:0:
221,270,81262,1,0,1:2:0:0:
222,189,81424,1,2,1:2:0:0:
283,78,81585,5,8,0:0:0:0:
283,78,81666,1,8,0:0:0:0:
283,78,81746,1,10,0:0:0:0:
108,109,81908,5,8,2:3:0:0:
108,109,81988,1,4,2:3:0:0:
108,109,82069,1,4,1:2:0:0:
112,268,82230,5,0,1:2:0:0:
131,242,82310,1,0,1:2:0:0:
155,220,82391,1,2,1:2:0:0:
184,204,82471,1,0,1:2:0:0:
215,194,82552,1,2,1:2:0:0:
247,191,82633,1,0,1:2:0:0:
282,194,82714,6,0,P|332:206|389:270,1,140,4|8,1:2|0:0,0:0:0:0:
245,308,83198,5,0,0:0:0:0:
128,121,83359,1,0,1:0:0:0:
346,68,83520,2,0,P|374:104|377:141,1,70,0|8,1:0|0:0,0:0:0:0:
189,229,83843,1,0,1:2:0:0:
189,229,83924,1,0,1:2:0:0:
189,229,84004,6,0,P|181:177|187:158,1,70,4|0,1:2|1:0,0:0:0:0:
262,58,84327,1,8,0:0:0:0:
347,259,84488,1,0,1:0:0:0:
136,218,84649,1,8,0:0:0:0:
361,83,84811,1,0,1:0:0:0:
257,326,84972,1,8,0:0:0:0:
155,100,85133,1,0,1:0:0:0:
387,187,85295,2,0,P|392:257|363:322,1,140,4|0,1:2|1:0,1:0:0:0:
115,50,85778,6,0,P|84:114|78:201,1,140,12|0,0:0|1:2,0:0:0:0:
400,54,86262,2,0,P|437:121|438:188,1,140,12|8,0:0|0:0,0:0:0:0:
254,52,86746,1,8,0:0:0:0:
226,98,86908,5,2,0:0:0:0:
62,330,87230,1,2,0:0:0:0:
425,73,87553,1,2,0:0:0:0:
322,320,87875,2,0,P|266:255|253:199,1,140,6|10,1:2|0:0,0:0:0:0:
313,111,88359,5,0,0:0:0:0:
438,142,88520,2,0,L|486:74,1,70,2|0,1:2|1:2,0:0:0:0:
422,259,88843,2,0,L|385:326,1,70,10|0,0:0|0:0,0:0:0:0:
328,169,89166,2,0,L|266:110,2,70,2|0|10,1:2|0:0|0:0,0:0:0:0:
217,225,89649,1,0,0:0:0:0:
197,58,89811,2,0,L|205:138,1,70,2|0,1:2|1:2,0:0:0:0:
69,296,90133,2,0,L|152:250,1,70,10|0,0:0|0:0,0:0:0:0:
342,95,90456,2,0,P|376:187|376:254,1,140,2|8,1:2|0:0,0:0:0:0:
165,96,90940,2,0,P|119:169|105:237,1,140,2|0,1:2|1:0,0:0:0:0:
188,112,91424,5,8,0:0:0:0:
186,98,91746,5,0,1:2:0:0:
191,291,91908,1,0,1:2:0:0:
72,164,92069,1,10,0:0:0:0:
264,195,92230,1,0,0:0:0:0:
97,257,92391,1,2,1:2:0:0:
177,101,92553,1,0,1:2:0:0:
357,164,92714,2,0,P|371:204|369:244,1,70,10|0,0:0|0:0,0:0:0:0:
324,79,93037,6,0,P|302:41|279:20,1,70,2|0,1:2|0:0,0:0:0:0:
358,227,93359,2,0,P|370:272|387:298,1,70,10|0,0:0|0:0,0:0:0:0:
209,120,93682,2,0,P|151:106|119:86,1,70,2|0,1:2|1:2,0:0:0:0:
250,215,94004,2,0,P|235:266|257:348,2,140,10|2|10,0:0|1:2|0:0,0:0:0:0:
159,235,94811,6,0,L|116:304,1,70,0|2,1:2|0:0,0:0:0:0:
59,130,95133,2,0,P|39:177|45:205,1,70,0|10,1:2|0:0,0:0:0:0:
136,61,95456,1,0,0:0:0:0:
208,170,95617,2,0,P|233:78|210:20,1,140,2|10,1:2|0:2,0:0:0:0:
138,255,96101,5,0,1:2:0:0:
289,66,96262,1,2,0:0:0:0:
159,261,96424,1,0,1:2:0:0:
346,184,96585,1,10,0:0:0:0:
139,68,96746,2,0,L|229:175,1,140,2|0,1:2|1:2,0:0:0:0:
245,199,97149,1,0,1:2:0:0:
268,225,97230,5,10,0:0:0:0:
449,44,97391,1,0,1:2:0:0:
449,44,97472,1,0,1:2:0:0:
449,44,97553,2,0,L|400:105,1,70,10|0,0:0|1:2,0:0:0:0:
394,319,97875,2,0,P|351:243|305:191,1,140,10|6,0:0|1:2,0:0:0:0:
183,122,98359,5,0,0:0:0:0:
94,67,98520,2,0,L|22:125,1,70,10|0,0:0|0:0,0:0:0:0:
224,41,98843,2,0,P|284:23|304:26,1,70,2|0,1:2|1:2,0:0:0:0:
129,154,99166,1,10,0:0:0:0:
201,303,99327,1,0,0:0:0:0:
102,177,99488,2,0,P|46:185|23:205,1,70,2|0,1:2|0:0,1:2:0:0:
177,324,99811,6,0,P|208:293|222:262,1,70,10|0,0:2|0:0,0:0:0:0:
266,126,100133,1,2,1:2:0:0:
128,254,100295,1,0,1:2:0:0:
302,125,100456,2,0,P|348:157|353:186,1,70,10|0,0:0|0:0,0:0:0:0:
242,231,100778,2,0,P|183:198|157:131,1,140,2|8,1:2|0:0,0:0:0:0:
344,235,101262,2,0,P|403:202|429:135,1,140,2|0,1:2|1:0,0:0:0:0:
387,50,101746,5,8,0:0:0:0:
350,97,102069,1,0,1:0:0:0:
246,270,102230,1,8,0:0:0:0:
246,270,102311,1,8,0:0:0:0:
246,270,102391,5,8,0:0:0:0:
103,162,102553,1,10,0:0:0:0:
330,40,102714,1,10,0:0:0:0:
135,287,102875,1,8,0:0:0:0:
223,58,103037,1,10,0:0:0:0:
367,257,103198,1,10,0:0:0:0:
138,134,105940,6,8,P|195:76|253:58,1,140,4|8,1:2|0:0,0:0:0:0:
274,194,106423,1,0,0:0:0:0:
418,42,106585,1,0,1:2:0:0:
338,43,106746,1,0,1:2:0:0:
419,176,106907,2,0,P|417:234|379:309,2,140,10|2|10,0:0|1:2|0:0,0:0:0:0:
266,85,107714,6,0,L|198:126,1,70,0|2,1:2|0:0,0:0:0:0:
83,53,108036,2,0,L|50:142,1,70,0|10,1:2|0:0,0:0:0:0:
145,228,108359,1,2,0:0:0:0:
172,89,108520,2,0,P|224:147|245:227,1,140,2|8,1:2|0:2,1:2:0:0:
74,300,109004,2,0,P|45:220|76:166,1,140,2|0,1:2|1:2,0:0:0:0:
266,283,109488,2,0,P|312:227|317:151,1,140,10|2,0:0|0:0,0:0:0:0:
184,198,109972,5,2,1:2:0:0:
258,78,110133,1,8,0:0:0:0:
290,214,110294,1,2,1:2:0:0:
188,119,110456,1,2,1:2:0:0:
310,188,110617,1,2,1:2:0:0:
193,265,110778,2,0,P|154:219|151:191,1,70,10|0,0:0|0:0,0:0:0:0:
275,97,111101,6,0,P|357:81|417:109,2,140,6|8|2,1:2|0:2|0:0,0:0:0:0:
359,228,111907,2,0,L|400:294,1,70,0|10,1:2|0:0,0:0:0:0:
260,256,112230,1,0,0:0:0:0:
166,152,112391,2,0,L|151:254,1,70,2|0,1:2|0:0,0:0:0:0:
75,88,112714,2,0,L|64:166,1,70,10|0,0:0|1:0,0:0:0:0:
184,60,113036,2,0,L|264:68,1,70,2|0,0:0|1:0,0:0:0:0:
327,134,113359,5,10,0:0:0:0:
375,296,113520,1,0,0:0:0:0:
194,232,113681,2,0,P|241:129|275:86,1,140,4|8,1:2|0:0,0:0:0:0:
412,56,114165,2,0,P|446:132|460:200,1,140,4|8,1:2|0:0,0:0:0:0:
300,143,114649,2,0,P|244:219|254:277,1,140,4|8,1:2|0:0,0:0:0:0:
80,256,115133,2,0,L|55:113,1,140,4|0,1:2|1:0,0:0:0:0:
398,233,115617,5,8,0:0:0:0:
170,64,115778,1,8,0:0:0:0:
225,55,116262,5,2,1:2:0:0:
376,286,116585,1,8,0:0:0:0:
232,239,116746,1,0,1:2:0:0:
232,239,116827,1,0,1:2:0:0:
232,239,116908,2,0,P|202:286|178:305,1,70,0|0,1:2|1:2,0:0:0:0:
169,135,117230,1,10,0:0:0:0:
311,165,117391,1,2,0:0:0:0:
165,290,117553,2,0,P|143:254|143:220,1,70,0|0,1:2|0:0,0:0:0:0:
69,155,117875,5,10,0:2:0:0:
175,25,118037,2,0,P|188:73|185:99,1,70,2|2,0:0|0:0,0:0:0:0:
107,282,118359,2,0,P|156:276|192:251,1,70,2|8,1:2|0:0,0:0:0:0:
326,136,118682,2,0,P|296:193|275:208,1,70,0|2,0:0|1:2,0:0:0:0:
231,257,119004,1,0,0:0:0:0:
256,74,119166,2,0,P|302:90|319:116,1,70,8|0,0:2|0:0,0:0:0:0:
360,192,119488,5,0,1:2:0:0:
425,55,119649,1,0,1:2:0:0:
452,292,119811,1,10,0:0:0:0:
417,134,119972,2,0,P|370:118|342:117,1,70,2|0,0:0|1:2,0:0:0:0:
271,252,120295,1,8,2:3:0:0:
271,252,120375,1,4,2:3:0:0:
271,252,120456,1,0,1:2:0:0:
169,94,120617,5,4,2:3:0:0:
326,154,120778,1,0,1:2:0:0:
281,51,120940,1,8,0:0:0:0:
209,198,121101,1,2,1:2:0:0:
242,44,121262,2,0,P|265:109|269:130,1,70,0|2,0:0|1:2,0:0:0:0:
310,278,121585,2,0,P|268:290|230:279,1,70,0|10,0:0|0:2,0:0:0:0:
141,244,121908,1,0,0:0:0:0:
65,99,122069,6,0,P|64:163|72:183,1,70,2|0,1:2|0:0,0:0:0:0:
163,51,122391,1,10,0:0:0:0:
200,210,122553,1,0,0:0:0:0:
245,83,122714,2,0,P|270:140|269:161,1,70,2|0,1:2|1:2,0:0:0:0:
207,319,123037,1,10,0:0:0:0:
81,187,123198,1,8,0:0:0:0:
102,264,123359,2,0,P|146:221|155:203,1,70,2|0,1:2|0:0,0:0:0:0:
195,72,123682,2,0,P|221:101|232:140,1,70,2|0,1:2|0:0,0:0:0:0:
286,253,124004,1,2,1:2:0:0:
403,183,124166,5,0,0:2:0:0:
388,137,124246,1,8,0:0:0:0:
372,94,124327,1,0,1:2:0:0:
192,111,124488,1,8,0:0:0:0:
286,184,124649,1,0,1:2:0:0:
190,246,124811,1,0,1:2:0:0:
190,246,124891,1,8,0:0:0:0:
190,246,124972,1,2,1:2:0:0:
361,243,125133,1,10,0:0:0:0:
272,87,125295,1,0,1:2:0:0:
362,78,125456,6,0,P|352:124|340:144,1,70,8|0,0:0|1:2,0:0:0:0:
207,189,125778,1,4,2:3:0:0:
207,189,125940,2,0,P|233:238|253:253,1,70,0|8,1:2|0:0,0:0:0:0:
330,157,126262,1,2,3:2:0:0:
281,320,126424,1,4,1:3:0:0:
114,273,126585,1,4,1:2:0:0:
114,273,126746,6,0,P|155:300|185:306,1,70,0|10,0:2|0:0,0:0:0:0:
253,223,127069,1,0,0:0:0:0:
169,144,127230,1,2,1:2:0:0:
26,172,127391,2,0,P|68:194|102:186,1,70,0|10,0:0|0:0,0:0:0:0:
107,63,127714,1,0,0:0:0:0:
256,36,127875,2,0,P|243:76|219:109,1,70,2|0,1:2|0:0,0:0:0:0:
161,288,128198,6,0,L|166:218,1,70,10|0,0:0|0:0,0:0:0:0:
354,125,128520,1,2,0:0:0:0:
222,38,128682,2,0,P|208:88|215:132,1,70,2|8,1:2|0:0,0:0:0:0:
286,291,129004,2,0,P|262:246|257:212,1,70,2|2,0:0|1:2,0:0:0:0:
351,85,129327,1,0,0:0:0:0:
434,273,129488,2,0,P|458:238|476:190,1,70,10|0,0:0|0:0,0:0:0:0:
319,179,129811,5,0,1:0:0:0:
121,201,129972,2,0,P|145:157|167:140,1,70,2|10,0:0|0:0,0:0:0:0:
259,280,130295,1,2,0:0:0:0:
358,169,130456,1,0,1:2:0:0:
292,38,130617,1,0,1:2:0:0:
260,78,130698,1,8,0:0:0:0:
228,116,130778,1,0,1:2:0:0:
156,196,130940,5,4,3:0:0:0:
328,256,131101,1,0,1:2:0:0:
265,108,131262,1,8,0:0:0:0:
219,312,131424,1,2,1:2:0:0:
354,151,131585,2,0,P|384:122|417:111,1,70,2|2,0:0|1:2,0:0:0:0:
446,315,131908,2,0,L|415:250,1,70,0|10,0:0|0:0,0:0:0:0:
285,61,132230,2,0,P|252:92|244:121,1,70,0|2,0:0|1:2,0:0:0:0:
354,199,132553,5,0,0:0:0:0:
162,308,132714,2,0,P|140:275|135:239,1,70,10|0,0:0|0:0,0:0:0:0:
144,55,133037,2,0,P|127:90|124:129,1,70,2|0,1:2|0:0,0:0:0:0:
293,177,133359,2,0,P|306:135|305:99,1,70,10|0,0:0|0:0,0:0:0:0:
304,77,133601,1,0,1:2:0:0:
290,42,133682,1,2,1:2:0:0:
165,248,133843,2,0,P|225:277|247:271,1,70,8|2,0:0|1:2,0:0:0:0:
238,52,134166,2,0,P|229:119|241:149,1,70,0|2,0:0|1:2,0:0:0:0:
252,234,134488,5,0,0:0:0:0:
365,75,134649,1,8,0:0:0:0:
448,179,134811,2,0,P|414:248|348:276,1,140,0|0,1:2|1:2,0:0:0:0:
322,208,135295,1,8,0:0:0:0:
230,256,135456,2,0,P|175:242|156:207,1,70,0|4,1:2|1:2,0:0:0:0:
87,176,135778,1,8,0:0:0:0:
88,218,135859,1,8,0:0:0:0:
87,260,135940,5,8,0:0:0:0:
177,90,136101,1,8,0:0:0:0:
336,224,136262,5,10,2:3:0:0:
336,224,136343,1,4,2:3:0:0:
336,224,136424,2,0,L|337:152,1,70,2|2,1:2|1:2,0:0:0:0:
266,87,136746,1,0,1:2:0:0:
206,294,136908,1,6,1:2:0:0:
210,51,141424,5,8,0:0:0:0:
301,342,141585,1,0,1:2:0:0:
381,304,141907,5,0,1:2:0:0:
384,249,141988,1,0,1:2:0:0:
388,197,142069,1,6,1:2:0:0:
332,97,142391,1,2,1:2:0:0:
279,182,142714,1,2,1:2:0:0:
133,228,143036,5,2,1:2:0:0:
292,327,143198,1,0,1:2:0:0:
279,182,143359,1,2,1:2:0:0:
194,300,143682,1,2,1:2:0:0:
340,143,143843,5,8,0:0:0:0:
340,143,143924,1,8,0:0:0:0:
340,143,144004,1,8,0:0:0:0:
158,144,144165,1,8,2:3:0:0:
220,17,144327,1,6,2:3:0:0:
264,209,144488,1,2,1:2:0:0:
76,126,144649,2,0,P|102:213|159:240,1,140,6|2,1:2|1:2,0:0:0:0:
315,287,145294,5,0,1:2:0:0:
348,208,145456,1,0,1:2:0:0:
315,124,145617,1,10,2:3:0:0:
244,84,145778,1,4,2:3:0:0:
165,115,145940,1,2,1:2:0:0:
245,308,146101,5,8,0:0:0:0:
245,308,146182,1,8,0:0:0:0:
245,308,146262,1,10,0:0:0:0:
381,135,146424,5,0,1:2:0:0:
381,135,146504,1,0,1:2:0:0:
381,135,146585,1,0,1:2:0:0:
180,117,146746,1,0,0:0:0:0:
355,287,146908,1,2,1:2:0:0:
316,54,147069,1,2,1:2:0:0:
166,300,147230,2,0,P|127:260|117:218,1,70,4|0,1:2|0:0,0:0:0:0:
135,60,147553,6,0,P|163:97|169:123,1,70,8|0,0:0|0:0,0:0:0:0:
292,285,147875,1,0,1:2:0:0:
346,52,148037,1,0,1:2:0:0:
439,295,148198,2,0,P|434:231|448:209,1,70,8|0,0:0|1:2,0:0:0:0:
285,96,148520,1,12,0:0:0:0:
169,274,148682,1,8,0:0:0:0:
82,181,148843,5,0,1:2:0:0:
104,154,148923,1,0,1:2:0:0:
133,139,149004,1,0,1:2:0:0:
168,132,149084,1,0,1:2:0:0:
206,141,149166,2,0,P|227:152|240:163,1,35,8|0,0:0|0:0,0:0:0:0:
304,210,149327,5,8,0:0:0:0:
324,182,149407,1,0,1:2:0:0:
338,149,149488,1,0,1:2:0:0:
343,115,149568,1,0,1:2:0:0:
339,78,149649,2,0,P|338:48|333:36,2,35,0|0|4,1:2|1:2|0:0,0:0:0:0:
101,147,149972,5,0,1:2:0:0:
192,48,150133,1,8,0:0:0:0:
321,334,150295,2,0,P|334:279|337:253,1,70,4|0,1:2|0:2,0:0:0:0:
354,60,150617,5,8,0:2:0:0:
165,321,150778,2,0,P|141:285|131:255,1,70,4|0,1:2|0:0,0:0:0:0:
157,54,151101,5,8,0:0:0:0:
324,284,151262,1,0,1:2:0:0:
374,281,151424,5,2,0:0:0:0:
239,45,151746,1,2,0:0:0:0:
255,335,152069,1,2,0:0:0:0:
56,164,152391,2,0,P|141:158|194:181,1,140,6|10,1:2|0:0,0:0:0:0:
333,291,152875,5,0,0:0:0:0:
438,242,153037,2,0,L|486:310,1,70,2|0,1:2|1:2,0:0:0:0:
438,118,153359,2,0,L|401:51,1,70,8|0,0:0|0:0,0:0:0:0:
321,197,153682,2,0,L|236:216,2,70,2|0|10,1:2|0:0|0:0,0:0:0:0:
218,104,154165,1,0,1:2:0:0:
197,325,154327,2,0,P|190:277|167:245,1,70,2|0,0:0|1:2,0:0:0:0:
87,74,154649,2,0,P|88:119|121:161,1,70,10|0,0:0|0:0,0:0:0:0:
342,289,154972,2,0,P|376:197|376:130,1,140,2|10,1:2|0:0,0:0:0:0:
165,288,155456,2,0,P|119:215|105:147,1,140,0|0,1:2|1:2,0:0:0:0:
244,192,155940,5,10,0:0:0:0:
206,237,156262,5,0,1:2:0:0:
149,68,156424,1,0,1:2:0:0:
74,264,156585,1,10,0:0:0:0:
269,93,156746,1,0,0:0:0:0:
304,324,156907,1,2,1:2:0:0:
158,178,157069,1,0,1:2:0:0:
413,254,157230,2,0,P|427:214|425:174,1,70,10|0,0:0|0:0,0:0:0:0:
324,305,157553,6,0,P|302:343|279:364,1,70,2|0,1:2|0:0,0:0:0:0:
358,157,157875,2,0,P|370:112|387:86,1,70,10|0,0:2|0:0,0:0:0:0:
209,264,158198,2,0,P|151:278|119:298,1,70,2|0,1:2|1:2,0:0:0:0:
250,169,158520,2,0,P|266:118|250:29,2,140,10|2|10,0:0|1:2|0:0,0:0:0:0:
162,109,159327,6,0,L|119:40,1,70,0|2,1:2|0:2,0:0:0:0:
74,224,159649,2,0,P|54:177|60:149,1,70,0|10,1:2|0:0,0:0:0:0:
111,332,159972,1,0,0:0:0:0:
208,214,160133,2,0,P|233:306|210:364,1,140,2|10,1:2|0:0,0:0:0:0:
138,129,160617,5,0,1:2:0:0:
395,108,160778,1,2,0:0:0:0:
323,270,160940,1,0,1:2:0:0:
273,56,161101,1,10,0:0:0:0:
139,316,161262,2,0,B|183:251|183:251|229:209,1,140,2|0,1:2|1:2,0:0:0:0:
246,184,161665,1,0,1:2:0:0:
274,149,161746,5,10,0:0:0:0:
482,103,161907,1,0,1:2:0:0:
482,103,161988,1,0,1:2:0:0:
482,103,162069,2,0,L|418:149,1,70,8|0,0:0|1:2,0:0:0:0:
394,319,162391,2,0,P|351:243|305:191,1,140,14|2,0:0|1:2,0:0:0:0:
183,262,162875,5,0,0:0:0:0:
94,317,163036,2,0,L|22:259,1,70,10|0,0:0|0:0,0:0:0:0:
224,343,163359,2,0,P|284:361|304:358,1,70,2|0,1:2|1:2,0:0:0:0:
129,230,163682,1,10,0:0:0:0:
201,81,163843,1,0,0:0:0:0:
102,207,164004,2,0,P|46:199|23:179,1,70,2|0,1:2|0:0,0:0:0:0:
138,62,164327,6,0,P|178:79|203:103,1,70,10|0,0:0|0:0,0:0:0:0:
271,252,164649,1,2,1:2:0:0:
138,142,164811,1,0,1:2:0:0:
302,259,164972,2,0,P|348:227|353:198,1,70,10|0,0:0|0:0,0:0:0:0:
242,153,165294,2,0,P|183:186|157:253,1,140,2|10,1:2|0:0,0:0:0:0:
342,149,165778,2,0,P|401:182|427:249,1,140,2|0,1:2|1:2,0:0:0:0:
374,338,166262,5,8,0:0:0:0:
200,247,166424,1,0,1:0:0:0:
346,226,166585,1,0,1:0:0:0:
246,114,166746,1,8,0:0:0:0:
246,114,166827,1,8,0:0:0:0:
246,114,166907,5,8,0:0:0:0:
120,300,167069,1,10,0:0:0:0:
330,344,167230,1,10,0:0:0:0:
135,97,167391,1,10,0:0:0:0:
219,337,167553,1,10,0:0:0:0:
386,94,167714,1,10,0:0:0:0:
172,195,167875,2,0,P|227:241|294:247,1,140,4|2,1:2|0:0,0:0:0:0:
267,112,168359,5,2,1:2:0:0:
412,242,168520,2,0,P|348:279|286:263,1,140,10|2,0:0|1:2,0:0:0:0:
343,141,169004,1,10,0:0:0:0:
391,344,169166,2,0,P|436:321|456:299,1,70,0|0,1:2|0:0,0:0:0:0:
471,183,169488,2,0,P|432:177|397:193,1,70,6|0,0:0|0:0,0:0:0:0:
255,278,169811,5,10,0:0:0:0:
220,275,169891,1,8,0:0:0:0:
186,265,169972,1,10,0:0:0:0:
158,245,170052,1,8,0:0:0:0:
138,216,170133,1,10,0:0:0:0:
131,182,170214,1,8,0:0:0:0:
136,148,170294,1,10,0:0:0:0:
150,116,170375,1,8,0:0:0:0:
172,83,170456,2,0,P|211:52|251:41,1,70,4|0,1:2|0:0,0:0:0:0:
333,82,170778,5,8,0:2:0:0:
338,243,170940,2,0,P|305:281|259:289,1,70,0|0,1:2|0:0,0:0:0:0:
123,267,171262,5,8,0:0:0:0:
112,81,171424,2,0,P|177:81|195:96,1,70,0|0,1:2|0:0,0:0:0:0:
254,188,171746,5,8,1:2:0:0:
314,134,171908,1,8,1:2:0:0:
331,206,172069,1,8,1:2:0:0:
183,125,172230,1,8,1:2:0:0:
364,64,172391,1,8,1:2:0:0:
402,260,172553,1,8,1:2:0:0:
217,304,172714,1,8,1:2:0:0:
271,61,172875,1,8,1:2:0:0:
469,161,173037,2,0,P|476:200|468:230,1,70,4|0,1:2|0:0,0:0:0:0:
313,309,173359,5,8,0:0:0:0:
117,217,173520,2,0,P|105:261|113:295,1,70,0|0,1:2|0:0,0:0:0:0:
224,99,173843,5,8,0:0:0:0:
45,167,174004,2,0,P|23:130|27:92,1,70,0|0,1:2|0:0,0:0:0:0:
132,61,174327,5,0,1:2:0:0:
124,97,174488,1,4,2:3:0:0:
150,129,174649,1,0,1:2:0:0:
181,135,174811,1,4,2:3:0:0:
214,121,174972,5,0,1:2:0:0:
246,110,175052,1,0,1:2:0:0:
281,112,175133,1,0,1:2:0:0:
313,125,175213,1,0,1:2:0:0:
340,148,175294,1,0,1:2:0:0:
359,177,175375,1,0,1:2:0:0:
372,210,175455,1,0,1:2:0:0:
377,244,175536,1,0,1:2:0:0:
375,278,175617,2,0,P|365:314|346:341,1,70,4|0,1:2|0:0,0:0:0:0:
174,254,175940,5,8,0:0:0:0:
292,66,176101,2,0,P|326:107|328:130,1,70,0|0,1:2|0:0,0:0:0:0:
126,111,176424,5,8,0:0:0:0:
312,307,176585,2,0,P|322:266|321:229,2,70,0|0|0,1:2|0:0|0:0,0:0:0:0:
292,99,177069,5,0,1:2:0:0:
434,220,177230,1,0,1:2:0:0:
178,163,177391,1,8,0:0:0:0:
436,116,177553,1,2,1:2:0:0:
154,249,177714,1,8,0:0:0:0:
433,303,177875,1,8,0:2:0:0:
282,88,178037,1,8,0:0:0:0:
297,326,178198,5,10,0:0:0:0:
386,59,178359,1,8,0:0:0:0:
160,213,178520,1,8,0:0:0:0:
438,244,178682,1,10,0:0:0:0:
217,73,178843,1,10,0:0:0:0:
310,330,179004,1,0,1:2:0:0:
434,79,179166,1,10,0:0:0:0:
200,162,179327,1,0,1:2:0:0:
399,281,179488,2,0,P|440:269|470:239,1,70,10|0,0:0|1:2,0:0:0:0:
251,301,179811,1,2,1:2:0:0:
88,202,179972,1,8,0:0:0:0:
52,90,180133,5,0,1:2:0:0:
84,78,180213,1,8,0:0:0:0:
119,74,180294,1,8,0:0:0:0:
154,79,180374,1,8,0:0:0:0:
186,93,180455,1,8,0:0:0:0:
213,114,180536,1,8,0:0:0:0:
235,141,180616,1,8,0:0:0:0:
249,173,180697,1,8,0:0:0:0:
256,207,180778,1,4,1:2:0:0:
374,64,181101,6,0,L|432:202,1,140,10|2,0:0|1:2,0:0:0:0:
323,280,181585,1,0,1:2:0:0:
159,295,181746,2,0,P|180:254|210:227,1,70,10|0,0:0|0:0,0:0:0:0:
259,317,182069,1,0,1:2:0:0:
105,211,182230,1,0,0:0:0:0:
282,133,182391,1,8,0:0:0:0:
182,57,182553,2,0,P|109:74|62:138,1,140,2|0,1:2|1:2,0:0:0:0:
226,187,183037,2,0,P|258:222|268:249,1,70,10|0,0:0|0:0,0:0:0:0:
149,254,183359,2,0,P|110:203|109:167,1,70,0|0,1:2|0:0,0:0:0:0:
171,117,183682,6,0,P|221:55|275:30,1,140,10|2,0:0|1:2,0:0:0:0:
295,151,184166,2,0,P|289:205|271:241,1,70,0|10,1:2|0:0,0:0:0:0:
386,129,184488,2,0,P|402:87|431:58,1,70,0|2,0:0|1:2,0:0:0:0:
396,230,184811,1,0,0:0:0:0:
294,97,184972,1,8,0:0:0:0:
453,77,185133,2,0,P|468:146|468:217,1,140,2|0,1:2|1:2,0:0:0:0:
297,320,185617,2,0,P|334:280|368:263,1,70,10|0,0:0|0:0,0:0:0:0:
255,233,185940,2,0,P|224:217|186:216,1,70,0|0,1:2|0:0,0:0:0:0:
90,321,186262,6,0,P|48:267|36:195,1,140,10|2,0:0|1:2,0:0:0:0:
151,237,186746,1,0,1:2:0:0:
217,162,186908,2,0,P|258:203|269:236,1,70,10|0,0:0|0:0,0:0:0:0:
111,144,187230,2,0,P|65:132|37:108,1,70,2|0,1:2|0:0,0:0:0:0:
162,28,187553,2,0,P|171:70|166:104,1,70,10|0,0:0|1:2,0:0:0:0:
157,276,187875,2,0,P|167:229|161:197,1,70,2|0,0:0|1:2,0:0:0:0:
276,247,188198,2,0,P|272:291|287:328,1,70,10|0,0:0|0:0,0:0:0:0:
268,100,188520,2,0,P|174:78|107:107,1,140,2|8,1:2|0:0,0:0:0:0:
244,284,189004,1,2,0:0:0:0:
244,284,189166,2,0,P|338:306|405:277,1,140,2|8,1:2|0:0,0:0:0:0:
339,138,189649,5,0,0:0:0:0:
422,183,189811,2,0,P|434:141|426:101,1,70,2|0,1:2|0:0,0:0:0:0:
332,239,190133,1,8,0:0:0:0:
212,130,190295,1,0,1:2:0:0:
225,276,190456,1,2,0:0:0:0:
289,128,190617,1,0,1:2:0:0:
179,256,190778,2,0,P|137:236|122:207,1,70,8|0,0:0|0:0,0:0:0:0:
255,51,191101,1,4,1:2:0:0:
79,73,191424,6,0,P|64:122|67:148,1,70,10|0,0:0|1:0,0:0:0:0:
149,166,191746,2,0,P|150:210|163:236,1,70,10|0,0:0|0:0,0:0:0:0:
247,189,192069,2,0,P|249:151|260:114,1,70,2|8,1:2|0:0,0:0:0:0:
339,108,192391,6,0,P|350:71|368:41,1,70,2|0,1:2|0:0,0:0:0:0:
422,197,192714,1,0,1:2:0:0:
351,323,192875,2,0,L|311:260,1,70,2|8,0:0|0:0,0:0:0:0:
229,342,193198,1,0,1:2:0:0:
183,250,193359,2,0,P|146:258|122:285,1,70,2|0,0:0|0:0,0:0:0:0:
235,90,193682,1,0,1:2:0:0:
433,73,194004,6,0,P|448:122|445:148,1,70,2|0,0:0|1:2,0:0:0:0:
363,166,194326,2,0,P|362:210|349:236,1,70,10|0,0:0|0:0,0:0:0:0:
265,189,194649,2,0,P|263:151|252:114,1,70,2|8,1:2|0:0,0:0:0:0:
161,96,194972,6,0,P|150:59|132:29,1,70,2|0,1:2|0:0,0:0:0:0:
81,150,195295,2,0,P|46:193|41:227,1,70,2|0,1:2|0:0,0:0:0:0:
180,231,195617,2,0,P|203:286|203:311,1,70,10|0,0:0|1:2,0:0:0:0:
309,130,195940,2,0,P|322:92|348:50,1,70,2|0,0:0|0:0,0:0:0:0:
414,236,196262,1,0,1:2:0:0:
416,125,196585,6,0,P|429:73|447:52,1,70,2|0,0:0|1:2,0:0:0:0:
335,206,196908,2,0,P|337:245|348:291,1,70,10|0,0:0|0:0,0:0:0:0:
233,170,197230,2,0,P|240:131|232:96,1,70,2|8,1:2|0:0,0:0:0:0:
126,92,197553,2,0,P|133:48|154:20,1,70,2|0,1:2|0:0,0:0:0:0:
69,189,197875,2,0,P|65:237|69:268,1,70,2|0,1:2|0:0,0:0:0:0:
170,280,198198,2,0,P|174:319|192:347,1,70,10|0,0:0|1:2,0:0:0:0:
258,187,198520,2,0,P|256:137|243:117,1,70,2|0,1:2|0:0,0:0:0:0:
319,65,198843,6,0,B|408:29|475:95|475:95|455:201|343:177,2,335.999989746094,2|0|0,1:2|0:0|1:2,0:0:0:0:
132,208,201746,5,2,0:0:0:0:
182,279,201908,1,0,1:2:0:0:
237,77,202069,1,10,0:0:0:0:
310,194,202391,5,2,1:2:0:0:
369,60,202553,1,8,0:0:0:0:
406,245,202714,1,2,1:2:0:0:
391,245,203037,1,2,1:2:0:0:
262,55,203359,1,10,0:0:0:0:
227,101,203520,1,0,1:2:0:0:
93,58,203843,1,8,0:0:0:0:
110,107,204004,1,2,1:2:0:0:
140,334,204488,5,0,1:2:0:0:
207,120,204649,1,10,0:0:0:0:
306,220,204972,5,0,1:2:0:0:
369,108,205133,1,8,0:0:0:0:
446,314,205295,5,8,1:2:0:0:
76,79,205456,1,8,1:2:0:0:
272,180,205778,1,0,1:2:0:0:
234,338,205939,1,10,0:0:0:0:
241,36,206101,1,8,0:0:0:0:
456,223,206585,6,0,P|399:222|370:207,1,70,6|0,1:2|0:0,0:0:0:0:
293,101,206908,2,0,P|269:131|252:162,1,70,10|0,0:0|0:0,0:0:0:0:
139,89,207230,5,2,1:2:0:0:
158,302,207391,1,0,1:2:0:0:
42,170,207553,1,8,0:0:0:0:
253,158,207714,2,0,P|264:192|254:227,1,70,2|2,0:0|1:2,0:0:0:0:
397,305,208037,2,0,P|400:267|411:233,1,70,0|10,0:0|0:0,0:0:0:0:
334,33,208359,2,0,P|312:75|302:110,1,70,0|2,0:0|1:2,0:0:0:0:
215,261,208682,2,0,P|194:230|163:198,1,70,0|10,1:2|0:0,0:0:0:0:
68,279,209004,1,0,0:0:0:0:
112,46,209166,2,0,P|172:94|200:154,1,140,2|8,1:2|0:0,0:0:0:0:
464,142,209649,6,0,P|395:209|371:262,1,140,2|0,1:2|1:2,0:0:0:0:
146,99,210133,2,0,L|197:162,1,70,8|0,0:0|0:0,0:0:0:0:
258,242,210456,1,0,1:2:0:0:
310,69,210617,1,0,0:0:0:0:
367,247,210778,2,0,P|400:201|412:171,1,70,10|0,0:0|0:0,0:0:0:0:
213,134,211101,2,0,P|260:112|294:115,1,70,2|0,1:2|1:2,0:0:0:0:
289,319,211424,2,0,P|248:331|217:330,1,70,10|0,0:0|0:0,0:0:0:0:
62,189,211746,2,0,P|84:257|132:306,1,140,2|8,1:2|0:0,0:0:0:0:
219,97,212230,5,0,0:0:0:0:
219,97,212391,2,0,P|186:59|151:47,1,70,2|0,1:2|1:2,0:0:0:0:
278,246,212714,2,0,P|309:275|338:291,1,70,10|0,0:0|0:0,0:0:0:0:
378,95,213037,2,0,P|402:65|436:45,1,70,2|0,1:2|0:0,0:0:0:0:
401,200,213359,1,8,0:0:0:0:
298,72,213520,1,0,0:0:0:0:
247,217,213682,2,0,L|224:285,1,70,2|0,1:2|1:2,1:2:0:0:
97,80,214004,2,0,P|130:49|160:41,1,70,10|0,0:0|0:0,0:0:0:0:
123,263,214327,2,0,P|82:255|18:184,1,140,2|8,1:2|0:0,0:0:0:0:
137,154,214811,5,0,1:2:0:0:
229,71,214972,2,0,L|243:143,1,70,2|0,0:0|1:2,0:0:0:0:
270,332,215295,1,10,0:0:0:0:
147,233,215456,1,2,1:2:0:0:
371,146,215617,2,0,P|380:187|376:225,1,70,0|0,1:2|1:2,0:0:0:0:
255,67,215940,5,10,0:0:0:0:
337,294,216101,1,8,0:3:0:0:
129,222,216262,1,10,0:0:0:0:
344,98,216424,1,0,1:2:0:0:
226,324,216585,1,14,0:0:0:0:
161,98,216746,1,0,1:2:0:0:
374,233,216908,2,4,P|404:180|407:161,1,70,4|0,1:2|0:0,1:2:0:0:
277,56,217230,6,0,P|219:42|199:44,1,70,10|0,0:0|0:0,0:0:0:0:
200,248,217553,2,0,P|251:259|289:250,1,70,2|0,1:2|1:2,0:0:0:0:
139,92,217875,1,8,0:0:0:0:
70,298,218037,1,2,0:0:0:0:
70,298,218198,2,0,P|85:240|85:214,1,70,2|0,1:2|0:0,0:0:0:0:
136,64,218520,2,0,P|84:81|60:104,1,70,10|0,0:0|0:0,0:0:0:0:
201,203,218843,2,0,P|213:274|187:345,1,140,0|10,1:2|0:0,0:0:0:0:
298,230,219327,5,0,0:0:0:0:
369,124,219488,2,0,P|384:194|406:258,1,140,2|8,1:2|0:0,0:0:0:0:
442,330,219972,1,2,0:0:0:0:
298,186,220133,2,0,P|280:225|245:268,1,70,0|0,1:2|1:2,0:0:0:0:
95,114,220456,2,0,P|99:153|115:184,1,70,8|0,0:0|0:0,0:0:0:0:
256,64,220778,1,4,1:2:0:0:
272,100,221101,5,8,1:2:0:0:
366,185,221262,1,10,1:2:0:0:
243,220,221424,1,10,1:2:0:0:
333,117,221585,1,8,1:2:0:0:
311,247,221746,1,10,1:2:0:0:
224,140,221908,1,10,1:2:0:0:
310,80,222069,5,8,1:2:0:0:
404,291,222230,1,8,1:2:0:0:
148,216,222391,1,10,1:2:0:0:
408,113,222553,1,10,1:2:0:0:
281,324,222714,1,10,1:2:0:0:
172,85,222875,1,10,1:2:0:0:
414,183,223037,1,10,1:2:0:0:
160,311,223198,1,10,1:2:0:0:
307,40,223359,1,8,1:2:0:0:
364,263,223520,1,8,0:0:0:0:
364,263,223601,5,0,1:2:0:0:
364,263,223682,1,10,0:0:0:0:
244,190,223843,2,0,L|205:159,1,35,10|0,0:0|0:0,0:0:0:0:
116,269,224166,2,0,L|93:297,1,35,10|0,0:0|0:0,0:0:0:0:
101,97,224488,2,0,L|82:63,1,35,10|0,0:0|0:0,0:0:0:0:
147,71,224649,6,0,P|106:141|104:202,1,140,4|8,1:2|0:0,0:0:0:0:
298,234,225132,1,0,0:0:0:0:
418,42,225294,1,0,1:2:0:0:
287,81,225455,1,0,1:2:0:0:
438,192,225617,2,0,P|455:247|444:331,2,140,10|2|10,0:0|1:2|0:0,0:0:0:0:
145,228,226424,5,0,0:0:0:0:
218,134,226585,2,0,P|232:94|220:47,1,70,2|0,1:2|1:2,0:0:0:0:
83,53,226908,2,0,P|60:91|51:138,1,70,10|0,0:0|0:0,0:0:0:0:
204,323,227230,2,0,P|132:339|65:319,1,140,2|8,1:2|0:0,0:0:0:0:
77,127,227714,2,0,P|149:111|216:131,1,140,2|0,1:2|1:2,0:0:0:0:
302,298,228197,2,0,P|316:226|285:157,1,140,10|2,0:0|0:0,0:0:0:0:
184,198,228681,5,0,1:2:0:0:
258,78,228843,1,8,0:0:0:0:
290,214,229003,1,2,1:2:0:0:
188,119,229165,1,2,0:0:0:0:
310,188,229326,1,2,1:2:0:0:
193,265,229487,2,0,P|154:219|151:191,1,70,8|0,0:0|1:2,0:0:0:0:
263,125,229810,6,0,P|345:109|405:137,2,140,6|8|0,1:2|0:0|1:2,0:0:0:0:
260,256,230617,1,0,1:2:0:0:
359,228,230778,2,0,L|400:294,1,70,10|0,0:0|0:0,0:0:0:0:
166,152,231100,2,0,L|151:254,1,70,2|0,1:2|0:0,0:0:0:0:
101,92,231423,2,0,L|49:38,1,70,10|0,0:0|0:0,0:0:0:0:
184,60,231746,2,0,L|264:68,1,70,2|0,1:2|0:0,0:0:0:0:
327,134,232069,5,8,0:0:0:0:
375,296,232229,1,0,0:0:0:0:
212,182,232391,2,0,P|219:85|272:42,1,140,6|0,1:2|0:0,1:2:0:0:
449,80,232875,2,0,P|442:177|389:220,1,140,2|0,1:2|1:2,0:0:0:0:
302,143,233359,2,0,P|246:219|256:277,1,140,10|0,0:0|1:2,0:0:0:0:
79,250,233843,2,0,L|54:158,1,70,2|8,1:2|0:0,0:0:0:0:
212,177,234166,5,0,1:2:0:0:
398,233,234326,1,10,0:0:0:0:
170,64,234487,5,0,1:2:0:0:
148,290,234649,1,10,0:0:0:0:
354,74,234811,5,0,1:2:0:0:
308,311,234972,2,8,P|328:259|318:171,1,140,6|10,1:2|0:0,0:0:0:0:
230,230,235455,1,0,0:0:0:0:
137,77,235617,1,0,0:0:0:0:
286,115,235778,1,0,0:0:0:0:
105,179,235939,2,0,P|77:246|106:315,2,140
246,85,236746,6,0,L|314:126,1,70
429,53,237068,2,0,L|462:142,1,70
367,228,237391,1,0,0:0:0:0:
299,148,237553,2,0,P|371:126|449:162,1,140
441,296,238037,2,0,P|369:318|291:282,1,140
247,141,238520,2,0,P|223:199|234:285,1,140
328,198,239004,5,0,0:0:0:0:
254,78,239165,1,0,0:0:0:0:
222,214,239326,1,0,0:0:0:0:
324,119,239488,1,0,0:0:0:0:
202,188,239649,1,0,0:0:0:0:
319,265,239810,2,0,P|358:219|361:191,1,70
249,125,240133,6,0,P|167:109|107:137,2,140
153,228,240939,2,0,L|112:294,1,70
252,256,241262,1,0,0:0:0:0:
346,152,241423,2,0,B|341:198|341:198|361:240,1,70
411,92,241746,2,0,B|443:128|443:128|450:167,1,70
328,60,242068,2,0,P|286:53|248:68,1,70
185,134,242391,5,0,0:0:0:0:
137,296,242552,1,0,0:0:0:0:
318,232,242714,2,0,P|335:172|317:141,1,70
327,129,242956,1,0,0:0:0:0:
308,97,243037,1,0,0:0:0:0:
97,69,243197,2,0,P|51:122|54:195,1,140
212,143,243681,2,0,P|258:167|261:213,1,70
273,226,243924,1,0,0:0:0:0:
258,266,244004,1,0,0:0:0:0:
434,263,244165,2,0,L|459:120,1,140
377,52,244649,5,0,0:0:0:0:
110,300,244810,1,0,0:0:0:0:
