osu file format v14

[General]
AudioFilename: audio.mp3
AudioLeadIn: 0
PreviewTime: 119318
Countdown: 0
SampleSet: None
StackLeniency: 0.7
Mode: 0
LetterboxInBreaks: 1
WidescreenStoryboard: 0

[Editor]
Bookmarks: 61192,67500,81476,87101,89317
DistanceSpacing: 0.6
BeatDivisor: 2
GridSize: 4
TimelineZoom: 2.9

[Metadata]
Title:Koe
TitleUnicode:声
Artist:HAG
ArtistUnicode:H△G
Creator:october
Version:Voice
Source:
Tags:
BeatmapID:1290516
BeatmapSetID:611294

[Difficulty]
HPDrainRate:6
CircleSize:4
OverallDifficulty:8.5
ApproachRate:9.4
SliderMultiplier:1.8
SliderTickRate:1

[Events]
//Background and Video events
0,0,"ewfawfaw.jpg",0,0
//Break Periods
//Storyboard Layer 0 (Background)
//Storyboard Layer 1 (Fail)
//Storyboard Layer 2 (Pass)
//Storyboard Layer 3 (Foreground)
//Storyboard Sound Samples

[TimingPoints]
1363,340.909090909091,4,1,0,100,1,0
42953,-125,4,1,0,100,0,0
43294,-100,4,1,0,100,0,0
66817,-200,4,1,0,100,0,0
67499,-100,4,1,0,100,0,0

[HitObjects]
288,120,32385,5,0,0:0:0:0:
192,252,32556,1,0,0:0:0:0:
164,280,32641,1,0,0:0:0:0:
136,304,32726,2,0,P|80:304|48:276,1,90
52,104,33067,1,0,0:0:0:0:
212,160,33238,1,0,0:0:0:0:
80,256,33408,5,0,0:0:0:0:
180,88,33578,1,0,0:0:0:0:
256,272,33749,2,0,P|344:292|376:280,1,90
464,168,34090,2,0,P|384:96|300:92,1,180
156,196,34601,1,0,0:0:0:0:
156,196,34772,2,0,P|188:280|212:288,1,90
376,112,35113,2,0,P|312:196|280:204,1,90
181,275,35453,6,0,P|125:151|149:115,1,180
264,32,35965,1,0,0:0:0:0:
264,32,36135,2,0,P|336:108|336:128,1,90
216,192,36476,2,0,P|292:252|328:248,1,90
396,144,36817,5,0,0:0:0:0:
322,277,36988,1,0,0:0:0:0:
245,150,37158,1,0,0:0:0:0:
164,298,37328,1,0,0:0:0:0:
68,176,37499,5,0,0:0:0:0:
68,176,37584,1,0,0:0:0:0:
68,176,37669,1,0,0:0:0:0:
200,60,37840,1,0,0:0:0:0:
268,256,38010,1,0,0:0:0:0:
452,136,38181,2,0,P|392:52|288:52,1,180
164,160,38692,5,0,0:0:0:0:
164,160,38863,2,0,P|292:152|320:168,1,90
384,260,39203,1,0,0:0:0:0:
384,260,39374,2,0,P|268:288|236:272,1,90
112,200,39715,5,0,0:0:0:0:
264,88,39885,1,0,0:0:0:0:
304,292,40056,1,0,0:0:0:0:
124,100,40227,1,0,0:0:0:0:
152,344,40397,1,0,0:0:0:0:
276,64,40567,2,0,P|376:52|416:68,1,90
32,180,40908,5,0,0:0:0:0:
184,48,41078,1,0,0:0:0:0:
236,236,41249,1,0,0:0:0:0:
356,76,41419,2,0,P|424:156|412:208,1,90
356,308,41760,1,0,0:0:0:0:
284,140,41931,1,0,0:0:0:0:
164,292,42101,2,0,P|132:200|156:164,1,90
176,44,42442,2,0,P|256:88|260:124,1,90
176,184,42783,5,0,0:0:0:0:
192,216,42868,1,0,0:0:0:0:
212,240,42953,2,0,P|280:272|384:208,1,180
380,216,43465,5,0,0:0:0:0:
392,188,43550,1,0,0:0:0:0:
396,160,43635,2,0,P|368:120|248:112,1,90
160,80,43976,1,0,0:0:0:0:
256,232,44147,1,0,0:0:0:0:
68,200,44317,6,0,P|72:104|92:84,1,90
268,64,44658,2,0,P|264:160|244:180,1,90
132,304,44999,1,0,0:0:0:0:
332,288,45169,1,0,0:0:0:0:
148,168,45340,2,0,P|224:108|276:100,1,90
376,40,45681,1,0,0:0:0:0:
316,184,45851,1,0,0:0:0:0:
224,40,46022,6,0,P|148:68|124:96,1,90
44,232,46363,2,0,P|128:272|224:232,1,180
304,116,46874,1,0,0:0:0:0:
304,116,47044,2,0,P|412:128|432:144,1,90
484,272,47385,5,0,0:0:0:0:
328,336,47556,1,0,0:0:0:0:
328,336,47726,2,0,P|216:304|184:240,1,180
260,100,48238,1,0,0:0:0:0:
372,224,48408,2,0,P|272:208|252:180,1,90
144,128,48749,5,0,0:0:0:0:
224,256,48919,1,0,0:0:0:0:
257,285,49004,1,0,0:0:0:0:
299,302,49090,2,0,P|400:300|424:280,1,90
348,148,49431,2,0,P|452:120|480:128,1,90
460,304,49772,5,0,0:0:0:0:
296,224,49942,1,0,0:0:0:0:
431,118,50113,2,0,P|323:78|299:78,1,90
120,56,50453,2,0,P|100:160|116:188,1,90
184,316,50794,5,0,0:0:0:0:
272,156,50965,1,0,0:0:0:0:
360,320,51135,2,0,P|448:276|456:252,1,90
480,124,51476,1,0,0:0:0:0:
308,228,51647,1,0,0:0:0:0:
344,76,51817,6,0,P|244:48|212:64,1,90
88,136,52158,1,0,0:0:0:0:
208,272,52328,1,0,0:0:0:0:
88,136,52499,2,0,P|188:80|216:92,1,90
368,72,52840,1,0,0:0:0:0:
284,228,53010,1,0,0:0:0:0:
176,80,53181,6,0,P|216:124|268:140,1,90
436,212,53522,1,0,0:0:0:0:
368,72,53692,1,0,0:0:0:0:
432,208,53863,1,0,0:0:0:0:
288,280,54033,1,0,0:0:0:0:
245,268,54118,1,0,0:0:0:0:
204,250,54203,1,0,0:0:0:0:
232,132,54374,5,0,0:0:0:0:
190,116,54459,1,0,0:0:0:0:
148,100,54544,2,0,P|56:128|36:156,1,90
24,296,54885,1,0,0:0:0:0:
124,172,55056,1,0,0:0:0:0:
208,304,55226,2,0,P|312:288|336:264,1,90
408,152,55567,1,0,0:0:0:0:
236,80,55738,1,0,0:0:0:0:
289,269,55908,2,0,P|189:301|153:285,1,90
154,108,56249,2,0,P|246:80|282:92,1,90
420,168,56590,5,0,0:0:0:0:
296,344,56760,1,0,0:0:0:0:
192,148,56931,1,0,0:0:0:0:
396,280,57101,1,0,0:0:0:0:
320,80,57272,2,0,P|216:48|184:60,1,90
48,232,57613,2,0,P|152:248|192:224,1,90
376,156,57953,1,0,0:0:0:0:
264,316,58124,1,0,0:0:0:0:
144,128,58294,2,0,P|224:76|292:76,1,90
456,40,58635,5,0,0:0:0:0:
392,268,58806,1,0,0:0:0:0:
264,64,58976,1,0,0:0:0:0:
480,184,59147,1,0,0:0:0:0:
280,284,59317,2,0,P|184:248|176:224,1,90
128,72,59658,1,0,0:0:0:0:
328,136,59828,5,0,0:0:0:0:
370,153,59913,1,0,0:0:0:0:
409,176,59999,2,0,P|456:256|452:280,1,90
288,352,60340,1,0,0:0:0:0:
196,208,60510,1,0,0:0:0:0:
88,348,60681,2,0,P|32:268|36:248,1,90
140,108,61022,1,0,0:0:0:0:
260,264,61192,5,0,0:0:0:0:
297,290,61277,1,0,0:0:0:0:
339,303,61363,2,0,P|436:268|444:260,1,90
436,104,61703,1,0,0:0:0:0:
240,184,61874,1,0,0:0:0:0:
452,140,62044,1,0,0:0:0:0:
256,220,62215,1,0,0:0:0:0:
448,280,62385,2,0,P|408:308|320:280,1,90
244,136,62726,6,0,P|152:168|124:248,1,180
280,324,63238,1,0,0:0:0:0:
280,324,63408,2,0,P|248:232|212:220,1,90
120,120,63749,1,0,0:0:0:0:
136,296,63919,1,0,0:0:0:0:
304,124,64090,6,0,P|236:116|192:136,1,90
72,248,64431,1,0,0:0:0:0:
232,340,64601,1,0,0:0:0:0:
256,160,64772,5,0,0:0:0:0:
232,340,64942,1,0,0:0:0:0:
72,248,65113,1,0,0:0:0:0:
248,160,65283,5,0,0:0:0:0:
248,160,65368,1,0,0:0:0:0:
248,160,65453,2,0,P|316:152|344:168,1,90
472,328,65794,1,0,0:0:0:0:
324,288,65965,1,0,0:0:0:0:
280,276,66050,1,0,0:0:0:0:
236,265,66135,1,0,0:0:0:0:
80,220,66306,5,0,0:0:0:0:
104,96,66476,1,0,0:0:0:0:
196,172,66647,1,0,0:0:0:0:
196,172,66732,1,0,0:0:0:0:
196,172,66817,2,0,P|320:144|376:176,1,180
312,320,67840,5,0,0:0:0:0:
312,320,68181,2,0,P|244:304|200:268,1,90
140,164,68522,1,0,0:0:0:0:
304,48,68692,1,0,0:0:0:0:
324,240,68863,1,0,0:0:0:0:
184,60,69033,1,0,0:0:0:0:
184,60,69203,2,0,P|76:48|52:60,1,90
132,248,69544,6,0,P|200:272|296:264,1,90
408,208,69885,1,0,0:0:0:0:
252,104,70056,1,0,0:0:0:0:
264,324,70226,5,0,0:0:0:0:
96,208,70397,1,0,0:0:0:0:
360,148,70567,1,0,0:0:0:0:
176,32,70738,1,0,0:0:0:0:
232,280,70908,6,0,P|340:300|376:284,1,90
472,188,71249,1,0,0:0:0:0:
280,84,71419,1,0,0:0:0:0:
472,224,71590,1,0,0:0:0:0:
276,312,71760,1,0,0:0:0:0:
360,132,71931,2,0,P|286:86|238:74,1,90
48,124,72272,5,0,0:0:0:0:
232,228,72442,1,0,0:0:0:0:
44,312,72613,1,0,0:0:0:0:
228,152,72783,1,0,0:0:0:0:
128,328,72953,2,0,P|28:296|16:276,1,90
140,164,73294,2,0,P|237:153|277:169,1,90
464,228,73635,5,0,0:0:0:0:
288,72,73806,1,0,0:0:0:0:
272,308,73976,1,0,0:0:0:0:
388,100,74147,1,0,0:0:0:0:
380,348,74317,5,0,0:0:0:0:
220,128,74488,1,0,0:0:0:0:
428,236,74658,1,0,0:0:0:0:
188,288,74828,1,0,0:0:0:0:
420,96,74999,6,0,P|328:52|268:80,1,90
144,160,75340,2,0,P|232:212|248:240,1,90
360,352,75681,1,0,0:0:0:0:
488,200,75851,1,0,0:0:0:0:
284,268,76022,2,0,P|224:196|228:168,1,90
448,52,76363,6,0,P|484:148|460:176,1,90
360,320,76703,1,0,0:0:0:0:
200,116,76874,1,0,0:0:0:0:
496,128,77044,1,0,0:0:0:0:
200,276,77215,1,0,0:0:0:0:
480,340,77385,2,0,P|432:228|412:212,1,90
272,56,77726,5,0,0:0:0:0:
304,308,77897,1,0,0:0:0:0:
416,44,78067,1,0,0:0:0:0:
452,344,78238,1,0,0:0:0:0:
128,172,78408,5,0,0:0:0:0:
472,120,78578,1,0,0:0:0:0:
172,324,78749,1,0,0:0:0:0:
344,64,78919,1,0,0:0:0:0:
344,64,79005,1,0,0:0:0:0:
344,64,79090,6,0,P|432:60|456:76,1,90
480,240,79431,1,0,0:0:0:0:
260,104,79601,1,0,0:0:0:0:
284,336,79772,1,0,0:0:0:0:
448,148,79942,1,0,0:0:0:0:
180,280,80113,2,0,P|96:228|84:200,1,90
256,24,80453,2,0,P|332:92|296:176,1,180
140,332,80965,5,0,0:0:0:0:
140,332,81135,2,0,P|44:288|28:224,1,90
112,80,81476,1,0,0:0:0:0:
248,256,81647,1,0,0:0:0:0:
248,256,81732,1,0,0:0:0:0:
248,256,81817,2,0,P|296:284|360:288,1,90
492,152,82158,1,0,0:0:0:0:
232,40,82328,1,0,0:0:0:0:
440,256,82499,1,0,0:0:0:0:
180,144,82669,1,0,0:0:0:0:
368,360,82840,1,0,0:0:0:0:
336,144,83010,1,0,0:0:0:0:
168,304,83181,6,0,P|92:232|92:188,1,90
248,92,83522,1,0,0:0:0:0:
296,312,83692,1,0,0:0:0:0:
460,168,83863,2,0,P|440:96|400:72,1,90
192,168,84203,1,0,0:0:0:0:
324,360,84374,1,0,0:0:0:0:
324,360,84459,1,0,0:0:0:0:
324,360,84544,6,0,P|400:332|420:308,1,90
288,164,84885,2,0,P|376:152|392:140,1,90
152,292,85226,2,0,P|92:292|48:276,1,90
156,68,85567,2,0,P|220:56|272:72,1,90
432,244,85908,1,0,0:0:0:0:
252,304,86249,5,0,0:0:0:0:
304,120,86590,5,0,0:0:0:0:
140,176,86931,5,0,0:0:0:0:
359,184,87101,1,0,0:0:0:0:
359,184,87186,1,0,0:0:0:0:
359,184,87272,2,0,P|315:124|275:116,1,90
96,56,87613,1,0,0:0:0:0:
136,248,87783,1,0,0:0:0:0:
300,120,87953,6,0,P|384:88|416:92,1,90
480,272,88294,1,0,0:0:0:0:
296,356,88465,1,0,0:0:0:0:
328,164,88635,1,0,0:0:0:0:
120,296,88806,1,0,0:0:0:0:
392,344,88976,1,0,0:0:0:0:
172,152,89147,1,0,0:0:0:0:
436,88,89317,5,0,0:0:0:0:
352,292,89488,1,0,0:0:0:0:
307,286,89573,1,0,0:0:0:0:
268,264,89658,1,0,0:0:0:0:
304,112,89828,1,0,0:0:0:0:
330,76,89913,1,0,0:0:0:0:
369,55,89998,1,0,0:0:0:0:
