osu file format v14

[General]
AudioFilename: audio.mp3
AudioLeadIn: 0
PreviewTime: 215815
Countdown: 0
SampleSet: Normal
StackLeniency: 0.7
Mode: 1
LetterboxInBreaks: 0
WidescreenStoryboard: 0

[Editor]
DistanceSpacing: 1
BeatDivisor: 8
GridSize: 32
TimelineZoom: 2.7

[Metadata]
Title:Hoshikuzu Orchestra
TitleUnicode:星屑オーケストラ
Artist:HAG
ArtistUnicode:H△G
Creator:Reed_405
Version:Oni
Source:
Tags:Japanese chiho ハグ hagu vocaloid cover album pop jpop j-pop mili full ver ハヤブサ Hayabusa 声 Koe ~VOCALOID Album~ Faputa Lita- Stelar Kanon Matsubara
BeatmapID:2541243
BeatmapSetID:1221676

[Difficulty]
HPDrainRate:5
CircleSize:5
OverallDifficulty:6
ApproachRate:5
SliderMultiplier:1.4
SliderTickRate:1

[Events]
//Background and Video events
0,0,"bg1.jpg",0,60
//Break Periods
//Storyboard Layer 0 (Background)
//Storyboard Layer 1 (Fail)
//Storyboard Layer 2 (Pass)
//Storyboard Layer 3 (Foreground)
//Storyboard Layer 4 (Overlay)
//Storyboard Sound Samples

[TimingPoints]
1275,324.324324324324,4,1,0,65,1,0
20410,-105.263157894737,4,1,0,65,0,0
20896,-111.111111111111,4,1,0,65,0,0
21383,-117.647058823529,4,1,0,65,0,0
22031,-125,4,1,0,65,0,0
31761,-117.647058823529,4,1,0,70,0,0
32085,-107.52688172043,4,1,0,70,0,0
32410,-100,4,1,0,70,0,0
52518,-102.040816326531,4,1,0,70,0,0
52680,-104.166666666667,4,1,0,70,0,0
52761,-105.263157894737,4,1,0,70,0,0
52842,-106.382978723404,4,1,0,70,0,0
53004,-108.695652173913,4,1,0,70,0,0
53166,-111.111111111111,4,1,0,70,0,0
58031,-109.89010989011,4,1,0,80,0,0
58193,-105.263157894737,4,1,0,80,0,0
58356,-100,4,1,0,80,0,0
62815,-99.009900990099,4,1,0,80,0,0
62896,-98.0392156862745,4,1,0,80,0,0
62977,-97.0873786407767,4,1,0,80,0,0
63058,-96.1538461538461,4,1,0,80,0,0
63220,-94.3396226415094,4,1,0,80,0,0
63302,-93.4579439252336,4,1,0,80,0,0
63383,-92.5925925925926,4,1,0,80,0,0
63464,-91.743119266055,4,1,0,80,0,0
63545,-90.9090909090909,4,1,0,80,0,1
88193,-90.9090909090909,4,1,0,70,0,0
89491,-97.0873786407767,4,1,0,65,0,0
89815,-99.009900990099,4,1,0,65,0,0
89977,-100,4,1,0,65,0,0
98247,-105.263157894737,4,1,0,70,0,0
98680,-111.111111111111,4,1,0,70,0,0
99058,-114.942528735632,4,1,0,70,0,0
99383,-119.047619047619,4,1,0,70,0,0
99545,-121.951219512195,4,1,0,70,0,0
99869,-125,4,1,0,70,0,0
109274,-117.647058823529,4,1,0,70,0,0
109599,-111.111111111111,4,1,0,70,0,0
109923,-105.263157894737,4,1,0,70,0,0
110247,-100,4,1,0,70,0,0
130356,-102.040816326531,4,1,0,70,0,0
130518,-104.166666666667,4,1,0,70,0,0
130599,-105.263157894737,4,1,0,70,0,0
130680,-106.382978723404,4,1,0,70,0,0
130842,-108.695652173913,4,1,0,70,0,0
131004,-111.111111111111,4,1,0,70,0,0
135869,-108.108108108108,4,1,0,70,0,0
135950,-106.666666666667,4,1,0,70,0,0
136031,-105.263157894737,4,1,0,70,0,0
136193,-100,4,1,0,70,0,0
140653,-99.009900990099,4,1,0,70,0,0
140734,-98.0392156862745,4,1,0,70,0,0
140896,-96.2463907603465,4,1,0,70,0,0
140977,-95.6937799043062,4,1,0,70,0,0
141058,-94.3396226415094,4,1,0,70,0,0
141139,-93.4579439252336,4,1,0,70,0,0
141220,-92.5925925925926,4,1,0,70,0,0
141383,-90.9090909090909,4,1,0,80,0,1
166031,-90.9090909090909,4,1,0,80,0,0
167329,-97.0873786407767,4,1,0,70,0,0
167653,-99.009900990099,4,1,0,70,0,0
167815,-100,4,1,0,70,0,0
168302,324.324324324324,4,1,0,70,1,0
202356,-103.092783505155,4,1,0,70,0,0
202518,-105.263157894737,4,1,0,70,0,0
202599,-106.382978723404,4,1,0,70,0,0
202680,-107.52688172043,4,1,0,70,0,0
202842,-109.89010989011,4,1,0,70,0,0
202923,-111.111111111111,4,1,0,70,0,0
203004,-112.359550561798,4,1,0,70,0,0
203166,-114.942528735632,4,1,0,70,0,0
203329,-117.647058823529,4,1,0,70,0,0
216301,-111.111111111111,4,1,0,70,0,0
219220,-105.263157894737,4,1,0,70,0,0
219707,-103.092783505155,4,1,0,70,0,0
219788,-102.040816326531,4,1,0,70,0,0
219869,-101.010101010101,4,1,0,70,0,0
220031,-100,4,1,0,70,0,0
235923,-99.009900990099,4,1,0,70,0,0
236085,-97.0873786407767,4,1,0,70,0,0
236247,-95.2380952380952,4,1,0,70,0,0
236410,-93.4579439252336,4,1,0,70,0,0
236572,-91.743119266055,4,1,0,70,0,0
236653,-90.9090909090909,4,1,0,70,0,0
236734,-90.0900900900901,4,1,0,70,0,0
236815,-89.2857142857143,4,1,0,70,0,0
236907,-88.4955752212389,4,1,0,70,0,0
237058,-86.9565217391304,4,1,0,80,0,1
266896,-86.9565217391304,4,1,0,70,0,0
268193,-100,4,1,0,65,0,0
287166,-100,4,1,0,50,0,0
287977,-100,4,1,0,45,0,0
289274,-100,4,1,0,40,0,0
290572,-100,4,1,0,35,0,0
291869,-100,4,1,0,30,0,0

[HitObjects]
256,192,1275,5,4,0:0:0:0:
256,192,2572,1,4,0:0:0:0:
256,192,3869,1,12,0:0:0:0:
256,192,5004,1,4,0:0:0:0:
256,192,5653,1,12,0:0:0:0:
256,192,6302,1,4,0:0:0:0:
256,192,6788,1,0,0:0:0:0:
256,192,7112,1,8,0:0:0:0:
256,192,7274,1,0,0:0:0:0:
256,192,7599,1,0,0:0:0:0:
256,192,7923,1,8,0:0:0:0:
256,192,8247,1,0,0:0:0:0:
256,192,8410,1,8,0:0:0:0:
256,192,8734,1,8,0:0:0:0:
256,192,8896,1,0,0:0:0:0:
256,192,9058,1,8,0:0:0:0:
256,192,9383,1,0,0:0:0:0:
256,192,9545,1,8,0:0:0:0:
256,192,9869,1,0,0:0:0:0:
256,192,10193,1,8,0:0:0:0:
256,192,10274,1,8,0:0:0:0:
256,192,10356,1,0,0:0:0:0:
256,192,11166,1,0,0:0:0:0:
256,192,11329,1,8,0:0:0:0:
256,192,11653,1,4,0:0:0:0:
256,192,11977,1,0,0:0:0:0:
256,192,12139,1,8,0:0:0:0:
256,192,12302,1,0,0:0:0:0:
256,192,12464,1,0,0:0:0:0:
256,192,12626,1,8,0:0:0:0:
256,192,12950,1,0,0:0:0:0:
256,192,13274,1,0,0:0:0:0:
256,192,13437,1,8,0:0:0:0:
256,192,13599,1,0,0:0:0:0:
256,192,13761,1,8,0:0:0:0:
256,192,13923,1,8,0:0:0:0:
256,192,14247,1,4,0:0:0:0:
256,192,14572,1,8,0:0:0:0:
256,192,14734,1,0,0:0:0:0:
256,192,14896,1,8,0:0:0:0:
256,192,15058,1,0,0:0:0:0:
256,192,15220,1,8,0:0:0:0:
256,192,15545,1,8,0:0:0:0:
256,192,15707,1,8,0:0:0:0:
256,192,15869,1,0,0:0:0:0:
256,192,16031,1,0,0:0:0:0:
256,192,16193,1,8,0:0:0:0:
256,192,16356,1,8,0:0:0:0:
256,192,16518,1,8,0:0:0:0:
256,192,16680,1,0,0:0:0:0:
256,192,16761,1,0,0:0:0:0:
256,192,16842,1,8,0:0:0:0:
256,192,17977,1,8,0:0:0:0:
256,192,18058,1,8,0:0:0:0:
256,192,18139,1,0,0:0:0:0:
256,192,18626,1,8,0:0:0:0:
256,192,19112,1,0,0:0:0:0:
256,192,19437,1,12,0:0:0:0:
256,192,20410,1,0,0:0:0:0:
256,192,20896,1,8,0:0:0:0:
256,192,21383,1,8,0:0:0:0:
256,192,22031,1,0,0:0:0:0:
256,192,22356,1,8,0:0:0:0:
256,192,22518,1,0,0:0:0:0:
256,192,22842,1,0,0:0:0:0:
256,192,23166,1,0,0:0:0:0:
256,192,23329,1,8,0:0:0:0:
256,192,23653,1,8,0:0:0:0:
256,192,23815,1,0,0:0:0:0:
256,192,24302,1,8,0:0:0:0:
256,192,24626,1,0,0:0:0:0:
256,192,24950,1,0,0:0:0:0:
256,192,25112,1,8,0:0:0:0:
256,192,25437,1,8,0:0:0:0:
256,192,25761,1,0,0:0:0:0:
256,192,25923,1,0,0:0:0:0:
256,192,26572,1,8,0:0:0:0:
256,192,26896,1,0,0:0:0:0:
256,192,27220,1,8,0:0:0:0:
256,192,27545,1,0,0:0:0:0:
256,192,27707,1,8,0:0:0:0:
256,192,28031,1,8,0:0:0:0:
256,192,28356,1,0,0:0:0:0:
256,192,28518,1,0,0:0:0:0:
256,192,29166,1,8,0:0:0:0:
256,192,29491,1,0,0:0:0:0:
256,192,29815,1,8,0:0:0:0:
256,192,30139,1,0,0:0:0:0:
256,192,30302,1,8,0:0:0:0:
256,192,30626,1,0,0:0:0:0:
256,192,30950,1,8,0:0:0:0:
256,192,31112,1,8,0:0:0:0:
256,192,31761,1,8,0:0:0:0:
256,192,32085,1,0,0:0:0:0:
256,192,32410,1,12,0:0:0:0:
256,192,32734,1,0,0:0:0:0:
256,192,32896,1,8,0:0:0:0:
256,192,33058,1,0,0:0:0:0:
256,192,33383,1,0,0:0:0:0:
256,192,33707,1,8,0:0:0:0:
256,192,34031,1,0,0:0:0:0:
256,192,34356,1,8,0:0:0:0:
256,192,34518,1,8,0:0:0:0:
256,192,34680,1,0,0:0:0:0:
256,192,35004,1,8,0:0:0:0:
256,192,35329,1,8,0:0:0:0:
256,192,35653,1,0,0:0:0:0:
256,192,35815,1,0,0:0:0:0:
256,192,35977,1,8,0:0:0:0:
256,192,36139,1,8,0:0:0:0:
256,192,36302,1,0,0:0:0:0:
224,64,36626,1,8,0:0:0:0:
256,192,36950,1,0,0:0:0:0:
256,192,37112,1,0,0:0:0:0:
256,192,37274,1,8,0:0:0:0:
256,192,37599,1,0,0:0:0:0:
256,192,37923,1,8,0:0:0:0:
256,192,38085,1,0,0:0:0:0:
256,192,38247,1,0,0:0:0:0:
256,192,38572,1,0,0:0:0:0:
256,192,38896,1,8,0:0:0:0:
256,192,39220,1,8,0:0:0:0:
256,192,39383,1,8,0:0:0:0:
256,192,39545,1,0,0:0:0:0:
256,192,39707,1,0,0:0:0:0:
256,192,39869,1,8,0:0:0:0:
256,192,40193,1,0,0:0:0:0:
256,192,40518,1,8,0:0:0:0:
256,192,40680,1,0,0:0:0:0:
256,192,41004,1,0,0:0:0:0:
256,192,41166,1,8,0:0:0:0:
256,192,41329,1,0,0:0:0:0:
256,192,41653,1,0,0:0:0:0:
256,192,41815,1,8,0:0:0:0:
256,192,42139,1,0,0:0:0:0:
256,192,42302,1,8,0:0:0:0:
256,192,42383,1,8,0:0:0:0:
256,192,42464,1,8,0:0:0:0:
256,192,42626,1,8,0:0:0:0:
256,192,42788,1,4,0:0:0:0:
256,192,43112,1,8,0:0:0:0:
256,192,43274,1,0,0:0:0:0:
256,192,43437,1,0,0:0:0:0:
256,192,43599,1,0,0:0:0:0:
256,192,43923,1,8,0:0:0:0:
256,192,44247,1,0,0:0:0:0:
256,192,44410,1,8,0:0:0:0:
256,192,44572,1,8,0:0:0:0:
256,192,44734,1,0,0:0:0:0:
256,192,44896,1,0,0:0:0:0:
256,192,45058,1,8,0:0:0:0:
256,192,45220,1,8,0:0:0:0:
256,192,45302,1,8,0:0:0:0:
256,192,45383,1,0,0:0:0:0:
256,192,45545,1,0,0:0:0:0:
256,192,45707,1,8,0:0:0:0:
256,192,45869,1,0,0:0:0:0:
256,192,46193,1,0,0:0:0:0:
256,192,46356,1,8,0:0:0:0:
256,192,46518,1,8,0:0:0:0:
256,192,46842,1,0,0:0:0:0:
256,192,47004,1,8,0:0:0:0:
256,192,47166,1,8,0:0:0:0:
256,192,47329,1,0,0:0:0:0:
256,192,47491,1,0,0:0:0:0:
256,192,47653,1,8,0:0:0:0:
256,192,47815,1,8,0:0:0:0:
256,192,47896,1,8,0:0:0:0:
256,192,47977,1,0,0:0:0:0:
256,192,48302,1,8,0:0:0:0:
256,192,48626,1,0,0:0:0:0:
256,192,48788,1,0,0:0:0:0:
256,192,49112,1,8,0:0:0:0:
256,192,49437,1,0,0:0:0:0:
256,192,49599,1,8,0:0:0:0:
256,192,49761,1,8,0:0:0:0:
256,192,49842,1,8,0:0:0:0:
256,192,49923,1,0,0:0:0:0:
256,192,50085,1,0,0:0:0:0:
256,192,50247,1,8,0:0:0:0:
256,192,50410,1,0,0:0:0:0:
256,192,50491,1,0,0:0:0:0:
256,192,50572,1,8,0:0:0:0:
256,192,50734,1,0,0:0:0:0:
256,192,50896,1,8,0:0:0:0:
256,192,51220,1,8,0:0:0:0:
256,192,51383,1,0,0:0:0:0:
256,192,51545,1,8,0:0:0:0:
256,192,51869,1,0,0:0:0:0:
256,192,52031,1,0,0:0:0:0:
256,192,52193,1,8,0:0:0:0:
256,192,52518,1,0,0:0:0:0:
256,192,52680,1,8,0:0:0:0:
256,192,52761,1,8,0:0:0:0:
256,192,52842,1,0,0:0:0:0:
256,192,53004,1,8,0:0:0:0:
256,192,53166,1,4,0:0:0:0:
255,192,54302,1,8,0:0:0:0:
255,192,54383,1,8,0:0:0:0:
255,192,54464,1,8,0:0:0:0:
255,192,54950,1,8,0:0:0:0:
256,192,55599,1,0,0:0:0:0:
256,192,55761,1,12,0:0:0:0:
256,192,57058,1,8,0:0:0:0:
256,192,57545,1,8,0:0:0:0:
256,192,58031,1,8,0:0:0:0:
256,192,58193,1,0,0:0:0:0:
256,192,58356,1,12,0:0:0:0:
256,192,58518,1,0,0:0:0:0:
256,192,58680,1,0,0:0:0:0:
256,192,58842,1,0,0:0:0:0:
256,192,59004,1,0,0:0:0:0:
256,192,59085,1,0,0:0:0:0:
256,192,59166,1,0,0:0:0:0:
256,192,59329,1,8,0:0:0:0:
256,192,59491,1,0,0:0:0:0:
256,192,59815,1,0,0:0:0:0:
256,192,59977,1,8,0:0:0:0:
256,192,60139,1,0,0:0:0:0:
256,192,60464,1,8,0:0:0:0:
256,192,60626,1,0,0:0:0:0:
256,192,60788,1,8,0:0:0:0:
256,192,60869,1,8,0:0:0:0:
256,192,60950,1,8,0:0:0:0:
256,192,61112,1,0,0:0:0:0:
256,192,61274,1,0,0:0:0:0:
256,192,61437,1,8,0:0:0:0:
256,192,61761,1,0,0:0:0:0:
256,192,61923,1,8,0:0:0:0:
256,192,62085,1,8,0:0:0:0:
256,192,62410,1,0,0:0:0:0:
256,192,62572,1,8,0:0:0:0:
256,192,62734,1,0,0:0:0:0:
256,192,62815,1,0,0:0:0:0:
256,192,62896,1,8,0:0:0:0:
256,192,62977,1,0,0:0:0:0:
256,192,63058,1,8,0:0:0:0:
256,192,63220,1,0,0:0:0:0:
256,192,63302,1,0,0:0:0:0:
256,192,63383,1,8,0:0:0:0:
256,192,63464,1,8,0:0:0:0:
256,192,63545,1,4,0:0:0:0:
256,192,63869,1,8,0:0:0:0:
256,192,64031,1,8,0:0:0:0:
256,192,64193,1,0,0:0:0:0:
256,192,64356,1,0,0:0:0:0:
256,192,64518,1,8,0:0:0:0:
256,192,64599,1,8,0:0:0:0:
256,192,64680,1,0,0:0:0:0:
256,192,64842,1,0,0:0:0:0:
256,192,65004,1,0,0:0:0:0:
256,192,65166,1,8,0:0:0:0:
256,192,65329,1,0,0:0:0:0:
256,192,65410,1,0,0:0:0:0:
256,192,65491,1,0,0:0:0:0:
256,192,65653,1,0,0:0:0:0:
256,192,65815,1,8,0:0:0:0:
256,192,66139,1,8,0:0:0:0:
256,192,66302,1,0,0:0:0:0:
256,192,66464,1,8,0:0:0:0:
256,192,66788,1,0,0:0:0:0:
256,192,66950,1,0,0:0:0:0:
256,192,67112,1,8,0:0:0:0:
256,192,67274,1,8,0:0:0:0:
256,192,67356,1,8,0:0:0:0:
256,192,67437,1,0,0:0:0:0:
256,192,67599,1,0,0:0:0:0:
256,192,67761,1,8,0:0:0:0:
256,192,67923,1,8,0:0:0:0:
256,192,68004,1,0,0:0:0:0:
256,192,68085,1,0,0:0:0:0:
256,192,68166,1,0,0:0:0:0:
256,192,68247,1,8,0:0:0:0:
256,192,68410,1,8,0:0:0:0:
256,192,68572,1,8,0:0:0:0:
256,192,68734,1,0,0:0:0:0:
256,192,69058,1,8,0:0:0:0:
256,192,69383,1,0,0:0:0:0:
256,192,69545,1,8,0:0:0:0:
256,192,69707,1,8,0:0:0:0:
256,192,69869,1,8,0:0:0:0:
256,192,69950,1,0,0:0:0:0:
256,192,70031,1,0,0:0:0:0:
288,192,70193,1,0,0:0:0:0:
256,192,70356,1,8,0:0:0:0:
256,192,70518,1,0,0:0:0:0:
256,192,70842,1,0,0:0:0:0:
288,192,71004,1,8,0:0:0:0:
288,192,71329,1,0,0:0:0:0:
288,192,71491,1,0,0:0:0:0:
288,192,71653,1,8,0:0:0:0:
288,192,71815,1,0,0:0:0:0:
288,192,72139,1,0,0:0:0:0:
288,192,72302,1,8,0:0:0:0:
288,192,72464,1,0,0:0:0:0:
288,192,72788,1,8,0:0:0:0:
288,192,72950,1,8,0:0:0:0:
288,192,73112,1,0,0:0:0:0:
288,192,73193,1,0,0:0:0:0:
288,192,73274,1,8,0:0:0:0:
288,192,73437,1,8,0:0:0:0:
288,192,73518,1,8,0:0:0:0:
288,192,73599,1,0,0:0:0:0:
288,192,73680,1,0,0:0:0:0:
288,192,73761,1,8,0:0:0:0:
288,192,73923,1,4,0:0:0:0:
256,192,74247,1,8,0:0:0:0:
256,192,74410,1,0,0:0:0:0:
256,192,74572,1,0,0:0:0:0:
256,192,74734,1,0,0:0:0:0:
256,192,74896,1,8,0:0:0:0:
256,192,74977,1,0,0:0:0:0:
256,192,75058,1,0,0:0:0:0:
256,192,75220,1,0,0:0:0:0:
256,192,75383,1,0,0:0:0:0:
256,192,75545,1,8,0:0:0:0:
256,192,75707,1,0,0:0:0:0:
256,192,75788,1,0,0:0:0:0:
256,192,75869,1,0,0:0:0:0:
256,192,76031,1,0,0:0:0:0:
256,192,76193,1,8,0:0:0:0:
256,192,76518,1,8,0:0:0:0:
256,192,76680,1,0,0:0:0:0:
256,192,76842,1,8,0:0:0:0:
256,192,77166,1,0,0:0:0:0:
256,192,77329,1,0,0:0:0:0:
256,192,77491,1,8,0:0:0:0:
256,192,77653,1,8,0:0:0:0:
256,192,77734,1,8,0:0:0:0:
256,192,77815,1,0,0:0:0:0:
256,192,77977,1,0,0:0:0:0:
256,192,78139,1,8,0:0:0:0:
256,192,78302,1,0,0:0:0:0:
256,192,78626,1,8,0:0:0:0:
256,192,78788,1,0,0:0:0:0:
256,192,78950,1,8,0:0:0:0:
256,192,79031,1,8,0:0:0:0:
256,192,79112,1,0,0:0:0:0:
256,192,79437,1,8,0:0:0:0:
256,192,79599,1,0,0:0:0:0:
256,192,79761,1,8,0:0:0:0:
256,192,80085,1,0,0:0:0:0:
256,192,80247,1,8,0:0:0:0:
256,192,80410,1,0,0:0:0:0:
288,192,80734,1,0,0:0:0:0:
288,192,80896,1,0,0:0:0:0:
288,192,81058,1,8,0:0:0:0:
288,192,81220,1,0,0:0:0:0:
288,192,81383,1,8,0:0:0:0:
288,192,81707,1,0,0:0:0:0:
288,192,81869,1,0,0:0:0:0:
288,192,82031,1,8,0:0:0:0:
288,192,82193,1,0,0:0:0:0:
288,192,82356,1,8,0:0:0:0:
288,192,82680,1,0,0:0:0:0:
256,192,82842,1,8,0:0:0:0:
288,192,83004,1,0,0:0:0:0:
288,192,83166,1,8,0:0:0:0:
288,192,83329,1,0,0:0:0:0:
288,192,83491,1,0,0:0:0:0:
288,192,83653,1,8,0:0:0:0:
288,192,83977,1,8,0:0:0:0:
288,192,84139,1,0,0:0:0:0:
288,192,84302,1,8,0:0:0:0:
288,192,84464,1,0,0:0:0:0:
288,192,84545,1,0,0:0:0:0:
288,192,84626,1,0,0:0:0:0:
288,192,84788,1,8,0:0:0:0:
282,197,84950,1,0,0:0:0:0:
288,192,85031,1,0,0:0:0:0:
283,197,85112,1,0,0:0:0:0:
288,192,85193,1,0,0:0:0:0:
288,192,85274,1,8,0:0:0:0:
286,197,85437,1,0,0:0:0:0:
287,197,85599,1,8,0:0:0:0:
287,197,85761,1,0,0:0:0:0:
288,198,85842,1,0,0:0:0:0:
288,198,85923,1,0,0:0:0:0:
290,198,86085,1,8,0:0:0:0:
290,198,86247,1,0,0:0:0:0:
286,197,86329,1,0,0:0:0:0:
288,192,86410,1,0,0:0:0:0:
288,192,86491,1,0,0:0:0:0:
291,198,86572,1,8,0:0:0:0:
295,199,86734,1,0,0:0:0:0:
300,198,86815,1,0,0:0:0:0:
300,198,86896,1,8,0:0:0:0:
300,198,87058,1,0,0:0:0:0:
300,198,87220,1,8,0:0:0:0:
300,198,87383,1,0,0:0:0:0:
301,198,87545,1,8,0:0:0:0:
287,197,87707,1,8,0:0:0:0:
287,197,87869,1,8,0:0:0:0:
287,197,88031,1,0,0:0:0:0:
256,192,88193,1,8,0:0:0:0:
256,192,89491,1,4,0:0:0:0:
256,192,89815,1,0,0:0:0:0:
256,192,89977,1,8,0:0:0:0:
256,192,90139,1,0,0:0:0:0:
256,192,90302,1,0,0:0:0:0:
256,192,90464,1,8,0:0:0:0:
256,192,90788,1,0,0:0:0:0:
256,192,91112,1,0,0:0:0:0:
256,192,91274,1,8,0:0:0:0:
256,192,91437,1,0,0:0:0:0:
256,192,91599,1,8,0:0:0:0:
256,192,91761,1,8,0:0:0:0:
256,192,92085,1,4,0:0:0:0:
256,192,92410,1,8,0:0:0:0:
256,192,92572,1,0,0:0:0:0:
256,192,92734,1,8,0:0:0:0:
256,192,92896,1,0,0:0:0:0:
256,192,93058,1,8,0:0:0:0:
256,192,93383,1,8,0:0:0:0:
256,192,93545,1,8,0:0:0:0:
256,192,93707,1,0,0:0:0:0:
256,192,93869,1,0,0:0:0:0:
256,192,94031,1,8,0:0:0:0:
256,192,94193,1,8,0:0:0:0:
256,192,94356,1,8,0:0:0:0:
256,192,94518,1,0,0:0:0:0:
256,192,94599,1,0,0:0:0:0:
256,192,94680,1,8,0:0:0:0:
256,192,95815,1,8,0:0:0:0:
256,192,95896,1,8,0:0:0:0:
256,192,95977,1,0,0:0:0:0:
256,192,96464,1,8,0:0:0:0:
256,192,96950,1,0,0:0:0:0:
256,192,97274,1,12,0:0:0:0:
256,192,98247,1,0,0:0:0:0:
256,192,98680,1,8,0:0:0:0:
256,192,98734,1,8,0:0:0:0:
256,192,99058,1,8,0:0:0:0:
256,192,99383,1,0,0:0:0:0:
256,192,99545,1,8,0:0:0:0:
256,192,99869,1,4,0:0:0:0:
256,192,100193,1,8,0:0:0:0:
256,192,100356,1,0,0:0:0:0:
256,192,100518,1,0,0:0:0:0:
256,192,100680,1,8,0:0:0:0:
256,192,101004,1,0,0:0:0:0:
256,192,101166,1,8,0:0:0:0:
256,192,101491,1,8,0:0:0:0:
256,192,101653,1,0,0:0:0:0:
256,192,101815,1,8,0:0:0:0:
256,192,102139,1,8,0:0:0:0:
256,192,102464,1,0,0:0:0:0:
256,192,102788,1,0,0:0:0:0:
256,192,102950,1,8,0:0:0:0:
256,187,103112,1,0,0:0:0:0:
256,192,103274,1,8,0:0:0:0:
256,187,103599,1,0,0:0:0:0:
256,192,103761,1,0,0:0:0:0:
256,192,104085,1,0,0:0:0:0:
256,192,104410,1,8,0:0:0:0:
256,192,104734,1,0,0:0:0:0:
256,192,104896,1,0,0:0:0:0:
256,192,105058,1,12,0:0:0:0:
256,192,105383,1,0,0:0:0:0:
256,192,105545,1,8,0:0:0:0:
256,192,105869,1,8,0:0:0:0:
256,192,106193,1,8,0:0:0:0:
256,192,106356,1,0,0:0:0:0:
256,192,106680,1,0,0:0:0:0:
256,192,107004,1,8,0:0:0:0:
256,192,107166,1,8,0:0:0:0:
256,192,107329,1,0,0:0:0:0:
256,192,107653,1,8,0:0:0:0:
256,192,107977,1,0,0:0:0:0:
256,192,108139,1,8,0:0:0:0:
256,192,108464,1,0,0:0:0:0:
256,192,108788,1,12,0:0:0:0:
256,192,109274,1,0,0:0:0:0:
256,192,109599,1,0,0:0:0:0:
256,192,109923,1,0,0:0:0:0:
256,192,110247,1,12,0:0:0:0:
256,192,110572,1,0,0:0:0:0:
256,192,110734,1,8,0:0:0:0:
256,192,110896,1,0,0:0:0:0:
256,192,111220,1,0,0:0:0:0:
256,192,111383,1,8,0:0:0:0:
256,192,111464,1,0,0:0:0:0:
256,192,111545,1,0,0:0:0:0:
256,192,111707,1,8,0:0:0:0:
256,192,111869,1,0,0:0:0:0:
256,192,112031,1,8,0:0:0:0:
256,192,112193,1,0,0:0:0:0:
256,192,112274,1,0,0:0:0:0:
256,192,112356,1,8,0:0:0:0:
256,192,112518,1,0,0:0:0:0:
256,192,112680,1,8,0:0:0:0:
256,192,112761,1,8,0:0:0:0:
256,192,112842,1,0,0:0:0:0:
256,192,113166,1,8,0:0:0:0:
256,192,113329,1,8,0:0:0:0:
256,192,113491,1,0,0:0:0:0:
256,192,113653,1,0,0:0:0:0:
256,192,113815,1,8,0:0:0:0:
256,192,113977,1,8,0:0:0:0:
256,192,114058,1,8,0:0:0:0:
256,192,114139,1,0,0:0:0:0:
256,192,114302,1,8,0:0:0:0:
256,192,114383,1,8,0:0:0:0:
256,192,114464,1,0,0:0:0:0:
256,192,114626,1,8,0:0:0:0:
256,192,114788,1,0,0:0:0:0:
256,192,114950,1,0,0:0:0:0:
256,192,115112,1,8,0:0:0:0:
256,192,115437,1,0,0:0:0:0:
256,192,115761,1,8,0:0:0:0:
256,192,115923,1,0,0:0:0:0:
256,192,116085,1,0,0:0:0:0:
256,192,116247,1,0,0:0:0:0:
256,192,116410,1,8,0:0:0:0:
256,192,116734,1,8,0:0:0:0:
256,192,117058,1,8,0:0:0:0:
256,192,117220,1,8,0:0:0:0:
256,192,117383,1,0,0:0:0:0:
256,192,117545,1,0,0:0:0:0:
256,192,117707,1,8,0:0:0:0:
256,192,118031,1,0,0:0:0:0:
256,192,118356,1,8,0:0:0:0:
256,192,118518,1,0,0:0:0:0:
256,192,118842,1,0,0:0:0:0:
256,192,119004,1,8,0:0:0:0:
256,192,119166,1,4,0:0:0:0:
256,192,119491,1,0,0:0:0:0:
256,192,119653,1,8,0:0:0:0:
256,192,119977,1,0,0:0:0:0:
256,192,120139,1,8,0:0:0:0:
256,192,120220,1,8,0:0:0:0:
256,192,120302,1,8,0:0:0:0:
256,192,120464,1,8,0:0:0:0:
256,192,120626,1,4,0:0:0:0:
256,192,120950,1,8,0:0:0:0:
256,192,121112,1,0,0:0:0:0:
256,192,121274,1,0,0:0:0:0:
256,192,121437,1,0,0:0:0:0:
256,192,121761,1,8,0:0:0:0:
256,192,122085,1,0,0:0:0:0:
256,192,122247,1,8,0:0:0:0:
256,192,122410,1,8,0:0:0:0:
256,192,122572,1,0,0:0:0:0:
256,192,122734,1,0,0:0:0:0:
256,192,122896,1,8,0:0:0:0:
256,192,123058,1,8,0:0:0:0:
256,192,123139,1,8,0:0:0:0:
256,192,123220,1,0,0:0:0:0:
256,192,123545,1,8,0:0:0:0:
256,192,123707,1,0,0:0:0:0:
256,192,123869,1,0,0:0:0:0:
256,192,124031,1,8,0:0:0:0:
256,192,124193,1,0,0:0:0:0:
256,192,124356,1,8,0:0:0:0:
256,192,124437,1,0,0:0:0:0:
256,192,124518,1,0,0:0:0:0:
256,192,124680,1,0,0:0:0:0:
256,192,124842,1,8,0:0:0:0:
256,192,125004,1,8,0:0:0:0:
256,192,125329,1,0,0:0:0:0:
256,192,125491,1,8,0:0:0:0:
256,192,125653,1,8,0:0:0:0:
256,192,125734,1,8,0:0:0:0:
256,192,125815,1,0,0:0:0:0:
256,192,126139,1,8,0:0:0:0:
256,192,126464,1,0,0:0:0:0:
256,192,126626,1,0,0:0:0:0:
256,192,126788,1,0,0:0:0:0:
256,192,126950,1,8,0:0:0:0:
256,192,127274,1,0,0:0:0:0:
256,192,127437,1,8,0:0:0:0:
256,192,127599,1,8,0:0:0:0:
256,192,127680,1,8,0:0:0:0:
256,192,127761,1,0,0:0:0:0:
256,192,127923,1,0,0:0:0:0:
256,192,128085,1,8,0:0:0:0:
256,192,128247,1,0,0:0:0:0:
256,192,128329,1,0,0:0:0:0:
256,192,128410,1,0,0:0:0:0:
256,192,128572,1,0,0:0:0:0:
256,192,128734,1,8,0:0:0:0:
256,192,129058,1,8,0:0:0:0:
256,192,129220,1,0,0:0:0:0:
256,192,129383,1,8,0:0:0:0:
256,192,129707,1,0,0:0:0:0:
256,192,129869,1,0,0:0:0:0:
256,192,130031,1,8,0:0:0:0:
256,192,130356,1,0,0:0:0:0:
256,192,130518,1,8,0:0:0:0:
256,192,130599,1,0,0:0:0:0:
256,192,130680,1,0,0:0:0:0:
256,192,130842,1,8,0:0:0:0:
256,192,131004,1,4,0:0:0:0:
256,192,132139,1,8,0:0:0:0:
256,192,132220,1,8,0:0:0:0:
256,192,132302,1,8,0:0:0:0:
256,192,132788,1,8,0:0:0:0:
256,192,133437,1,0,0:0:0:0:
256,192,133599,1,12,0:0:0:0:
256,192,134896,1,8,0:0:0:0:
256,192,135383,1,8,0:0:0:0:
256,192,135869,1,8,0:0:0:0:
256,192,135950,1,0,0:0:0:0:
256,192,136031,1,0,0:0:0:0:
256,192,136193,1,12,0:0:0:0:
256,192,136356,1,0,0:0:0:0:
256,192,136518,1,0,0:0:0:0:
256,192,136680,1,8,0:0:0:0:
256,192,136761,1,8,0:0:0:0:
256,192,136842,1,0,0:0:0:0:
256,192,137004,1,0,0:0:0:0:
256,192,137166,1,8,0:0:0:0:
256,192,137329,1,0,0:0:0:0:
256,192,137653,1,0,0:0:0:0:
256,192,137815,1,8,0:0:0:0:
256,192,137977,1,0,0:0:0:0:
256,192,138302,1,8,0:0:0:0:
256,192,138464,1,0,0:0:0:0:
256,192,138626,1,8,0:0:0:0:
256,192,138707,1,8,0:0:0:0:
256,192,138788,1,8,0:0:0:0:
256,192,138950,1,0,0:0:0:0:
256,192,139112,1,0,0:0:0:0:
256,192,139274,1,8,0:0:0:0:
256,192,139599,1,0,0:0:0:0:
256,192,139761,1,8,0:0:0:0:
256,192,139923,1,0,0:0:0:0:
256,192,140247,1,0,0:0:0:0:
256,192,140410,1,8,0:0:0:0:
256,192,140572,1,0,0:0:0:0:
256,192,140653,1,0,0:0:0:0:
256,192,140734,1,8,0:0:0:0:
256,192,140896,1,8,0:0:0:0:
256,192,140977,1,8,0:0:0:0:
256,192,141058,1,0,0:0:0:0:
256,192,141139,1,0,0:0:0:0:
256,192,141220,1,8,0:0:0:0:
256,192,141383,1,4,0:0:0:0:
256,192,141707,1,8,0:0:0:0:
256,192,141869,1,8,0:0:0:0:
256,192,142031,1,0,0:0:0:0:
256,192,142193,1,0,0:0:0:0:
256,192,142356,1,8,0:0:0:0:
256,192,142437,1,8,0:0:0:0:
256,192,142518,1,0,0:0:0:0:
256,192,142680,1,0,0:0:0:0:
256,192,142842,1,0,0:0:0:0:
256,192,143004,1,8,0:0:0:0:
256,192,143166,1,0,0:0:0:0:
256,192,143247,1,0,0:0:0:0:
256,192,143329,1,0,0:0:0:0:
256,192,143491,1,0,0:0:0:0:
256,192,143653,1,8,0:0:0:0:
256,192,143977,1,8,0:0:0:0:
256,192,144139,1,0,0:0:0:0:
256,192,144302,1,8,0:0:0:0:
256,192,144626,1,0,0:0:0:0:
256,192,144788,1,0,0:0:0:0:
256,192,144950,1,8,0:0:0:0:
256,192,145112,1,8,0:0:0:0:
256,192,145193,1,8,0:0:0:0:
256,192,145274,1,0,0:0:0:0:
256,192,145437,1,0,0:0:0:0:
256,192,145599,1,8,0:0:0:0:
256,192,145761,1,8,0:0:0:0:
256,192,145842,1,0,0:0:0:0:
256,192,145923,1,0,0:0:0:0:
256,192,146004,1,0,0:0:0:0:
256,192,146085,1,8,0:0:0:0:
256,192,146247,1,8,0:0:0:0:
256,192,146410,1,8,0:0:0:0:
256,192,146572,1,0,0:0:0:0:
256,192,146896,1,8,0:0:0:0:
256,192,147220,1,0,0:0:0:0:
256,192,147383,1,0,0:0:0:0:
256,160,147545,1,8,0:0:0:0:
256,192,147707,1,8,0:0:0:0:
256,192,147788,1,0,0:0:0:0:
256,192,147869,1,0,0:0:0:0:
288,192,148031,1,0,0:0:0:0:
256,192,148193,1,8,0:0:0:0:
256,192,148356,1,0,0:0:0:0:
288,192,148680,1,0,0:0:0:0:
288,192,148842,1,8,0:0:0:0:
288,192,149166,1,0,0:0:0:0:
288,192,149329,1,0,0:0:0:0:
288,192,149491,1,8,0:0:0:0:
288,192,149653,1,0,0:0:0:0:
288,192,149977,1,0,0:0:0:0:
288,192,150139,1,8,0:0:0:0:
288,192,150302,1,0,0:0:0:0:
288,192,150626,1,8,0:0:0:0:
288,192,150788,1,8,0:0:0:0:
288,192,150950,1,0,0:0:0:0:
288,192,151031,1,0,0:0:0:0:
288,192,151112,1,8,0:0:0:0:
288,192,151274,1,8,0:0:0:0:
288,192,151356,1,8,0:0:0:0:
288,192,151437,1,0,0:0:0:0:
288,192,151518,1,0,0:0:0:0:
288,192,151599,1,8,0:0:0:0:
288,192,151761,1,4,0:0:0:0:
256,192,152085,1,8,0:0:0:0:
256,192,152247,1,0,0:0:0:0:
256,192,152410,1,0,0:0:0:0:
256,192,152572,1,0,0:0:0:0:
256,192,152734,1,8,0:0:0:0:
256,192,152815,1,0,0:0:0:0:
256,192,152896,1,0,0:0:0:0:
256,192,153058,1,0,0:0:0:0:
256,192,153220,1,0,0:0:0:0:
256,192,153383,1,8,0:0:0:0:
256,192,153545,1,0,0:0:0:0:
256,192,153626,1,0,0:0:0:0:
256,192,153707,1,0,0:0:0:0:
256,192,153869,1,0,0:0:0:0:
256,192,154031,1,8,0:0:0:0:
256,192,154356,1,8,0:0:0:0:
256,192,154518,1,0,0:0:0:0:
256,192,154680,1,8,0:0:0:0:
256,192,155004,1,0,0:0:0:0:
256,192,155166,1,0,0:0:0:0:
256,192,155329,1,8,0:0:0:0:
256,192,155491,1,8,0:0:0:0:
256,192,155572,1,8,0:0:0:0:
256,192,155653,1,0,0:0:0:0:
256,192,155815,1,0,0:0:0:0:
256,192,155977,1,8,0:0:0:0:
256,192,156139,1,0,0:0:0:0:
256,192,156464,1,8,0:0:0:0:
256,192,156626,1,0,0:0:0:0:
256,192,156788,1,8,0:0:0:0:
256,192,156869,1,8,0:0:0:0:
256,192,156950,1,0,0:0:0:0:
256,192,157274,1,8,0:0:0:0:
256,192,157437,1,0,0:0:0:0:
256,192,157599,1,8,0:0:0:0:
256,192,157923,1,0,0:0:0:0:
256,192,158085,1,8,0:0:0:0:
256,192,158247,1,0,0:0:0:0:
288,192,158572,1,0,0:0:0:0:
288,192,158734,1,0,0:0:0:0:
288,192,158896,1,8,0:0:0:0:
288,192,159058,1,0,0:0:0:0:
288,192,159220,1,8,0:0:0:0:
288,192,159545,1,8,0:0:0:0:
288,192,159707,1,8,0:0:0:0:
288,192,159869,1,0,0:0:0:0:
288,192,160031,1,0,0:0:0:0:
288,192,160193,1,8,0:0:0:0:
288,192,160518,1,0,0:0:0:0:
256,192,160680,1,8,0:0:0:0:
288,192,160842,1,0,0:0:0:0:
288,192,161004,1,8,0:0:0:0:
288,192,161166,1,0,0:0:0:0:
288,192,161329,1,0,0:0:0:0:
288,192,161491,1,8,0:0:0:0:
288,192,161653,1,0,0:0:0:0:
288,192,161815,1,8,0:0:0:0:
288,192,162139,1,8,0:0:0:0:
288,192,162302,1,0,0:0:0:0:
288,192,162383,1,0,0:0:0:0:
288,192,162464,1,0,0:0:0:0:
288,192,162626,1,8,0:0:0:0:
282,197,162788,1,0,0:0:0:0:
288,192,162869,1,0,0:0:0:0:
283,197,162950,1,0,0:0:0:0:
288,192,163031,1,0,0:0:0:0:
288,192,163112,1,8,0:0:0:0:
286,197,163274,1,0,0:0:0:0:
287,197,163437,1,8,0:0:0:0:
287,197,163599,1,0,0:0:0:0:
288,198,163680,1,0,0:0:0:0:
288,198,163761,1,0,0:0:0:0:
290,198,163923,1,8,0:0:0:0:
290,198,164085,1,0,0:0:0:0:
286,197,164166,1,0,0:0:0:0:
288,192,164247,1,0,0:0:0:0:
288,192,164329,1,0,0:0:0:0:
291,198,164410,1,8,0:0:0:0:
295,199,164572,1,0,0:0:0:0:
300,198,164653,1,0,0:0:0:0:
300,198,164734,1,8,0:0:0:0:
300,198,164896,1,0,0:0:0:0:
300,198,165058,1,0,0:0:0:0:
300,198,165220,1,0,0:0:0:0:
301,198,165383,1,8,0:0:0:0:
287,197,165545,1,8,0:0:0:0:
287,197,165707,1,8,0:0:0:0:
287,197,165869,1,0,0:0:0:0:
256,192,166031,1,8,0:0:0:0:
256,192,167329,1,12,0:0:0:0:
256,192,167653,1,0,0:0:0:0:
256,192,167815,1,8,0:0:0:0:
256,192,167977,1,8,0:0:0:0:
256,192,168139,1,0,0:0:0:0:
256,192,168302,1,12,0:0:0:0:
256,192,168626,1,0,0:0:0:0:
256,192,168788,1,8,0:0:0:0:
256,192,168950,1,8,0:0:0:0:
256,192,169112,1,0,0:0:0:0:
256,192,169274,1,8,0:0:0:0:
256,192,169437,1,0,0:0:0:0:
256,192,169518,1,0,0:0:0:0:
256,192,169599,1,12,0:0:0:0:
256,192,169923,1,8,0:0:0:0:
256,192,170085,1,0,0:0:0:0:
256,192,170247,1,8,0:0:0:0:
256,192,170410,1,0,0:0:0:0:
256,192,170734,1,4,0:0:0:0:
256,192,171058,1,0,0:0:0:0:
256,192,171220,1,8,0:0:0:0:
256,192,171383,1,8,0:0:0:0:
288,192,171545,1,0,0:0:0:0:
288,192,171707,1,8,0:0:0:0:
288,192,171788,1,8,0:0:0:0:
288,192,171869,1,0,0:0:0:0:
288,192,171950,1,0,0:0:0:0:
288,192,172031,1,8,0:0:0:0:
288,192,172193,1,4,0:0:0:0:
288,192,172356,1,0,0:0:0:0:
288,192,172518,1,8,0:0:0:0:
256,192,172842,1,0,0:0:0:0:
256,192,173004,1,0,0:0:0:0:
256,192,173166,1,8,0:0:0:0:
256,192,173329,1,0,0:0:0:0:
256,192,173653,1,0,0:0:0:0:
256,192,173815,1,8,0:0:0:0:
256,192,173977,1,8,0:0:0:0:
256,192,174139,1,0,0:0:0:0:
256,192,174302,1,8,0:0:0:0:
256,192,174626,1,4,0:0:0:0:
256,192,174950,1,0,0:0:0:0:
256,192,175112,1,8,0:0:0:0:
256,192,175274,1,8,0:0:0:0:
256,192,175437,1,0,0:0:0:0:
256,192,175599,1,0,0:0:0:0:
256,192,175761,1,8,0:0:0:0:
256,192,175923,1,8,0:0:0:0:
256,192,176004,1,0,0:0:0:0:
256,192,176085,1,0,0:0:0:0:
256,192,176247,1,0,0:0:0:0:
256,192,176410,1,8,0:0:0:0:
256,192,176572,1,8,0:0:0:0:
256,192,176653,1,8,0:0:0:0:
256,192,176734,1,0,0:0:0:0:
256,192,176896,1,8,0:0:0:0:
256,192,177058,1,8,0:0:0:0:
256,192,177220,1,0,0:0:0:0:
256,192,177545,1,0,0:0:0:0:
256,192,177707,1,8,0:0:0:0:
256,192,177869,1,0,0:0:0:0:
256,192,177950,1,8,0:0:0:0:
256,192,178031,1,8,0:0:0:0:
256,192,178193,1,0,0:0:0:0:
256,192,178356,1,8,0:0:0:0:
256,192,178518,1,0,0:0:0:0:
256,192,178842,1,8,0:0:0:0:
256,192,179004,1,8,0:0:0:0:
256,192,179166,1,0,0:0:0:0:
256,192,179329,1,8,0:0:0:0:
256,192,179410,1,8,0:0:0:0:
256,192,179491,1,0,0:0:0:0:
256,192,179572,1,0,0:0:0:0:
256,192,179653,1,0,0:0:0:0:
256,192,179815,1,8,0:0:0:0:
256,192,180139,1,0,0:0:0:0:
256,192,180302,1,8,0:0:0:0:
256,192,180464,1,0,0:0:0:0:
256,192,180626,1,0,0:0:0:0:
256,192,180788,1,8,0:0:0:0:
256,192,180950,1,8,0:0:0:0:
256,192,181112,1,0,0:0:0:0:
256,192,181437,1,8,0:0:0:0:
256,192,181599,1,8,0:0:0:0:
256,192,181761,1,0,0:0:0:0:
256,192,181842,1,0,0:0:0:0:
256,192,181923,1,8,0:0:0:0:
256,192,182085,1,0,0:0:0:0:
256,192,182166,1,0,0:0:0:0:
256,192,182247,1,8,0:0:0:0:
256,192,182329,1,0,0:0:0:0:
256,192,182410,1,8,0:0:0:0:
256,192,182572,1,4,0:0:0:0:
256,192,182896,1,8,0:0:0:0:
256,192,183220,1,0,0:0:0:0:
256,192,183383,1,0,0:0:0:0:
256,192,183545,1,8,0:0:0:0:
256,192,183869,1,0,0:0:0:0:
256,192,184031,1,0,0:0:0:0:
256,192,184193,1,8,0:0:0:0:
256,192,184356,1,8,0:0:0:0:
256,192,184437,1,0,0:0:0:0:
256,192,184518,1,0,0:0:0:0:
256,192,184680,1,0,0:0:0:0:
256,192,184842,1,8,0:0:0:0:
256,192,185004,1,0,0:0:0:0:
256,192,185329,1,0,0:0:0:0:
256,192,185491,1,8,0:0:0:0:
256,192,185653,1,0,0:0:0:0:
256,192,185815,1,8,0:0:0:0:
256,192,185896,1,8,0:0:0:0:
256,192,185977,1,0,0:0:0:0:
256,192,186139,1,8,0:0:0:0:
256,192,186301,1,4,0:0:0:0:
256,192,186626,1,0,0:0:0:0:
256,192,186788,1,8,0:0:0:0:
256,192,186950,1,4,0:0:0:0:
256,192,187274,1,8,0:0:0:0:
256,192,187437,1,0,0:0:0:0:
256,192,187599,1,4,0:0:0:0:
256,192,187923,1,0,0:0:0:0:
256,192,188085,1,0,0:0:0:0:
288,192,188247,1,0,0:0:0:0:
288,192,188410,1,8,0:0:0:0:
256,192,188572,1,0,0:0:0:0:
256,192,188734,1,0,0:0:0:0:
256,192,188896,1,12,0:0:0:0:
256,192,189220,1,8,0:0:0:0:
256,192,189383,1,0,0:0:0:0:
256,192,189464,1,0,0:0:0:0:
256,192,189545,1,0,0:0:0:0:
256,192,189707,1,8,0:0:0:0:
256,192,189869,1,0,0:0:0:0:
256,192,190031,1,8,0:0:0:0:
256,192,190193,1,4,0:0:0:0:
256,192,190680,1,8,0:0:0:0:
256,192,190842,1,0,0:0:0:0:
256,192,191004,1,0,0:0:0:0:
256,192,191166,1,8,0:0:0:0:
256,192,191491,1,0,0:0:0:0:
256,192,192301,1,8,0:0:0:0:
256,192,192464,1,0,0:0:0:0:
256,192,192626,1,8,0:0:0:0:
256,192,192788,1,4,0:0:0:0:
256,192,193274,1,8,0:0:0:0:
256,192,193437,1,0,0:0:0:0:
256,192,193518,1,0,0:0:0:0:
256,192,193599,1,8,0:0:0:0:
256,192,193761,1,0,0:0:0:0:
256,192,193923,1,8,0:0:0:0:
256,192,194085,1,0,0:0:0:0:
256,192,194166,1,0,0:0:0:0:
256,192,194247,1,8,0:0:0:0:
256,192,194329,1,8,0:0:0:0:
256,192,194410,1,0,0:0:0:0:
256,192,194572,1,8,0:0:0:0:
256,192,194734,1,0,0:0:0:0:
256,192,195058,1,0,0:0:0:0:
256,192,195220,1,8,0:0:0:0:
256,192,195383,1,8,0:0:0:0:
256,192,195545,1,0,0:0:0:0:
256,192,195707,1,0,0:0:0:0:
256,192,195788,1,0,0:0:0:0:
256,192,195869,1,8,0:0:0:0:
256,192,196031,1,0,0:0:0:0:
256,192,196193,1,8,0:0:0:0:
256,192,196356,1,0,0:0:0:0:
256,192,196518,1,8,0:0:0:0:
256,192,196680,1,8,0:0:0:0:
256,192,196761,1,0,0:0:0:0:
256,192,196842,1,8,0:0:0:0:
256,192,196923,1,8,0:0:0:0:
256,192,197004,1,0,0:0:0:0:
256,192,197166,1,8,0:0:0:0:
256,192,197329,1,0,0:0:0:0:
256,192,197410,1,0,0:0:0:0:
256,192,197491,1,0,0:0:0:0:
256,192,197653,1,0,0:0:0:0:
256,192,197815,1,8,0:0:0:0:
256,192,197977,1,0,0:0:0:0:
256,192,198464,1,8,0:0:0:0:
256,192,198626,1,0,0:0:0:0:
256,192,198788,1,8,0:0:0:0:
256,192,198950,1,0,0:0:0:0:
256,192,199031,1,0,0:0:0:0:
256,192,199112,1,8,0:0:0:0:
256,192,199274,1,0,0:0:0:0:
256,192,199437,1,8,0:0:0:0:
256,192,199599,1,0,0:0:0:0:
256,192,199761,1,8,0:0:0:0:
256,192,199923,1,8,0:0:0:0:
256,192,200004,1,8,0:0:0:0:
256,192,200085,1,0,0:0:0:0:
256,192,200166,1,0,0:0:0:0:
256,192,200247,1,0,0:0:0:0:
256,192,200410,1,8,0:0:0:0:
256,192,200572,1,0,0:0:0:0:
256,192,200896,1,0,0:0:0:0:
256,192,201058,1,8,0:0:0:0:
256,192,201220,1,0,0:0:0:0:
256,192,201383,1,8,0:0:0:0:
256,192,201545,1,8,0:0:0:0:
256,192,201626,1,8,0:0:0:0:
256,192,201707,1,0,0:0:0:0:
256,192,201869,1,0,0:0:0:0:
256,192,202031,1,8,0:0:0:0:
256,192,202193,1,0,0:0:0:0:
256,192,202356,1,8,0:0:0:0:
256,192,202518,1,0,0:0:0:0:
256,192,202599,1,0,0:0:0:0:
256,192,202680,1,8,0:0:0:0:
256,192,202842,1,0,0:0:0:0:
256,192,202923,1,0,0:0:0:0:
256,192,203004,1,8,0:0:0:0:
256,192,203166,1,8,0:0:0:0:
256,192,203329,1,4,0:0:0:0:
256,192,205761,1,0,0:0:0:0:
256,192,205923,1,8,0:0:0:0:
256,192,207220,1,8,0:0:0:0:
256,192,207707,1,8,0:0:0:0:
256,192,208031,1,8,0:0:0:0:
256,192,208518,1,4,0:0:0:0:
256,192,210301,5,0,0:0:0:0:
256,192,210383,1,0,0:0:0:0:
256,192,210464,1,0,0:0:0:0:
256,192,210626,1,0,0:0:0:0:
256,192,210788,1,0,0:0:0:0:
256,192,210950,1,0,0:0:0:0:
256,192,211112,1,4,0:0:0:0:
256,192,211599,1,0,0:0:0:0:
256,192,211761,1,8,0:0:0:0:
256,192,211923,1,0,0:0:0:0:
256,192,212247,1,0,0:0:0:0:
256,192,212410,1,0,0:0:0:0:
256,192,212572,1,0,0:0:0:0:
256,192,212734,1,8,0:0:0:0:
256,192,212896,1,0,0:0:0:0:
256,192,213058,1,8,0:0:0:0:
256,192,213220,1,0,0:0:0:0:
256,192,213383,1,8,0:0:0:0:
256,192,213707,1,12,0:0:0:0:
256,192,214193,1,0,0:0:0:0:
256,192,214356,1,8,0:0:0:0:
256,192,214518,1,8,0:0:0:0:
256,192,214680,1,0,0:0:0:0:
256,192,214842,1,4,0:0:0:0:
256,192,215166,1,0,0:0:0:0:
256,192,215329,1,8,0:0:0:0:
256,192,215491,1,0,0:0:0:0:
256,192,215653,1,0,0:0:0:0:
256,192,215734,1,0,0:0:0:0:
256,192,215815,1,8,0:0:0:0:
256,192,215977,1,8,0:0:0:0:
256,192,216139,1,0,0:0:0:0:
256,192,216301,1,4,0:0:0:0:
256,192,219545,1,8,0:0:0:0:
256,192,219707,1,0,0:0:0:0:
256,192,219788,1,0,0:0:0:0:
256,192,219869,1,8,0:0:0:0:
256,192,220031,1,4,0:0:0:0:
256,192,220356,1,0,0:0:0:0:
256,192,220518,1,8,0:0:0:0:
256,192,220680,1,4,0:0:0:0:
256,192,221004,1,0,0:0:0:0:
256,192,221166,1,8,0:0:0:0:
256,192,221329,1,0,0:0:0:0:
256,192,221491,1,0,0:0:0:0:
256,192,221815,1,0,0:0:0:0:
256,192,222139,1,8,0:0:0:0:
256,192,222301,1,0,0:0:0:0:
256,192,222464,1,0,0:0:0:0:
256,192,222626,1,8,0:0:0:0:
256,192,222788,1,0,0:0:0:0:
256,192,223112,1,8,0:0:0:0:
256,192,223274,1,0,0:0:0:0:
256,192,223599,1,0,0:0:0:0:
256,192,223761,1,8,0:0:0:0:
256,192,224085,1,8,0:0:0:0:
256,192,224410,1,0,0:0:0:0:
256,192,224572,1,8,0:0:0:0:
256,192,224734,1,0,0:0:0:0:
256,192,224896,1,8,0:0:0:0:
256,192,225220,1,8,0:0:0:0:
256,192,225383,1,0,0:0:0:0:
256,192,225707,1,0,0:0:0:0:
256,192,226031,1,8,0:0:0:0:
256,192,226193,1,0,0:0:0:0:
256,192,226356,1,8,0:0:0:0:
256,192,226518,1,0,0:0:0:0:
256,192,226599,1,0,0:0:0:0:
256,192,226680,1,0,0:0:0:0:
256,192,227004,1,0,0:0:0:0:
256,192,227166,1,8,0:0:0:0:
256,192,227329,1,0,0:0:0:0:
256,192,227491,1,8,0:0:0:0:
256,192,227653,1,8,0:0:0:0:
256,192,227977,1,0,0:0:0:0:
256,192,228301,1,0,0:0:0:0:
256,192,228464,1,8,0:0:0:0:
256,192,228626,1,0,0:0:0:0:
256,192,228788,1,0,0:0:0:0:
256,192,228950,1,8,0:0:0:0:
256,192,229112,1,8,0:0:0:0:
256,192,229274,1,0,0:0:0:0:
256,192,229599,1,0,0:0:0:0:
256,192,229761,1,8,0:0:0:0:
256,192,229923,1,0,0:0:0:0:
288,192,230085,1,8,0:0:0:0:
288,192,230247,1,8,0:0:0:0:
256,192,230410,1,8,0:0:0:0:
259,184,230572,1,0,0:0:0:0:
256,192,230734,1,0,0:0:0:0:
256,192,230896,1,0,0:0:0:0:
256,192,231058,1,8,0:0:0:0:
256,192,231220,1,0,0:0:0:0:
256,192,231545,1,8,0:0:0:0:
256,192,231707,1,8,0:0:0:0:
256,192,231788,1,8,0:0:0:0:
256,192,231869,1,0,0:0:0:0:
256,192,232193,1,0,0:0:0:0:
256,192,232356,1,8,0:0:0:0:
256,192,232518,1,0,0:0:0:0:
256,192,232680,1,8,0:0:0:0:
256,192,232842,1,8,0:0:0:0:
256,192,233004,1,8,0:0:0:0:
256,192,233085,1,8,0:0:0:0:
256,192,233166,1,0,0:0:0:0:
256,192,233491,1,0,0:0:0:0:
256,192,233815,1,0,0:0:0:0:
256,192,234139,1,8,0:0:0:0:
256,192,234301,1,8,0:0:0:0:
256,192,234383,1,8,0:0:0:0:
256,192,234464,1,8,0:0:0:0:
256,192,234788,1,0,0:0:0:0:
256,192,234950,1,0,0:0:0:0:
256,192,235112,1,0,0:0:0:0:
256,192,235274,1,0,0:0:0:0:
256,192,235437,1,0,0:0:0:0:
256,192,235599,1,0,0:0:0:0:
256,192,235761,1,8,0:0:0:0:
256,192,235923,1,8,0:0:0:0:
256,192,236085,1,8,0:0:0:0:
256,192,236247,1,8,0:0:0:0:
256,192,236410,1,8,0:0:0:0:
256,192,236572,1,8,0:0:0:0:
256,192,236653,1,8,0:0:0:0:
256,192,236734,1,0,0:0:0:0:
256,192,236815,1,0,0:0:0:0:
256,192,236896,1,8,0:0:0:0:
256,192,237058,1,4,0:0:0:0:
256,192,237383,1,8,0:0:0:0:
256,192,237545,1,8,0:0:0:0:
256,192,237707,1,0,0:0:0:0:
256,192,237869,1,0,0:0:0:0:
256,192,238031,1,8,0:0:0:0:
256,192,238112,1,0,0:0:0:0:
256,192,238193,1,0,0:0:0:0:
256,192,238356,1,0,0:0:0:0:
256,192,238518,1,0,0:0:0:0:
256,192,238680,1,8,0:0:0:0:
256,192,238842,1,0,0:0:0:0:
256,192,238923,1,0,0:0:0:0:
256,192,239004,1,0,0:0:0:0:
256,192,239166,1,0,0:0:0:0:
256,192,239329,1,8,0:0:0:0:
256,192,239653,1,8,0:0:0:0:
256,192,239815,1,0,0:0:0:0:
256,192,239977,1,8,0:0:0:0:
256,192,240301,1,0,0:0:0:0:
256,192,240464,1,0,0:0:0:0:
256,192,240626,1,8,0:0:0:0:
256,192,240788,1,8,0:0:0:0:
256,192,240869,1,8,0:0:0:0:
256,192,240950,1,0,0:0:0:0:
256,192,241112,1,0,0:0:0:0:
256,192,241274,1,8,0:0:0:0:
256,192,241437,1,8,0:0:0:0:
256,192,241518,1,0,0:0:0:0:
256,192,241599,1,0,0:0:0:0:
261,191,241680,1,0,0:0:0:0:
256,192,241761,1,8,0:0:0:0:
256,192,241923,1,8,0:0:0:0:
256,192,242085,1,8,0:0:0:0:
256,192,242247,1,0,0:0:0:0:
256,192,242572,1,8,0:0:0:0:
256,192,242896,1,0,0:0:0:0:
256,192,243058,1,0,0:0:0:0:
256,160,243220,1,8,0:0:0:0:
256,192,243383,1,8,0:0:0:0:
256,192,243464,1,0,0:0:0:0:
256,192,243545,1,0,0:0:0:0:
288,192,243707,1,0,0:0:0:0:
256,192,243869,1,8,0:0:0:0:
256,192,244031,1,8,0:0:0:0:
256,192,244193,1,0,0:0:0:0:
288,192,244356,1,0,0:0:0:0:
288,192,244518,1,8,0:0:0:0:
288,192,244842,1,0,0:0:0:0:
288,192,245004,1,0,0:0:0:0:
288,192,245166,1,8,0:0:0:0:
288,192,245329,1,0,0:0:0:0:
288,192,245653,1,0,0:0:0:0:
288,192,245815,1,8,0:0:0:0:
288,192,245977,1,0,0:0:0:0:
288,192,246301,1,8,0:0:0:0:
288,192,246464,1,8,0:0:0:0:
288,192,246626,1,0,0:0:0:0:
288,192,246707,1,0,0:0:0:0:
288,192,246788,1,8,0:0:0:0:
256,192,246869,1,0,0:0:0:0:
288,192,246950,1,8,0:0:0:0:
288,192,247112,1,0,0:0:0:0:
288,192,247193,1,0,0:0:0:0:
288,192,247274,1,8,0:0:0:0:
288,192,247356,1,8,0:0:0:0:
288,192,247437,1,4,0:0:0:0:
256,192,247761,1,8,0:0:0:0:
256,192,247923,1,0,0:0:0:0:
256,192,248085,1,0,0:0:0:0:
256,192,248247,1,0,0:0:0:0:
256,192,248410,1,8,0:0:0:0:
256,192,248491,1,0,0:0:0:0:
256,192,248572,1,0,0:0:0:0:
256,192,248734,1,0,0:0:0:0:
256,192,248896,1,0,0:0:0:0:
256,192,249058,1,8,0:0:0:0:
256,192,249220,1,0,0:0:0:0:
256,192,249301,1,0,0:0:0:0:
256,192,249383,1,0,0:0:0:0:
256,192,249545,1,0,0:0:0:0:
256,192,249707,1,8,0:0:0:0:
256,192,250031,1,8,0:0:0:0:
256,192,250193,1,0,0:0:0:0:
256,192,250356,1,8,0:0:0:0:
256,192,250680,1,0,0:0:0:0:
256,192,250842,1,0,0:0:0:0:
256,192,251004,1,8,0:0:0:0:
256,192,251166,1,8,0:0:0:0:
256,192,251247,1,8,0:0:0:0:
256,192,251329,1,0,0:0:0:0:
256,192,251491,1,0,0:0:0:0:
256,192,251653,1,8,0:0:0:0:
256,192,251815,1,0,0:0:0:0:
256,192,252139,1,8,0:0:0:0:
256,192,252301,1,0,0:0:0:0:
256,192,252464,1,8,0:0:0:0:
256,192,252545,1,8,0:0:0:0:
256,192,252626,1,0,0:0:0:0:
256,192,252950,1,8,0:0:0:0:
256,192,253112,1,0,0:0:0:0:
256,192,253274,1,8,0:0:0:0:
256,192,253599,1,0,0:0:0:0:
256,192,253761,1,8,0:0:0:0:
256,192,253923,1,0,0:0:0:0:
288,192,254247,1,0,0:0:0:0:
288,192,254410,1,0,0:0:0:0:
288,192,254572,1,8,0:0:0:0:
288,192,254734,1,0,0:0:0:0:
288,192,254896,1,8,0:0:0:0:
256,192,255058,1,8,0:0:0:0:
288,192,255220,1,0,0:0:0:0:
288,192,255383,1,0,0:0:0:0:
288,192,255545,1,8,0:0:0:0:
288,192,255707,1,0,0:0:0:0:
288,192,255869,1,8,0:0:0:0:
288,192,256193,1,0,0:0:0:0:
256,192,256356,1,8,0:0:0:0:
288,192,256518,1,0,0:0:0:0:
288,192,256680,1,8,0:0:0:0:
288,192,256842,1,0,0:0:0:0:
288,192,257004,1,0,0:0:0:0:
288,192,257166,1,8,0:0:0:0:
288,192,257329,1,0,0:0:0:0:
288,192,257491,1,8,0:0:0:0:
288,192,257653,1,8,0:0:0:0:
288,192,257815,1,0,0:0:0:0:
288,192,258139,1,8,0:0:0:0:
288,192,258301,1,0,0:0:0:0:
288,192,258464,1,8,0:0:0:0:
288,192,258626,1,0,0:0:0:0:
288,192,258950,1,0,0:0:0:0:
288,192,259031,1,0,0:0:0:0:
288,192,259112,1,0,0:0:0:0:
256,192,259329,1,0,0:0:0:0:
256,192,259545,1,0,0:0:0:0:
288,192,259761,1,8,0:0:0:0:
256,192,259923,1,8,0:0:0:0:
256,192,260085,1,0,0:0:0:0:
256,192,260247,1,8,0:0:0:0:
256,192,260410,1,0,0:0:0:0:
256,192,260653,1,0,0:0:0:0:
256,192,260734,1,8,0:0:0:0:
256,192,260896,1,0,0:0:0:0:
256,192,261058,1,8,0:0:0:0:
256,192,261220,1,8,0:0:0:0:
256,192,261383,1,0,0:0:0:0:
256,192,261545,1,8,0:0:0:0:
256,192,261707,1,8,0:0:0:0:
256,192,261788,1,8,0:0:0:0:
256,192,261869,1,0,0:0:0:0:
256,192,262031,1,0,0:0:0:0:
256,192,262193,1,0,0:0:0:0:
256,192,262356,1,8,0:0:0:0:
256,192,262518,1,8,0:0:0:0:
256,192,262680,1,0,0:0:0:0:
256,192,262842,1,8,0:0:0:0:
288,192,263004,1,0,0:0:0:0:
288,192,263166,1,0,0:0:0:0:
288,192,263247,1,0,0:0:0:0:
288,192,263329,1,0,0:0:0:0:
288,192,263491,1,8,0:0:0:0:
282,197,263653,1,0,0:0:0:0:
288,192,263734,1,0,0:0:0:0:
283,197,263815,1,0,0:0:0:0:
288,192,263896,1,0,0:0:0:0:
288,192,263977,1,8,0:0:0:0:
286,197,264139,1,0,0:0:0:0:
287,197,264301,1,8,0:0:0:0:
287,197,264464,1,0,0:0:0:0:
288,198,264545,1,0,0:0:0:0:
288,198,264626,1,0,0:0:0:0:
290,198,264788,1,8,0:0:0:0:
290,198,264950,1,0,0:0:0:0:
286,197,265031,1,0,0:0:0:0:
288,192,265112,1,0,0:0:0:0:
288,192,265193,1,0,0:0:0:0:
291,198,265274,1,8,0:0:0:0:
295,199,265437,1,0,0:0:0:0:
300,198,265518,1,0,0:0:0:0:
300,198,265599,1,8,0:0:0:0:
300,198,265761,1,0,0:0:0:0:
300,198,265923,1,8,0:0:0:0:
300,198,266085,1,0,0:0:0:0:
301,198,266247,1,8,0:0:0:0:
287,197,266410,1,8,0:0:0:0:
287,197,266572,1,8,0:0:0:0:
192,192,266734,1,0,0:0:0:0:
192,192,266896,1,8,0:0:0:0:
256,192,268193,1,4,0:0:0:0:
256,192,268518,1,0,0:0:0:0:
256,192,268680,1,8,0:0:0:0:
256,192,268842,1,0,0:0:0:0:
256,192,269004,1,0,0:0:0:0:
256,192,269166,1,8,0:0:0:0:
256,192,269491,1,0,0:0:0:0:
256,192,269815,1,0,0:0:0:0:
256,192,269977,1,8,0:0:0:0:
256,192,270139,1,0,0:0:0:0:
256,192,270301,1,8,0:0:0:0:
256,192,270464,1,8,0:0:0:0:
256,192,270788,1,4,0:0:0:0:
256,192,271112,1,8,0:0:0:0:
256,192,271274,1,0,0:0:0:0:
256,192,271437,1,8,0:0:0:0:
256,192,271599,1,0,0:0:0:0:
256,192,271761,1,8,0:0:0:0:
256,192,272085,1,8,0:0:0:0:
256,192,272247,1,8,0:0:0:0:
256,192,272410,1,0,0:0:0:0:
256,192,272572,1,0,0:0:0:0:
256,192,272734,1,8,0:0:0:0:
256,192,272896,1,8,0:0:0:0:
256,192,273058,1,8,0:0:0:0:
256,192,273220,1,0,0:0:0:0:
256,192,273301,1,0,0:0:0:0:
256,192,273383,1,12,0:0:0:0:
256,192,273707,1,0,0:0:0:0:
256,192,273869,1,8,0:0:0:0:
256,192,274031,1,0,0:0:0:0:
256,192,274193,1,8,0:0:0:0:
256,192,274356,1,0,0:0:0:0:
256,192,274680,1,12,0:0:0:0:
256,192,275004,1,0,0:0:0:0:
256,192,275166,1,8,0:0:0:0:
256,192,275329,1,0,0:0:0:0:
256,192,275491,1,8,0:0:0:0:
256,192,275653,1,8,0:0:0:0:
256,192,275977,1,12,0:0:0:0:
256,192,276301,1,0,0:0:0:0:
256,192,276464,1,8,0:0:0:0:
256,192,276626,1,0,0:0:0:0:
256,192,276950,1,8,0:0:0:0:
256,192,277274,1,0,0:0:0:0:
256,192,277599,1,8,0:0:0:0:
256,192,277761,1,0,0:0:0:0:
256,192,277923,1,8,0:0:0:0:
256,192,278085,1,0,0:0:0:0:
256,192,278247,1,8,0:0:0:0:
256,192,278410,1,8,0:0:0:0:
256,192,278491,1,8,0:0:0:0:
256,192,278572,1,0,0:0:0:0:
256,192,279707,1,8,0:0:0:0:
256,192,279788,1,8,0:0:0:0:
256,192,279869,1,0,0:0:0:0:
256,192,280356,1,8,0:0:0:0:
256,192,280842,1,0,0:0:0:0:
256,192,281166,1,12,0:0:0:0:
256,192,282301,1,8,0:0:0:0:
256,192,282383,1,8,0:0:0:0:
256,192,282464,1,8,0:0:0:0:
256,192,283112,1,8,0:0:0:0:
256,192,283761,1,4,0:0:0:0:
256,192,284085,1,0,0:0:0:0:
256,192,284247,1,8,0:0:0:0:
256,192,284410,1,0,0:0:0:0:
256,192,284572,1,8,0:0:0:0:
256,192,284734,1,8,0:0:0:0:
288,192,284896,1,4,0:0:0:0:
288,192,285383,1,0,0:0:0:0:
288,192,285545,1,0,0:0:0:0:
288,192,285707,1,0,0:0:0:0:
288,192,285869,1,8,0:0:0:0:
288,192,286031,1,8,0:0:0:0:
288,192,286193,1,8,0:0:0:0:
256,192,287004,1,4,0:0:0:0:
256,192,287166,12,4,291869,0:0:0:0:
