osu file format v14

[General]
AudioFilename: audio.mp3
AudioLeadIn: 0
PreviewTime: 215815
Countdown: 0
SampleSet: Soft
StackLeniency: 0.7
Mode: 3
LetterboxInBreaks: 0
SpecialStyle: 0
WidescreenStoryboard: 1

[Editor]
DistanceSpacing: 1
BeatDivisor: 16
GridSize: 32
TimelineZoom: 2.7

[Metadata]
Title:Hoshikuzu Orchestra
TitleUnicode:星屑オーケストラ
Artist:HAG
ArtistUnicode:H△G
Creator:Reed_405
Version:Lita's Stardust Orchestra
Source:
Tags:Japanese chiho ハグ hagu vocaloid cover album pop jpop j-pop mili full ver ハヤブサ Hayabusa 声 Koe ~VOCALOID Album~ Faputa Lita- Stelar Kanon Matsubara
BeatmapID:3037760
BeatmapSetID:1221676

[Difficulty]
HPDrainRate:8
CircleSize:4
OverallDifficulty:8
ApproachRate:5
SliderMultiplier:1.4
SliderTickRate:1

[Events]
//Background and Video events
0,0,"bg1.jpg",0,0
//Break Periods
//Storyboard Layer 0 (Background)
//Storyboard Layer 1 (Fail)
//Storyboard Layer 2 (Pass)
//Storyboard Layer 3 (Foreground)
//Storyboard Layer 4 (Overlay)
//Storyboard Sound Samples

[TimingPoints]
1275,324.324324324324,4,2,1,70,1,0
22031,-100,4,2,2,50,0,0
32410,-100,4,2,1,60,0,0
42788,-100,4,2,1,65,0,0
53166,-100,4,2,1,50,0,0
58356,-100,4,2,1,60,0,0
63545,-100,4,2,1,75,0,1
84302,-100,4,2,1,40,0,0
87220,-100,4,2,1,30,0,0
87545,-100,4,2,1,40,0,0
87869,-100,4,2,1,50,0,0
89491,-100,4,2,1,70,0,0
110247,-100,4,2,1,60,0,0
120626,-100,4,2,1,65,0,0
131004,-100,4,2,1,50,0,0
136193,-100,4,2,1,60,0,0
141383,-100,4,2,1,75,0,1
162139,-100,4,2,1,40,0,0
165058,-100,4,2,1,30,0,0
165383,-100,4,2,1,40,0,0
165707,-100,4,2,1,50,0,0
167329,-100,4,2,1,60,0,0
168302,324.324324324324,4,2,1,60,1,0
192950,-100,4,2,1,40,0,0
203329,-100,4,2,1,50,0,0
211112,-100,4,2,1,60,0,0
234788,-100,4,2,1,30,0,0
235761,-100,4,2,1,40,0,0
236410,-100,4,2,1,50,0,0
237058,-100,4,2,1,75,0,1
263004,-100,4,2,1,40,0,0
265923,-100,4,2,1,30,0,0
266247,-100,4,2,1,40,0,0
266572,-100,4,2,1,50,0,0
268193,-100,4,2,1,70,0,0
285383,-100,4,2,1,30,0,0
285707,-100,4,2,1,40,0,0
286031,-100,4,2,1,50,0,0
287004,-100,4,2,1,60,0,0

[HitObjects]
64,192,1275,5,2,0:0:0:0:
192,192,1275,1,4,0:0:0:0:
448,192,1275,128,0,2572:0:0:0:0:
64,192,2572,1,2,0:0:0:0:
192,192,2572,128,4,3869:0:0:0:0:
320,192,2572,1,0,0:0:0:0:
64,192,3869,1,2,0:0:0:0:
320,192,3869,128,4,5004:0:0:0:0:
448,192,3869,1,0,0:0:0:0:
64,192,5004,128,2,5653:0:0:0:0:
192,192,5004,1,4,0:0:0:0:
448,192,5004,1,0,0:0:0:0:
192,192,5653,1,2,0:0:0:0:
320,192,5653,1,4,0:0:0:0:
448,192,5653,128,0,6302:0:0:0:0:
64,192,6302,128,2,6788:0:0:0:0:
192,192,6302,1,4,0:0:0:0:
320,192,6302,1,0,0:0:0:0:
320,192,6788,1,2,0:0:0:0:
448,192,6788,1,0,0:0:0:0:
448,192,6950,1,0,0:0:0:0:
192,192,7112,1,2,0:0:0:0:
320,192,7112,1,0,0:0:0:0:
192,192,7274,1,0,0:0:0:0:
64,192,7437,1,2,0:0:0:0:
320,192,7437,1,0,0:0:0:0:
320,192,7599,1,0,0:0:0:0:
64,192,7761,1,2,0:0:0:0:
192,192,7761,1,0,0:0:0:0:
64,192,7923,1,0,0:0:0:0:
320,192,8085,1,2,0:0:0:0:
448,192,8085,1,0,0:0:0:0:
448,192,8247,1,0,0:0:0:0:
192,192,8410,1,2,0:0:0:0:
320,192,8410,1,0,0:0:0:0:
192,192,8572,1,0,0:0:0:0:
64,192,8734,1,2,0:0:0:0:
320,192,8734,1,0,0:0:0:0:
320,192,8896,1,0,0:0:0:0:
64,192,9058,1,2,0:0:0:0:
192,192,9058,1,0,0:0:0:0:
64,192,9220,1,0,0:0:0:0:
320,192,9383,1,2,0:0:0:0:
448,192,9383,1,0,0:0:0:0:
448,192,9545,1,0,0:0:0:0:
64,192,9707,1,2,0:0:0:0:
192,192,9707,1,0,0:0:0:0:
64,192,9869,1,0,0:0:0:0:
320,192,10031,1,2,0:0:0:0:
448,192,10031,1,0,0:0:0:0:
320,192,10193,1,8,0:0:0:0:
192,192,10274,1,0,0:0:0:55:Tom1.wav
64,192,10356,1,2,0:0:0:0:
448,192,10356,1,0,0:0:0:0:
320,192,11166,1,2,0:0:0:0:
448,192,11166,1,0,0:0:0:0:
64,192,11329,1,8,0:0:0:0:
448,192,11329,1,0,0:0:0:0:
320,192,11369,1,0,0:0:0:0:
192,192,11410,1,0,0:0:0:0:
64,192,11450,1,0,0:0:0:0:
448,192,11491,1,0,0:0:0:0:
320,192,11531,1,0,0:0:0:0:
192,192,11572,1,0,0:0:0:0:
64,192,11612,1,0,0:0:0:0:
320,192,11653,1,2,0:0:0:0:
448,192,11653,128,4,11734:0:0:0:0:
448,192,11815,128,0,11896:0:0:0:60:Tom2.wav
64,192,11977,1,2,0:0:0:0:
192,192,11977,128,0,12058:0:0:0:0:
192,192,12139,128,0,12220:0:0:0:55:Tom1.wav
320,192,12302,128,2,12383:0:0:0:0:
448,192,12302,1,0,0:0:0:0:
320,192,12464,128,0,12545:0:0:0:60:Tom2.wav
64,192,12626,128,8,12707:0:0:0:0:
192,192,12626,1,0,0:0:0:0:
448,192,12626,1,0,0:0:0:0:
64,192,12788,128,0,12869:0:0:0:60:Tom3.wav
320,192,12950,1,2,0:0:0:0:
448,192,12950,128,0,13031:0:0:0:0:
448,192,13112,128,0,13193:0:0:0:60:Tom2.wav
64,192,13274,1,2,0:0:0:0:
192,192,13274,128,0,13356:0:0:0:0:
192,192,13437,128,0,13518:0:0:0:55:Tom1.wav
320,192,13599,128,2,13680:0:0:0:0:
448,192,13599,1,0,0:0:0:0:
320,192,13761,128,0,13842:0:0:0:60:Tom2.wav
64,192,13923,128,8,14004:0:0:0:0:
192,192,13923,1,0,0:0:0:0:
448,192,13923,1,0,0:0:0:0:
64,192,14085,128,0,14166:0:0:0:60:Tom3.wav
192,192,14247,1,2,0:0:0:0:
320,192,14247,1,4,0:0:0:0:
448,192,14247,128,0,14329:0:0:0:0:
448,192,14410,128,0,14491:0:0:0:60:Tom2.wav
64,192,14572,1,2,0:0:0:0:
192,192,14572,128,0,14653:0:0:0:0:
192,192,14734,128,0,14815:0:0:0:55:Tom1.wav
320,192,14896,128,2,14977:0:0:0:0:
448,192,14896,1,0,0:0:0:0:
320,192,15058,128,0,15139:0:0:0:60:Tom2.wav
64,192,15220,128,8,15302:0:0:0:0:
192,192,15220,1,0,0:0:0:0:
448,192,15220,1,0,0:0:0:0:
64,192,15383,128,0,15464:0:0:0:60:Tom3.wav
192,192,15545,1,2,0:0:0:0:
320,192,15545,1,4,0:0:0:0:
448,192,15545,128,0,15626:0:0:0:0:
448,192,15707,128,0,15788:0:0:0:60:Tom2.wav
64,192,15869,1,2,0:0:0:0:
192,192,15869,128,0,15950:0:0:0:0:
192,192,16031,128,0,16112:0:0:0:55:Tom1.wav
320,192,16193,128,2,16274:0:0:0:0:
448,192,16193,1,0,0:0:0:0:
320,192,16356,128,0,16437:0:0:0:60:Tom2.wav
64,192,16518,128,8,16599:0:0:0:0:
192,192,16518,1,0,0:0:0:0:
448,192,16518,1,0,0:0:0:0:
64,192,16680,128,0,16761:0:0:0:60:Tom2.wav
192,192,16680,1,0,0:0:0:0:
320,192,16761,1,0,0:0:0:60:Tom2.wav
64,192,16842,1,2,0:0:0:0:
448,192,16842,128,4,18139:0:0:0:0:
64,192,17977,1,0,0:0:0:45:Ride.wav
320,192,18058,1,0,0:0:0:45:Ride.wav
64,192,18139,128,2,18788:0:0:0:0:
192,192,18139,1,0,0:0:0:45:Ride.wav
448,192,18626,1,0,0:0:0:45:Ride.wav
320,192,18788,128,0,19437:0:0:0:0:
64,192,19112,1,2,0:0:0:0:
192,192,19112,1,0,0:0:0:45:Ride.wav
64,192,19437,1,2,0:0:0:0:
192,192,19437,1,4,0:0:0:0:
448,192,19437,128,0,22031:0:0:0:0:
320,192,19923,1,0,0:0:0:0:
64,192,20410,1,0,0:0:0:0:
192,192,20896,1,0,0:0:0:0:
320,192,21383,1,0,0:0:0:0:
64,192,22031,128,0,22112:0:0:0:0:
192,192,22031,1,0,0:0:0:0:
320,192,22193,128,0,22274:0:0:0:0:
192,192,22356,128,0,22437:0:0:0:0:
448,192,22518,128,0,22599:0:0:0:0:
64,192,22680,1,0,0:0:0:0:
320,192,22842,128,0,22923:0:0:0:0:
192,192,23004,128,0,23085:0:0:0:0:
448,192,23166,1,0,0:0:0:0:
64,192,23329,128,0,23410:0:0:0:0:
192,192,23329,1,0,0:0:0:0:
320,192,23491,128,0,23572:0:0:0:0:
448,192,23653,128,0,23734:0:0:0:0:
192,192,23815,128,0,23896:0:0:0:0:
320,192,23977,1,0,0:0:0:0:
64,192,24139,128,0,24220:0:0:0:0:
192,192,24302,1,0,0:0:0:0:
448,192,24464,1,0,0:0:0:0:
192,192,24626,1,0,0:0:0:0:
320,192,24626,128,0,24707:0:0:0:0:
64,192,24788,128,0,24869:0:0:0:0:
448,192,24950,128,0,25031:0:0:0:0:
192,192,25112,128,0,25193:0:0:0:0:
320,192,25274,1,0,0:0:0:0:
64,192,25437,128,0,25518:0:0:0:0:
448,192,25599,128,0,25680:0:0:0:0:
192,192,25761,1,0,0:0:0:0:
320,192,25923,1,0,0:0:0:0:
448,192,25923,128,0,26004:0:0:0:0:
64,192,26085,128,0,26166:0:0:0:0:
192,192,26247,128,0,26329:0:0:0:0:
320,192,26410,128,0,26491:0:0:0:0:
448,192,26572,1,0,0:0:0:0:
192,192,26734,128,0,26815:0:0:0:0:
320,192,26896,1,0,0:0:0:0:
64,192,27058,1,0,0:0:0:0:
192,192,27220,1,0,0:0:0:0:
448,192,27220,128,0,27302:0:0:0:0:
320,192,27383,128,0,27464:0:0:0:0:
64,192,27545,128,0,27626:0:0:0:0:
192,192,27707,128,0,27788:0:0:0:0:
448,192,27869,1,0,0:0:0:0:
320,192,28031,128,0,28112:0:0:0:0:
64,192,28193,128,0,28274:0:0:0:0:
192,192,28356,1,0,0:0:0:0:
320,192,28518,1,0,0:0:0:0:
448,192,28518,128,0,28599:0:0:0:0:
64,192,28680,128,0,28761:0:0:0:0:
320,192,28842,128,0,28923:0:0:0:0:
192,192,29004,128,0,29085:0:0:0:0:
448,192,29166,1,0,0:0:0:0:
64,192,29329,128,0,29410:0:0:0:0:
320,192,29491,128,0,29572:0:0:0:0:
192,192,29653,1,0,0:0:0:0:
64,192,29815,1,0,0:0:0:0:
448,192,29815,128,0,29896:0:0:0:0:
320,192,29977,128,0,30058:0:0:0:0:
192,192,30139,128,0,30220:0:0:0:0:
64,192,30302,128,0,30383:0:0:0:0:
320,192,30464,1,0,0:0:0:0:
192,192,30626,128,0,30707:0:0:0:0:
448,192,30788,128,0,30869:0:0:0:0:
320,192,30950,1,0,0:0:0:0:
64,192,31112,128,0,31193:0:0:0:0:
192,192,31112,128,0,31193:0:0:0:0:
448,192,31274,1,0,0:0:0:0:
64,192,31437,128,0,31518:0:0:0:0:
64,192,31599,1,0,0:0:0:0:
448,192,31761,128,0,31842:0:0:0:0:
448,192,31923,1,0,0:0:0:0:
64,192,32085,128,0,32410:0:0:0:0:
320,192,32410,1,2,0:0:0:0:
448,192,32410,128,0,32734:0:0:0:0:
64,192,32734,1,2,0:0:0:0:
192,192,32734,1,0,0:0:0:0:
320,192,32896,128,0,33058:0:0:0:0:
64,192,33058,1,2,0:0:0:0:
448,192,33058,1,0,0:0:0:0:
192,192,33220,1,0,0:0:0:0:
320,192,33383,1,2,0:0:0:0:
448,192,33383,128,0,33545:0:0:0:0:
64,192,33545,1,0,0:0:0:0:
192,192,33707,128,2,33869:0:0:0:0:
320,192,33707,1,0,0:0:0:0:
448,192,33869,1,0,0:0:0:0:
64,192,34031,1,2,0:0:0:0:
192,192,34031,1,0,0:0:0:0:
320,192,34193,1,0,0:0:0:0:
64,192,34356,1,2,0:0:0:0:
448,192,34356,128,0,34518:0:0:0:0:
192,192,34518,1,0,0:0:0:0:
320,192,34680,128,2,34842:0:0:0:0:
448,192,34680,1,0,0:0:0:0:
192,192,34842,1,0,0:0:0:0:
64,192,35004,128,2,35166:0:0:0:0:
448,192,35004,1,0,0:0:0:0:
320,192,35166,1,0,0:0:0:0:
64,192,35329,1,2,0:0:0:0:
192,192,35329,128,0,35491:0:0:0:0:
448,192,35491,1,0,0:0:0:0:
192,192,35653,1,2,0:0:0:0:
320,192,35653,128,0,35815:0:0:0:0:
64,192,35815,1,0,0:0:0:0:
320,192,35977,1,2,0:0:0:0:
448,192,35977,128,0,36139:0:0:0:0:
192,192,36139,128,0,36302:0:0:0:0:
64,192,36302,1,2,0:0:0:0:
448,192,36302,1,0,0:0:0:0:
320,192,36464,1,0,0:0:0:0:
64,192,36626,1,2,0:0:0:0:
192,192,36626,1,0,0:0:0:0:
448,192,36788,1,0,0:0:0:0:
64,192,36950,1,2,0:0:0:0:
320,192,36950,128,0,37112:0:0:0:0:
448,192,37112,1,0,0:0:0:0:
64,192,37274,1,2,0:0:0:0:
192,192,37274,128,0,37437:0:0:0:0:
320,192,37437,1,0,0:0:0:0:
64,192,37599,1,2,0:0:0:0:
448,192,37599,128,0,37761:0:0:0:0:
192,192,37761,1,0,0:0:0:0:
320,192,37923,128,2,38085:0:0:0:0:
448,192,37923,1,0,0:0:0:0:
64,192,38085,128,0,38247:0:0:0:0:
192,192,38247,1,2,0:0:0:0:
320,192,38247,1,0,0:0:0:0:
448,192,38410,1,0,0:0:0:0:
64,192,38572,1,2,0:0:0:0:
192,192,38572,128,0,38734:0:0:0:0:
320,192,38734,1,0,0:0:0:0:
64,192,38896,1,2,0:0:0:0:
448,192,38896,128,0,39058:0:0:0:0:
192,192,39058,1,0,0:0:0:0:
320,192,39220,128,2,39383:0:0:0:0:
448,192,39220,1,0,0:0:0:0:
64,192,39383,1,0,0:0:0:0:
192,192,39545,128,2,39707:0:0:0:0:
448,192,39545,1,0,0:0:0:0:
320,192,39707,1,0,0:0:0:0:
192,192,39869,1,8,0:0:0:0:
448,192,39869,1,0,0:0:0:0:
64,192,39869,128,2,40193:0:0:0:0:
320,192,40193,1,2,0:0:0:0:
448,192,40193,1,0,0:0:0:0:
192,192,40356,1,0,0:0:0:0:
64,192,40518,1,8,0:0:0:0:
320,192,40518,1,0,0:0:0:0:
448,192,40518,1,0,0:0:0:0:
192,192,40680,1,0,0:0:0:0:
320,192,40842,1,0,0:0:0:0:
64,192,41004,1,2,0:0:0:0:
448,192,41004,1,0,0:0:0:0:
64,192,41166,1,8,0:0:0:0:
192,192,41166,1,0,0:0:0:0:
320,192,41166,1,0,0:0:0:0:
192,192,41329,1,2,0:0:0:0:
320,192,41329,1,4,0:0:0:0:
448,192,41329,1,0,0:0:0:0:
64,192,41653,1,2,0:0:0:0:
192,192,41653,1,0,0:0:0:0:
64,192,41815,1,8,0:0:0:0:
320,192,41815,1,0,0:0:0:0:
448,192,41815,1,0,0:0:0:0:
192,192,41977,1,0,0:0:0:0:
320,192,42139,1,0,0:0:0:55:Tom1.wav
448,192,42139,1,0,0:0:0:0:
64,192,42302,1,8,0:0:0:0:
448,192,42302,1,0,0:0:0:0:
192,192,42383,1,8,0:0:0:0:
320,192,42383,1,0,0:0:0:0:
64,192,42464,1,8,0:0:0:0:
448,192,42464,1,0,0:0:0:0:
64,192,42626,1,8,0:0:0:0:
192,192,42626,1,0,0:0:0:0:
320,192,42707,1,8,0:0:0:0:
64,192,42788,1,2,0:0:0:0:
192,192,42788,1,4,0:0:0:0:
448,192,42788,128,0,43112:0:0:0:0:
64,192,43112,128,8,43193:0:0:0:0:
192,192,43112,1,0,0:0:0:0:
320,192,43112,1,0,0:0:0:0:
64,192,43274,128,0,43437:0:0:0:0:
320,192,43437,1,2,0:0:0:0:
448,192,43437,1,0,0:0:0:0:
320,192,43599,1,2,0:0:0:0:
448,192,43599,128,0,43761:0:0:0:0:
64,192,43761,1,0,0:0:0:0:
192,192,43923,128,8,44085:0:0:0:0:
320,192,43923,1,0,0:0:0:0:
448,192,43923,1,0,0:0:0:0:
64,192,44085,1,0,0:0:0:0:
320,192,44247,128,2,44410:0:0:0:0:
448,192,44247,1,0,0:0:0:0:
64,192,44410,1,8,0:0:0:0:
192,192,44410,1,0,0:0:0:0:
448,192,44410,1,0,0:0:0:0:
64,192,44572,128,0,44734:0:0:0:0:
192,192,44734,1,2,0:0:0:0:
320,192,44734,1,0,0:0:0:0:
448,192,44734,1,0,0:0:0:0:
320,192,44896,1,2,0:0:0:0:
448,192,44896,1,0,0:0:0:0:
64,192,45058,128,8,45220:0:0:0:0:
192,192,45058,1,0,0:0:0:0:
448,192,45058,1,0,0:0:0:0:
320,192,45220,128,0,45383:0:0:0:0:
64,192,45383,1,2,0:0:0:0:
192,192,45383,128,4,45707:0:0:0:0:
448,192,45383,1,0,0:0:0:0:
64,192,45707,1,8,0:0:0:0:
320,192,45707,1,0,0:0:0:0:
448,192,45707,128,0,45788:0:0:0:0:
448,192,45869,128,0,46031:0:0:0:0:
64,192,46031,1,2,0:0:0:0:
192,192,46031,1,0,0:0:0:0:
64,192,46193,128,2,46356:0:0:0:0:
192,192,46193,1,0,0:0:0:0:
192,192,46356,1,8,0:0:0:0:
320,192,46356,1,0,0:0:0:0:
448,192,46356,1,0,0:0:0:0:
320,192,46518,128,0,46680:0:0:0:0:
192,192,46680,1,2,0:0:0:0:
448,192,46680,1,0,0:0:0:0:
64,192,46842,128,0,47004:0:0:0:0:
192,192,47004,1,8,0:0:0:0:
320,192,47004,1,0,0:0:0:0:
448,192,47004,1,0,0:0:0:0:
448,192,47166,128,0,47329:0:0:0:0:
192,192,47329,1,2,0:0:0:0:
320,192,47329,1,0,0:0:0:0:
192,192,47491,1,2,0:0:0:0:
320,192,47491,1,0,0:0:0:0:
64,192,47653,1,8,0:0:0:0:
320,192,47653,1,0,0:0:0:0:
448,192,47653,128,0,47815:0:0:0:0:
64,192,47815,1,8,0:0:0:0:
192,192,47815,1,0,0:0:0:0:
320,192,47896,1,8,0:0:0:0:
64,192,47977,128,2,48302:0:0:0:0:
192,192,47977,1,4,0:0:0:0:
448,192,47977,1,0,0:0:0:0:
192,192,48302,1,8,0:0:0:0:
320,192,48302,1,0,0:0:0:0:
448,192,48302,128,0,48383:0:0:0:0:
448,192,48464,128,0,48626:0:0:0:0:
64,192,48626,1,2,0:0:0:0:
192,192,48626,1,0,0:0:0:0:
64,192,48788,128,2,48950:0:0:0:0:
192,192,48788,1,0,0:0:0:0:
448,192,48950,1,0,0:0:0:0:
64,192,49112,1,8,0:0:0:0:
192,192,49112,1,0,0:0:0:0:
320,192,49112,128,0,49274:0:0:0:0:
448,192,49274,1,0,0:0:0:0:
64,192,49437,1,2,0:0:0:0:
192,192,49437,1,0,0:0:0:0:
64,192,49599,128,8,49761:0:0:0:0:
320,192,49599,1,0,0:0:0:0:
448,192,49599,1,0,0:0:0:0:
192,192,49761,1,0,0:0:0:0:
192,192,49923,128,2,50085:0:0:0:0:
320,192,49923,1,0,0:0:0:0:
448,192,49923,1,0,0:0:0:0:
320,192,50085,1,2,0:0:0:0:
448,192,50085,1,0,0:0:0:0:
64,192,50247,128,8,50410:0:0:0:0:
192,192,50247,1,0,0:0:0:0:
448,192,50247,1,0,0:0:0:0:
320,192,50410,128,0,50572:0:0:0:0:
64,192,50572,1,2,0:0:0:0:
192,192,50572,1,0,0:0:0:0:
448,192,50572,1,0,0:0:0:0:
64,192,50734,128,2,50896:0:0:0:0:
192,192,50734,1,0,0:0:0:0:
192,192,50896,1,8,0:0:0:0:
320,192,50896,128,0,51220:0:0:0:0:
448,192,50896,128,0,51220:0:0:0:0:
64,192,51058,1,0,0:0:0:0:
64,192,51220,128,2,51545:0:0:0:0:
192,192,51220,128,0,51545:0:0:0:0:
320,192,51383,1,2,0:0:0:0:
448,192,51383,1,0,0:0:0:0:
320,192,51545,128,8,51869:0:0:0:0:
448,192,51545,128,0,51869:0:0:0:0:
192,192,51707,1,0,0:0:0:0:
64,192,51869,1,2,0:0:0:0:
192,192,51869,1,0,0:0:0:0:
64,192,52031,1,2,0:0:0:0:
320,192,52031,1,0,0:0:0:0:
64,192,52193,1,8,0:0:0:0:
192,192,52193,1,0,0:0:0:0:
448,192,52193,1,0,0:0:0:0:
320,192,52356,1,0,0:0:0:0:
64,192,52518,1,2,0:0:0:0:
192,192,52518,1,0,0:0:0:0:
64,192,52680,1,8,0:0:0:0:
320,192,52680,1,0,0:0:0:0:
448,192,52680,1,0,0:0:0:0:
192,192,52842,1,0,0:0:0:55:Tom1.wav
448,192,53004,1,0,0:0:0:60:Tom2.wav
64,192,53166,128,2,53247:0:0:0:0:
192,192,53166,1,4,0:0:0:0:
320,192,53166,1,0,0:0:0:0:
192,192,53329,128,0,53410:0:0:0:0:
448,192,53491,128,0,53572:0:0:0:0:
320,192,53653,128,0,53734:0:0:0:0:
64,192,53815,128,0,53896:0:0:0:0:
192,192,53977,128,0,54058:0:0:0:0:
320,192,54139,128,0,54220:0:0:0:0:
448,192,54302,128,0,54383:0:0:0:45:Ride.wav
192,192,54464,128,0,54545:0:0:0:45:Ride.wav
64,192,54626,128,0,54707:0:0:0:0:
320,192,54788,128,0,54869:0:0:0:0:
448,192,54788,1,0,0:0:0:0:
192,192,54950,128,0,55031:0:0:0:45:Ride.wav
448,192,55112,128,0,55193:0:0:0:0:
64,192,55112,1,0,0:0:0:0:
320,192,55274,128,0,55356:0:0:0:0:
192,192,55437,128,0,55518:0:0:0:0:
64,192,55437,1,0,0:0:0:0:
64,192,55599,128,2,55680:0:0:0:0:
448,192,55599,1,0,0:0:0:0:
64,192,55761,1,2,0:0:0:0:
192,192,55761,1,4,0:0:0:0:
320,192,55761,128,0,55842:0:0:0:0:
448,192,55923,128,0,56004:0:0:0:0:
192,192,56085,128,0,56166:0:0:0:0:
320,192,56247,128,0,56329:0:0:0:0:
64,192,56410,128,0,56491:0:0:0:0:
192,192,56572,128,0,56653:0:0:0:0:
448,192,56734,128,0,56815:0:0:0:0:
320,192,56896,128,0,56977:0:0:0:0:
64,192,57058,128,0,57139:0:0:0:45:Ride.wav
448,192,57058,1,0,0:0:0:0:
192,192,57220,128,0,57302:0:0:0:0:
320,192,57383,128,0,57464:0:0:0:0:
448,192,57545,128,0,57626:0:0:0:45:Ride.wav
64,192,57707,128,0,58031:0:0:0:0:
448,192,57869,128,0,58274:0:0:0:0:
320,192,58031,128,0,58274:0:0:0:45:Ride.wav
64,192,58356,128,8,58599:0:0:0:0:
320,192,58356,1,4,0:0:0:0:
448,192,58356,128,0,58599:0:0:0:0:
64,192,58680,1,2,0:0:0:0:
448,192,58680,1,0,0:0:0:0:
320,192,58842,1,0,0:0:0:55:Tom1.wav
192,192,59004,1,0,0:0:0:0:
64,192,59166,1,2,0:0:0:0:
448,192,59166,1,0,0:0:0:0:
192,192,59329,1,8,0:0:0:0:
320,192,59329,1,0,0:0:0:0:
448,192,59329,1,0,0:0:0:0:
64,192,59491,1,2,0:0:0:0:
192,192,59491,1,4,0:0:0:0:
320,192,59491,1,0,0:0:0:0:
448,192,59653,1,0,0:0:0:0:
64,192,59815,1,2,0:0:0:0:
192,192,59815,1,0,0:0:0:0:
64,192,59977,1,8,0:0:0:0:
320,192,59977,1,0,0:0:0:0:
448,192,59977,1,0,0:0:0:0:
192,192,60139,1,2,0:0:0:0:
320,192,60139,1,0,0:0:0:45:Ride.wav
448,192,60302,1,0,0:0:0:0:
64,192,60464,1,8,0:0:0:0:
192,192,60464,1,0,0:0:0:0:
320,192,60464,1,0,0:0:0:0:
448,192,60626,1,0,0:0:0:55:Tom1.wav
64,192,60788,1,8,0:0:0:0:
192,192,60788,1,0,0:0:0:0:
320,192,60869,1,8,0:0:0:0:
64,192,60950,1,8,0:0:0:0:
192,192,60950,1,4,0:0:0:0:
448,192,60950,1,0,0:0:0:0:
320,192,61112,1,2,0:0:0:0:
448,192,61112,1,0,0:0:0:0:
64,192,61274,1,2,0:0:0:0:
192,192,61274,1,0,0:0:0:0:
64,192,61437,1,8,0:0:0:0:
320,192,61437,1,4,0:0:0:0:
448,192,61437,1,0,0:0:0:0:
192,192,61599,1,0,0:0:0:0:
320,192,61761,1,2,0:0:0:0:
448,192,61761,1,0,0:0:0:0:
64,192,61923,1,8,0:0:0:0:
192,192,61923,1,0,0:0:0:0:
448,192,61923,1,0,0:0:0:0:
64,192,62085,1,2,0:0:0:0:
192,192,62085,1,4,0:0:0:0:
320,192,62085,1,0,0:0:0:0:
448,192,62247,1,0,0:0:0:0:
320,192,62329,1,0,0:0:0:0:
64,192,62410,1,0,0:0:0:0:
192,192,62491,1,0,0:0:0:0:
448,192,62572,1,0,0:0:0:0:
320,192,62653,1,0,0:0:0:0:
64,192,62734,128,0,62896:0:0:0:0:
192,192,62815,128,0,62896:0:0:0:0:
448,192,62896,128,0,63058:0:0:0:0:
320,192,62977,128,0,63058:0:0:0:0:
192,192,63058,128,0,63220:0:0:0:0:
64,192,63139,128,0,63220:0:0:0:0:
320,192,63220,128,0,63383:0:0:0:0:
448,192,63302,128,0,63383:0:0:0:0:
64,192,63383,1,0,0:0:0:0:
192,192,63464,1,0,0:0:0:0:
64,192,63545,1,2,0:0:0:0:
320,192,63545,1,4,0:0:0:0:
448,192,63545,128,0,63707:0:0:0:0:
192,192,63707,1,2,0:0:0:0:
320,192,63707,1,0,0:0:0:0:
64,192,63869,1,8,0:0:0:0:
192,192,63869,128,0,64031:0:0:0:0:
448,192,63869,1,0,0:0:0:0:
320,192,64031,128,0,64193:0:0:0:0:
64,192,64193,1,2,0:0:0:0:
192,192,64193,1,0,0:0:0:0:
320,192,64356,1,2,0:0:0:0:
448,192,64356,1,0,0:0:0:0:
64,192,64518,128,8,64680:0:0:0:0:
192,192,64518,1,0,0:0:0:0:
448,192,64518,1,0,0:0:0:0:
320,192,64680,1,0,0:0:0:0:
64,192,64842,1,2,0:0:0:0:
448,192,64842,128,0,65004:0:0:0:0:
192,192,65004,1,2,0:0:0:0:
320,192,65004,1,0,0:0:0:0:
64,192,65166,1,8,0:0:0:0:
320,192,65166,1,0,0:0:0:0:
448,192,65166,1,0,0:0:0:0:
192,192,65329,128,0,65491:0:0:0:0:
320,192,65491,1,2,0:0:0:0:
448,192,65491,1,0,0:0:0:0:
64,192,65653,1,2,0:0:0:0:
192,192,65653,1,0,0:0:0:0:
64,192,65815,1,8,0:0:0:0:
320,192,65815,1,0,0:0:0:0:
448,192,65815,128,0,65977:0:0:0:0:
192,192,65977,1,0,0:0:0:0:
64,192,66139,128,2,66302:0:0:0:0:
448,192,66139,1,0,0:0:0:0:
192,192,66302,1,2,0:0:0:0:
320,192,66302,1,0,0:0:0:0:
64,192,66464,1,8,0:0:0:0:
192,192,66464,1,0,0:0:0:0:
448,192,66464,1,0,0:0:0:0:
320,192,66626,1,0,0:0:0:0:
64,192,66788,128,2,66950:0:0:0:0:
192,192,66788,1,0,0:0:0:0:
320,192,66950,1,2,0:0:0:0:
448,192,66950,128,0,67112:0:0:0:0:
64,192,67112,1,8,0:0:0:0:
192,192,67112,1,0,0:0:0:0:
320,192,67112,1,0,0:0:0:0:
192,192,67274,128,0,67437:0:0:0:0:
64,192,67437,1,2,0:0:0:0:
448,192,67437,1,0,0:0:0:0:
192,192,67599,1,2,0:0:0:0:
320,192,67599,128,0,67761:0:0:0:0:
64,192,67761,1,8,0:0:0:0:
448,192,67761,1,0,0:0:0:0:
192,192,67761,1,0,0:0:0:0:
64,192,67923,128,0,68085:0:0:0:0:
320,192,68085,1,2,0:0:0:0:
448,192,68085,1,4,0:0:0:0:
64,192,68247,1,2,0:0:0:0:
192,192,68247,1,0,0:0:0:0:
64,192,68410,1,8,0:0:0:0:
448,192,68410,1,0,0:0:0:0:
320,192,68410,128,0,68572:0:0:0:0:
192,192,68572,128,0,68734:0:0:0:0:
64,192,68734,1,2,0:0:0:0:
448,192,68734,1,4,0:0:0:0:
192,192,68896,1,2,0:0:0:0:
320,192,68896,1,0,0:0:0:0:
64,192,69058,1,8,0:0:0:0:
192,192,69058,1,0,0:0:0:0:
448,192,69058,128,0,69220:0:0:0:0:
320,192,69220,1,0,0:0:0:0:
64,192,69383,128,2,69545:0:0:0:0:
192,192,69383,1,0,0:0:0:0:
320,192,69545,1,2,0:0:0:0:
448,192,69545,128,0,69707:0:0:0:0:
64,192,69707,1,8,0:0:0:0:
192,192,69707,1,0,0:0:0:0:
320,192,69707,1,0,0:0:0:0:
192,192,69869,128,0,70031:0:0:0:0:
64,192,70031,1,2,0:0:0:0:
448,192,70031,1,0,0:0:0:0:
192,192,70193,1,2,0:0:0:0:
320,192,70193,128,0,70356:0:0:0:0:
64,192,70356,1,8,0:0:0:0:
448,192,70356,1,0,0:0:0:0:
192,192,70356,1,0,0:0:0:0:
64,192,70518,128,0,70680:0:0:0:0:
320,192,70680,1,2,0:0:0:0:
448,192,70680,1,0,0:0:0:0:
64,192,70842,1,2,0:0:0:0:
192,192,70842,1,0,0:0:0:0:
64,192,71004,1,8,0:0:0:0:
320,192,71004,1,0,0:0:0:0:
448,192,71004,128,0,71166:0:0:0:0:
192,192,71166,1,0,0:0:0:0:
64,192,71329,128,2,71491:0:0:0:0:
448,192,71329,1,4,0:0:0:0:
192,192,71491,1,2,0:0:0:0:
320,192,71491,1,0,0:0:0:0:
64,192,71653,1,8,0:0:0:0:
192,192,71653,1,0,0:0:0:0:
448,192,71653,128,0,71815:0:0:0:0:
192,192,71815,1,2,0:0:0:0:
320,192,71815,128,0,71977:0:0:0:0:
64,192,71977,1,0,0:0:0:0:
192,192,72139,128,2,72302:0:0:0:0:
320,192,72139,1,0,0:0:0:0:
64,192,72302,1,8,0:0:0:0:
320,192,72302,1,0,0:0:0:0:
448,192,72302,1,0,0:0:0:0:
64,192,72464,128,2,72707:0:0:0:0:
192,192,72464,128,4,72707:0:0:0:0:
448,192,72464,128,0,72707:0:0:0:0:
64,192,72788,1,8,0:0:0:0:
320,192,72788,1,0,0:0:0:0:
448,192,72788,1,0,0:0:0:0:
64,192,72950,1,8,0:0:0:0:
192,192,72950,1,0,0:0:0:0:
448,192,72950,1,0,0:0:0:0:
320,192,73031,1,0,0:0:0:0:
192,192,73112,1,0,0:0:0:0:
64,192,73193,1,0,0:0:0:0:
320,192,73274,1,0,0:0:0:55:Tom1.wav
448,192,73274,1,0,0:0:0:0:
192,192,73356,1,0,0:0:0:0:
320,192,73437,1,8,0:0:0:0:
448,192,73437,1,0,0:0:0:0:
64,192,73518,1,8,0:0:0:0:
192,192,73518,1,0,0:0:0:0:
320,192,73599,1,8,0:0:0:0:
448,192,73599,1,0,0:0:0:0:
192,192,73680,1,0,0:0:0:0:
64,192,73761,1,8,0:0:0:0:
448,192,73761,1,0,0:0:0:0:
320,192,73842,1,8,0:0:0:0:
64,192,73923,128,2,74085:0:0:0:0:
192,192,73923,1,4,0:0:0:0:
448,192,73923,1,0,0:0:0:0:
192,192,74085,1,2,0:0:0:0:
320,192,74085,1,0,0:0:0:0:
64,192,74247,1,8,0:0:0:0:
320,192,74247,128,0,74410:0:0:0:0:
448,192,74247,1,0,0:0:0:0:
192,192,74410,128,0,74572:0:0:0:0:
320,192,74572,1,2,0:0:0:0:
448,192,74572,1,0,0:0:0:0:
64,192,74734,1,2,0:0:0:0:
192,192,74734,1,0,0:0:0:0:
64,192,74896,1,8,0:0:0:0:
320,192,74896,1,0,0:0:0:0:
448,192,74896,128,0,75058:0:0:0:0:
192,192,75058,1,0,0:0:0:0:
64,192,75220,128,2,75383:0:0:0:0:
448,192,75220,1,0,0:0:0:0:
192,192,75383,1,2,0:0:0:0:
320,192,75383,1,0,0:0:0:0:
64,192,75545,1,8,0:0:0:0:
192,192,75545,1,0,0:0:0:0:
448,192,75545,1,0,0:0:0:0:
320,192,75707,128,0,75869:0:0:0:0:
64,192,75869,1,2,0:0:0:0:
192,192,75869,1,0,0:0:0:0:
320,192,76031,1,2,0:0:0:0:
448,192,76031,1,0,0:0:0:0:
64,192,76193,128,8,76356:0:0:0:0:
192,192,76193,1,0,0:0:0:0:
448,192,76193,1,0,0:0:0:0:
320,192,76356,1,0,0:0:0:0:
64,192,76518,1,2,0:0:0:0:
448,192,76518,128,0,76680:0:0:0:0:
192,192,76680,1,2,0:0:0:0:
320,192,76680,1,0,0:0:0:0:
64,192,76842,1,8,0:0:0:0:
320,192,76842,1,0,0:0:0:0:
448,192,76842,1,0,0:0:0:0:
192,192,77004,1,0,0:0:0:0:
320,192,77166,1,2,0:0:0:0:
448,192,77166,128,0,77329:0:0:0:0:
64,192,77329,128,2,77491:0:0:0:0:
192,192,77329,1,0,0:0:0:0:
192,192,77491,1,8,0:0:0:0:
320,192,77491,1,0,0:0:0:0:
448,192,77491,1,0,0:0:0:0:
64,192,77653,1,2,0:0:0:0:
320,192,77653,128,4,77815:0:0:0:0:
448,192,77653,1,0,0:0:0:0:
192,192,77815,1,0,0:0:0:0:
64,192,77977,1,2,0:0:0:0:
448,192,77977,128,0,78139:0:0:0:0:
64,192,78139,1,8,0:0:0:0:
192,192,78139,1,0,0:0:0:0:
320,192,78139,1,0,0:0:0:0:
320,192,78302,128,2,78464:0:0:0:0:
448,192,78302,1,4,0:0:0:0:
192,192,78464,1,0,0:0:0:0:
64,192,78626,1,8,0:0:0:0:
448,192,78626,1,0,0:0:0:0:
320,192,78788,128,0,78950:0:0:0:55:Tom1.wav
448,192,78788,1,0,0:0:0:0:
64,192,78950,1,0,0:0:0:60:Tom2.wav
192,192,78950,128,0,79112:0:0:0:0:
64,192,79112,1,2,0:0:0:0:
320,192,79112,1,4,0:0:0:0:
448,192,79112,1,0,0:0:0:0:
448,192,79274,1,0,0:0:0:0:
192,192,79437,1,0,0:0:0:0:
64,192,79599,1,2,0:0:0:0:
192,192,79599,1,0,0:0:0:0:
64,192,79761,1,8,0:0:0:0:
320,192,79761,1,0,0:0:0:0:
448,192,79761,1,0,0:0:0:0:
320,192,79923,1,0,0:0:0:0:
64,192,80085,1,0,0:0:0:0:
192,192,80085,128,0,80247:0:0:0:0:
64,192,80247,1,8,0:0:0:0:
320,192,80247,1,0,0:0:0:0:
448,192,80247,128,0,80410:0:0:0:0:
320,192,80410,128,0,80572:0:0:0:0:
64,192,80572,1,8,0:0:0:0:
192,192,80572,1,0,0:0:0:0:
448,192,80572,1,0,0:0:0:0:
64,192,80734,128,2,80896:0:0:0:0:
192,192,80734,1,0,0:0:0:0:
320,192,80896,1,2,0:0:0:0:
448,192,80896,128,0,81058:0:0:0:0:
64,192,81058,1,8,0:0:0:0:
192,192,81058,1,0,0:0:0:0:
320,192,81058,1,0,0:0:0:0:
64,192,81220,1,2,0:0:0:0:
448,192,81220,1,0,0:0:0:0:
64,192,81383,1,8,0:0:0:0:
192,192,81383,128,0,81545:0:0:0:0:
320,192,81383,1,0,0:0:0:0:
320,192,81545,128,0,81707:0:0:0:0:
64,192,81707,128,2,81869:0:0:0:0:
192,192,81707,1,4,0:0:0:0:
448,192,81707,1,0,0:0:0:0:
320,192,81869,1,0,0:0:0:0:
448,192,82031,128,0,82193:0:0:0:0:
64,192,82193,1,2,0:0:0:0:
192,192,82193,128,0,82356:0:0:0:0:
64,192,82356,1,8,0:0:0:0:
320,192,82356,1,0,0:0:0:0:
448,192,82356,1,0,0:0:0:0:
192,192,82518,1,0,0:0:0:0:
320,192,82680,128,0,82842:0:0:0:0:
64,192,82842,1,8,0:0:0:0:
192,192,82842,1,0,0:0:0:0:
448,192,82842,1,0,0:0:0:0:
64,192,83004,128,0,83166:0:0:0:0:
192,192,83166,1,8,0:0:0:0:
320,192,83166,1,0,0:0:0:0:
448,192,83166,1,0,0:0:0:0:
64,192,83329,1,2,0:0:0:0:
192,192,83329,1,0,0:0:0:0:
320,192,83491,1,2,0:0:0:0:
448,192,83491,1,0,0:0:0:0:
64,192,83653,1,8,0:0:0:0:
192,192,83653,1,0,0:0:0:0:
448,192,83653,1,0,0:0:0:0:
192,192,83815,1,2,0:0:0:0:
320,192,83815,1,0,0:0:0:0:
64,192,83977,1,8,0:0:0:0:
320,192,83977,1,0,0:0:0:0:
448,192,83977,1,0,0:0:0:0:
64,192,84139,1,8,0:0:0:0:
192,192,84139,1,0,0:0:0:0:
448,192,84139,1,0,0:0:0:0:
192,192,84302,1,2,0:0:0:0:
320,192,84302,1,4,0:0:0:0:
448,192,84302,1,0,0:0:0:0:
64,192,84464,1,8,0:0:0:0:
192,192,84464,1,0,0:0:0:0:
320,192,84545,1,8,0:0:0:0:
448,192,84545,1,0,0:0:0:0:
64,192,84626,1,2,0:0:0:0:
192,192,84626,1,0,0:0:0:0:
64,192,84788,1,8,0:0:0:0:
448,192,84788,1,0,0:0:0:0:
192,192,84869,1,8,0:0:0:0:
320,192,84869,1,0,0:0:0:0:
64,192,84950,1,2,0:0:0:0:
448,192,84950,1,0,0:0:0:0:
320,192,85112,1,8,0:0:0:0:
448,192,85112,1,0,0:0:0:0:
64,192,85193,1,8,0:0:0:0:
192,192,85193,1,0,0:0:0:0:
320,192,85274,1,2,0:0:0:0:
448,192,85274,1,0,0:0:0:0:
64,192,85437,1,8,0:0:0:0:
320,192,85437,1,0,0:0:0:0:
192,192,85518,1,8,0:0:0:0:
448,192,85518,1,0,0:0:0:0:
64,192,85599,1,2,0:0:0:0:
320,192,85599,1,0,0:0:0:0:
192,192,85761,1,8,0:0:0:0:
448,192,85761,1,0,0:0:0:0:
64,192,85842,1,8,0:0:0:0:
320,192,85842,1,0,0:0:0:0:
192,192,85923,1,2,0:0:0:0:
448,192,85923,1,0,0:0:0:0:
64,192,86085,1,8,0:0:0:0:
192,192,86085,1,0,0:0:0:0:
320,192,86166,1,8,0:0:0:0:
448,192,86166,1,0,0:0:0:0:
64,192,86247,1,2,0:0:0:0:
192,192,86247,1,0,0:0:0:0:
320,192,86410,1,8,0:0:0:0:
448,192,86410,1,0,0:0:0:0:
64,192,86491,1,8,0:0:0:0:
192,192,86491,1,0,0:0:0:0:
320,192,86572,1,2,0:0:0:0:
448,192,86572,1,0,0:0:0:0:
64,192,86734,1,8,0:0:0:0:
448,192,86734,1,0,0:0:0:0:
192,192,86815,1,8,0:0:0:0:
320,192,86815,1,0,0:0:0:0:
64,192,86896,1,2,0:0:0:0:
448,192,86896,1,0,0:0:0:0:
192,192,87058,1,0,0:0:0:0:
320,192,87220,1,2,0:0:0:0:
448,192,87220,1,0,0:0:0:0:
64,192,87383,1,8,0:0:0:0:
192,192,87383,1,0,0:0:0:0:
320,192,87545,1,0,0:0:0:30:Tom3.wav
192,192,87545,1,2,0:0:0:0:
448,192,87707,1,8,0:0:0:0:
320,192,87707,1,0,0:0:0:0:
192,192,87869,1,0,0:0:0:50:Tom3.wav
64,192,87869,1,2,0:0:0:0:
320,192,88031,1,8,0:0:0:0:
448,192,88031,128,0,88193:0:0:0:60:Tom3.wav
192,192,88193,128,0,88518:0:0:0:0:
320,192,88518,128,0,88842:0:0:0:0:
64,192,88842,128,0,89166:0:0:0:0:
448,192,89166,128,0,89410:0:0:0:0:
320,192,89329,128,0,89410:0:0:0:0:
64,192,89491,1,2,0:0:0:0:
192,192,89491,1,4,0:0:0:0:
448,192,89491,128,0,89572:0:0:0:0:
448,192,89653,128,0,89734:0:0:0:60:Tom2.wav
64,192,89815,1,2,0:0:0:0:
192,192,89815,128,0,89896:0:0:0:0:
192,192,89977,128,0,90058:0:0:0:55:Tom1.wav
320,192,90139,128,2,90220:0:0:0:0:
448,192,90139,1,0,0:0:0:0:
320,192,90302,128,0,90383:0:0:0:60:Tom2.wav
64,192,90464,128,8,90545:0:0:0:0:
192,192,90464,1,0,0:0:0:0:
448,192,90464,1,0,0:0:0:0:
64,192,90626,128,0,90707:0:0:0:60:Tom3.wav
320,192,90788,1,2,0:0:0:0:
448,192,90788,128,0,90869:0:0:0:0:
448,192,90950,128,0,91031:0:0:0:60:Tom2.wav
64,192,91112,1,2,0:0:0:0:
192,192,91112,128,0,91193:0:0:0:0:
192,192,91274,128,0,91356:0:0:0:55:Tom1.wav
320,192,91437,128,2,91518:0:0:0:0:
448,192,91437,1,0,0:0:0:0:
320,192,91599,128,0,91680:0:0:0:60:Tom2.wav
64,192,91761,128,8,91842:0:0:0:0:
192,192,91761,1,0,0:0:0:0:
448,192,91761,1,0,0:0:0:0:
64,192,91923,128,0,92004:0:0:0:60:Tom3.wav
192,192,92085,1,2,0:0:0:0:
320,192,92085,1,4,0:0:0:0:
448,192,92085,128,0,92166:0:0:0:0:
448,192,92247,128,0,92329:0:0:0:60:Tom2.wav
64,192,92410,1,2,0:0:0:0:
192,192,92410,128,0,92491:0:0:0:0:
192,192,92572,128,0,92653:0:0:0:55:Tom1.wav
320,192,92734,128,2,92815:0:0:0:0:
448,192,92734,1,0,0:0:0:0:
320,192,92896,128,0,92977:0:0:0:60:Tom2.wav
64,192,93058,128,8,93139:0:0:0:0:
192,192,93058,1,0,0:0:0:0:
448,192,93058,1,0,0:0:0:0:
64,192,93220,128,0,93302:0:0:0:60:Tom3.wav
192,192,93383,1,2,0:0:0:0:
320,192,93383,1,4,0:0:0:0:
448,192,93383,128,0,93464:0:0:0:0:
448,192,93545,128,0,93626:0:0:0:60:Tom2.wav
64,192,93707,1,2,0:0:0:0:
192,192,93707,128,0,93788:0:0:0:0:
192,192,93869,128,0,93950:0:0:0:55:Tom1.wav
320,192,94031,128,2,94112:0:0:0:0:
448,192,94031,1,0,0:0:0:0:
320,192,94193,128,0,94274:0:0:0:60:Tom2.wav
64,192,94356,128,8,94437:0:0:0:0:
192,192,94356,1,0,0:0:0:0:
448,192,94356,1,0,0:0:0:0:
64,192,94518,128,0,94599:0:0:0:60:Tom2.wav
192,192,94518,1,0,0:0:0:0:
320,192,94599,1,0,0:0:0:60:Tom2.wav
64,192,94680,1,2,0:0:0:0:
448,192,94680,128,4,95977:0:0:0:0:
64,192,95815,1,0,0:0:0:45:Ride.wav
320,192,95896,1,0,0:0:0:45:Ride.wav
64,192,95977,128,2,96626:0:0:0:0:
192,192,95977,1,0,0:0:0:45:Ride.wav
448,192,96464,1,0,0:0:0:45:Ride.wav
320,192,96626,128,0,97274:0:0:0:0:
64,192,96950,1,2,0:0:0:0:
192,192,96950,1,0,0:0:0:45:Ride.wav
64,192,97274,1,2,0:0:0:0:
192,192,97274,1,4,0:0:0:0:
448,192,97274,128,0,99869:0:0:0:0:
320,192,97761,1,0,0:0:0:0:
64,192,98247,1,0,0:0:0:0:
64,192,98680,1,0,0:0:0:0:
192,192,98734,1,0,0:0:0:0:
320,192,99058,1,0,0:0:0:0:
64,192,99220,1,0,0:0:0:0:
320,192,99302,1,0,0:0:0:0:
64,192,99383,1,0,0:0:0:0:
320,192,99464,1,0,0:0:0:0:
64,192,99545,1,0,0:0:0:0:
192,192,99626,1,0,0:0:0:0:
320,192,99707,1,0,0:0:0:0:
64,192,99869,128,2,100031:0:0:0:0:
192,192,99869,1,4,0:0:0:0:
320,192,100031,1,0,0:0:0:0:
64,192,100193,1,2,0:0:0:0:
448,192,100193,1,0,0:0:0:0:
192,192,100356,1,0,0:0:0:0:
320,192,100518,1,2,0:0:0:0:
448,192,100518,1,0,0:0:0:0:
64,192,100680,1,0,0:0:0:0:
192,192,100842,1,2,0:0:0:0:
320,192,100842,1,0,0:0:0:0:
448,192,101004,1,0,0:0:0:0:
64,192,101166,1,2,0:0:0:0:
192,192,101166,128,0,101329:0:0:0:0:
320,192,101329,1,0,0:0:0:0:
64,192,101491,1,2,0:0:0:0:
448,192,101491,1,0,0:0:0:0:
320,192,101653,1,0,0:0:0:0:
64,192,101815,1,2,0:0:0:0:
192,192,101815,1,0,0:0:0:0:
448,192,101977,1,0,0:0:0:0:
192,192,102139,1,2,0:0:0:0:
320,192,102139,1,0,0:0:0:0:
64,192,102302,1,0,0:0:0:0:
320,192,102464,1,2,0:0:0:0:
448,192,102464,128,0,102626:0:0:0:0:
192,192,102626,1,0,0:0:0:0:
64,192,102788,1,2,0:0:0:0:
448,192,102788,1,0,0:0:0:0:
320,192,102950,1,0,0:0:0:0:
64,192,103112,1,2,0:0:0:0:
192,192,103112,1,0,0:0:0:0:
320,192,103274,1,0,0:0:0:0:
64,192,103437,1,2,0:0:0:0:
448,192,103437,1,0,0:0:0:0:
192,192,103599,1,0,0:0:0:0:
320,192,103680,1,0,0:0:0:0:
64,192,103761,128,2,103923:0:0:0:0:
448,192,103761,1,0,0:0:0:0:
192,192,103923,1,0,0:0:0:0:
320,192,104085,1,2,0:0:0:0:
448,192,104085,1,0,0:0:0:0:
64,192,104247,1,0,0:0:0:0:
192,192,104410,1,2,0:0:0:0:
320,192,104410,1,0,0:0:0:0:
448,192,104572,1,0,0:0:0:0:
64,192,104734,1,2,0:0:0:0:
192,192,104734,1,0,0:0:0:0:
320,192,104896,1,0,0:0:0:45:Ride.wav
64,192,105058,1,2,0:0:0:0:
448,192,105058,128,4,105220:0:0:0:0:
192,192,105220,1,0,0:0:0:0:
320,192,105383,1,2,0:0:0:0:
448,192,105383,1,0,0:0:0:0:
64,192,105545,1,0,0:0:0:0:
192,192,105707,1,2,0:0:0:0:
320,192,105707,1,0,0:0:0:0:
448,192,105869,1,0,0:0:0:0:
64,192,106031,1,2,0:0:0:0:
192,192,106031,1,0,0:0:0:0:
320,192,106193,1,0,0:0:0:0:
64,192,106356,128,2,106518:0:0:0:0:
448,192,106356,1,0,0:0:0:0:
192,192,106518,1,0,0:0:0:0:
320,192,106680,1,2,0:0:0:0:
448,192,106680,1,0,0:0:0:0:
192,192,106842,1,0,0:0:0:0:
64,192,107004,1,2,0:0:0:0:
448,192,107004,1,0,0:0:0:0:
320,192,107166,1,0,0:0:0:0:
64,192,107329,1,2,0:0:0:0:
192,192,107329,1,0,0:0:0:0:
320,192,107491,1,0,0:0:0:0:
64,192,107653,1,2,0:0:0:0:
448,192,107653,128,0,107815:0:0:0:0:
320,192,107815,1,0,0:0:0:0:
64,192,107977,1,2,0:0:0:0:
192,192,107977,1,0,0:0:0:0:
320,192,108139,1,0,0:0:0:0:
64,192,108302,1,2,0:0:0:0:
448,192,108302,1,0,0:0:0:0:
192,192,108464,1,0,0:0:0:0:
320,192,108626,1,2,0:0:0:0:
448,192,108626,1,0,0:0:0:0:
64,192,108788,1,8,0:0:0:0:
192,192,108788,1,0,0:0:0:0:
448,192,108788,1,0,0:0:0:0:
64,192,109274,128,0,109356:0:0:0:0:
64,192,109437,1,0,0:0:0:0:
448,192,109599,128,0,110247:0:0:0:0:
320,192,109923,128,0,110247:0:0:0:0:
64,192,110247,128,2,110572:0:0:0:0:
192,192,110247,128,4,110572:0:0:0:0:
320,192,110572,1,2,0:0:0:0:
448,192,110572,1,0,0:0:0:0:
192,192,110734,1,0,0:0:0:0:
64,192,110896,1,2,0:0:0:0:
448,192,110896,1,0,0:0:0:0:
320,192,111058,1,0,0:0:0:0:
64,192,111220,1,2,0:0:0:0:
192,192,111220,1,0,0:0:0:0:
448,192,111383,1,0,0:0:0:55:Tom1.wav
192,192,111464,1,0,0:0:0:55:Tom1.wav
320,192,111545,1,2,0:0:0:0:
64,192,111707,1,0,0:0:0:60:Tom2.wav
192,192,111869,1,0,0:0:0:60:Tom3.wav
64,192,112031,1,8,0:0:0:0:
320,192,112031,1,0,0:0:0:0:
448,192,112031,1,0,0:0:0:0:
192,192,112193,1,2,0:0:0:0:
320,192,112193,1,0,0:0:0:0:
64,192,112356,1,8,0:0:0:0:
192,192,112356,1,0,0:0:0:0:
448,192,112356,1,0,0:0:0:0:
320,192,112518,1,2,0:0:0:0:
448,192,112518,1,0,0:0:0:0:
64,192,112680,1,8,0:0:0:0:
192,192,112680,1,0,0:0:0:0:
320,192,112761,1,8,0:0:0:0:
64,192,112842,1,2,0:0:0:0:
192,192,112842,1,4,0:0:0:0:
448,192,112842,1,0,0:0:0:0:
320,192,113004,1,0,0:0:0:0:
64,192,113166,1,2,0:0:0:0:
448,192,113166,1,0,0:0:0:0:
192,192,113329,1,0,0:0:0:0:
320,192,113491,1,2,0:0:0:0:
448,192,113491,1,0,0:0:0:0:
192,192,113653,1,0,0:0:0:0:
64,192,113815,1,2,0:0:0:0:
448,192,113815,1,0,0:0:0:0:
192,192,113977,1,8,0:0:0:0:
320,192,113977,1,0,0:0:0:0:
448,192,113977,1,0,0:0:0:0:
64,192,114139,1,2,0:0:0:0:
192,192,114139,1,0,0:0:0:0:
64,192,114302,1,8,0:0:0:0:
320,192,114302,1,0,0:0:0:0:
448,192,114302,1,0,0:0:0:0:
192,192,114464,1,2,0:0:0:0:
448,192,114464,1,0,0:0:0:0:
320,192,114626,1,0,0:0:0:0:
64,192,114788,1,2,0:0:0:0:
192,192,114788,1,0,0:0:0:0:
448,192,114950,1,0,0:0:0:0:
192,192,115112,1,2,0:0:0:0:
320,192,115112,1,0,0:0:0:0:
64,192,115274,1,0,0:0:0:0:
320,192,115437,1,2,0:0:0:0:
448,192,115437,1,0,0:0:0:0:
192,192,115599,1,0,0:0:0:0:
64,192,115761,1,2,0:0:0:0:
448,192,115761,1,0,0:0:0:0:
320,192,115923,1,0,0:0:0:0:
64,192,116085,1,2,0:0:0:0:
192,192,116085,1,0,0:0:0:0:
320,192,116247,1,0,0:0:0:0:
64,192,116410,1,2,0:0:0:0:
448,192,116410,1,0,0:0:0:0:
192,192,116572,1,0,0:0:0:0:
320,192,116734,1,2,0:0:0:0:
448,192,116734,1,0,0:0:0:0:
64,192,116896,1,0,0:0:0:0:
192,192,117058,1,2,0:0:0:0:
320,192,117058,1,0,0:0:0:0:
448,192,117220,1,0,0:0:0:0:
64,192,117383,1,2,0:0:0:0:
192,192,117383,1,0,0:0:0:0:
320,192,117545,1,0,0:0:0:0:
64,192,117707,1,8,0:0:0:0:
192,192,117707,1,0,0:0:0:0:
448,192,117707,1,0,0:0:0:0:
320,192,117869,1,0,0:0:0:0:
64,192,118031,128,2,118356:0:0:0:0:
192,192,118031,1,0,0:0:0:0:
192,192,118356,1,8,0:0:0:0:
320,192,118356,1,0,0:0:0:0:
448,192,118356,1,0,0:0:0:0:
64,192,118518,1,0,0:0:0:0:
320,192,118680,1,0,0:0:0:0:
64,192,118842,1,2,0:0:0:0:
192,192,118842,1,0,0:0:0:0:
64,192,119004,1,8,0:0:0:0:
320,192,119004,1,0,0:0:0:0:
448,192,119004,1,0,0:0:0:0:
192,192,119166,1,2,0:0:0:0:
320,192,119166,1,4,0:0:0:0:
448,192,119166,1,0,0:0:0:0:
64,192,119329,1,0,0:0:0:0:
320,192,119491,1,2,0:0:0:0:
448,192,119491,1,0,0:0:0:0:
64,192,119653,1,8,0:0:0:0:
192,192,119653,1,0,0:0:0:0:
448,192,119653,1,0,0:0:0:0:
320,192,119815,1,0,0:0:0:0:
64,192,119977,1,0,0:0:0:55:Tom1.wav
448,192,119977,1,0,0:0:0:0:
64,192,120139,1,8,0:0:0:0:
192,192,120139,1,0,0:0:0:0:
320,192,120220,1,8,0:0:0:0:
448,192,120220,1,0,0:0:0:0:
64,192,120302,1,8,0:0:0:0:
192,192,120302,1,0,0:0:0:0:
320,192,120464,1,8,0:0:0:0:
448,192,120464,1,0,0:0:0:0:
192,192,120545,1,8,0:0:0:0:
64,192,120626,128,2,120950:0:0:0:0:
320,192,120626,1,4,0:0:0:0:
448,192,120626,1,0,0:0:0:0:
192,192,120950,1,8,0:0:0:0:
320,192,120950,1,0,0:0:0:0:
448,192,120950,1,0,0:0:0:0:
64,192,121112,1,0,0:0:0:0:
320,192,121274,1,2,0:0:0:0:
448,192,121274,1,0,0:0:0:0:
64,192,121437,1,2,0:0:0:0:
192,192,121437,1,0,0:0:0:0:
320,192,121599,1,0,0:0:0:0:
64,192,121761,1,8,0:0:0:0:
192,192,121761,1,0,0:0:0:0:
448,192,121761,1,0,0:0:0:0:
320,192,122085,1,2,0:0:0:0:
448,192,122085,1,0,0:0:0:0:
64,192,122247,1,8,0:0:0:0:
192,192,122247,1,0,0:0:0:0:
448,192,122247,1,0,0:0:0:0:
320,192,122410,1,0,0:0:0:0:
64,192,122572,1,2,0:0:0:0:
192,192,122572,1,0,0:0:0:0:
320,192,122734,1,2,0:0:0:0:
448,192,122734,1,0,0:0:0:0:
64,192,122896,1,8,0:0:0:0:
192,192,122896,1,0,0:0:0:0:
448,192,122896,1,0,0:0:0:0:
320,192,123058,1,0,0:0:0:0:
64,192,123220,1,2,0:0:0:0:
192,192,123220,1,4,0:0:0:0:
448,192,123220,128,0,123545:0:0:0:0:
64,192,123545,1,8,0:0:0:0:
192,192,123545,1,0,0:0:0:0:
320,192,123545,1,0,0:0:0:0:
448,192,123707,1,0,0:0:0:0:
64,192,123869,1,2,0:0:0:0:
320,192,123869,1,0,0:0:0:0:
192,192,124031,1,2,0:0:0:0:
448,192,124031,1,0,0:0:0:0:
64,192,124193,1,8,0:0:0:0:
320,192,124193,1,0,0:0:0:0:
448,192,124193,1,0,0:0:0:0:
192,192,124356,1,0,0:0:0:0:
320,192,124518,1,2,0:0:0:0:
448,192,124518,1,0,0:0:0:0:
192,192,124680,1,0,0:0:0:0:
64,192,124842,1,8,0:0:0:0:
320,192,124842,1,0,0:0:0:0:
448,192,124842,1,0,0:0:0:0:
192,192,125004,1,0,0:0:0:0:
320,192,125166,1,2,0:0:0:0:
448,192,125166,1,0,0:0:0:0:
64,192,125329,1,2,0:0:0:0:
192,192,125329,1,0,0:0:0:0:
64,192,125491,1,8,0:0:0:0:
320,192,125491,1,0,0:0:0:0:
448,192,125491,1,0,0:0:0:0:
192,192,125653,1,8,0:0:0:0:
448,192,125653,1,0,0:0:0:0:
320,192,125734,1,8,0:0:0:0:
64,192,125815,1,2,0:0:0:0:
192,192,125815,1,4,0:0:0:0:
448,192,125815,128,0,126139:0:0:0:0:
64,192,126139,1,8,0:0:0:0:
192,192,126139,1,0,0:0:0:0:
320,192,126139,1,0,0:0:0:0:
448,192,126302,1,0,0:0:0:0:
64,192,126464,1,2,0:0:0:0:
192,192,126464,1,0,0:0:0:0:
320,192,126626,1,2,0:0:0:0:
448,192,126626,1,0,0:0:0:0:
192,192,126788,1,0,0:0:0:0:
64,192,126950,1,8,0:0:0:0:
320,192,126950,1,0,0:0:0:0:
448,192,126950,1,0,0:0:0:0:
64,192,127274,1,2,0:0:0:0:
192,192,127274,1,0,0:0:0:0:
64,192,127437,1,8,0:0:0:0:
320,192,127437,1,0,0:0:0:0:
448,192,127437,1,0,0:0:0:0:
192,192,127599,1,0,0:0:0:0:
320,192,127761,1,2,0:0:0:0:
448,192,127761,1,0,0:0:0:0:
64,192,127923,1,2,0:0:0:0:
192,192,127923,1,0,0:0:0:0:
64,192,128085,1,8,0:0:0:0:
320,192,128085,1,0,0:0:0:0:
448,192,128085,1,0,0:0:0:0:
192,192,128247,1,0,0:0:0:0:
320,192,128410,1,2,0:0:0:0:
448,192,128410,1,0,0:0:0:0:
64,192,128572,1,2,0:0:0:0:
192,192,128572,1,0,0:0:0:0:
64,192,128734,128,8,129058:0:0:0:0:
320,192,128734,1,0,0:0:0:0:
448,192,128734,1,0,0:0:0:0:
320,192,129058,128,2,129383:0:0:0:0:
448,192,129058,1,0,0:0:0:0:
64,192,129220,1,2,0:0:0:0:
192,192,129220,1,0,0:0:0:0:
64,192,129383,1,8,0:0:0:0:
192,192,129383,128,0,129707:0:0:0:0:
448,192,129383,1,0,0:0:0:0:
320,192,129707,1,2,0:0:0:0:
448,192,129707,128,0,130031:0:0:0:0:
64,192,129869,1,2,0:0:0:0:
192,192,129869,1,0,0:0:0:0:
64,192,130031,1,8,0:0:0:0:
192,192,130031,1,0,0:0:0:0:
320,192,130031,1,0,0:0:0:0:
448,192,130193,1,0,0:0:0:0:
64,192,130356,1,2,0:0:0:0:
192,192,130356,1,0,0:0:0:0:
64,192,130518,1,8,0:0:0:0:
448,192,130518,1,0,0:0:0:0:
320,192,130680,1,0,0:0:0:55:Tom1.wav
192,192,130842,1,0,0:0:0:60:Tom2.wav
64,192,131004,1,2,0:0:0:0:
320,192,131004,1,4,0:0:0:0:
448,192,131004,128,0,131085:0:0:0:0:
192,192,131166,128,0,131247:0:0:0:0:
64,192,131329,128,0,131410:0:0:0:0:
448,192,131491,128,0,131572:0:0:0:0:
192,192,131815,128,0,131896:0:0:0:0:
448,192,132139,128,0,132220:0:0:0:45:Ride.wav
320,192,132220,1,0,0:0:0:45:Ride.wav
192,192,132302,1,0,0:0:0:45:Ride.wav
64,192,132464,128,0,132545:0:0:0:0:
320,192,132626,128,0,132707:0:0:0:0:
448,192,132626,1,0,0:0:0:0:
192,192,132788,128,0,132869:0:0:0:45:Ride.wav
64,192,132950,128,0,133031:0:0:0:0:
320,192,132950,1,0,0:0:0:0:
448,192,133112,128,0,133193:0:0:0:0:
192,192,133274,128,0,133356:0:0:0:0:
64,192,133274,1,0,0:0:0:0:
320,192,133437,128,2,133518:0:0:0:0:
448,192,133437,1,0,0:0:0:0:
64,192,133599,128,2,133680:0:0:0:0:
192,192,133599,1,4,0:0:0:0:
448,192,133599,1,0,0:0:0:0:
320,192,133761,1,0,0:0:0:0:
64,192,133923,1,0,0:0:0:0:
320,192,134085,128,0,134166:0:0:0:0:
192,192,134247,1,0,0:0:0:0:
64,192,134410,128,0,134491:0:0:0:0:
320,192,134572,128,0,134653:0:0:0:0:
448,192,134734,128,0,134815:0:0:0:0:
192,192,134896,128,0,134977:0:0:0:45:Ride.wav
64,192,134896,1,0,0:0:0:0:
320,192,135058,128,0,135139:0:0:0:0:
64,192,135220,128,0,135302:0:0:0:0:
448,192,135383,128,0,135464:0:0:0:45:Ride.wav
64,192,135545,128,0,135869:0:0:0:0:
448,192,135707,128,0,136112:0:0:0:0:
320,192,135869,128,0,136112:0:0:0:45:Ride.wav
64,192,136193,1,8,0:0:0:0:
320,192,136193,1,4,0:0:0:0:
448,192,136193,1,0,0:0:0:0:
64,192,136356,1,2,0:0:0:0:
192,192,136356,1,0,0:0:0:0:
320,192,136518,1,2,0:0:0:0:
448,192,136518,1,0,0:0:0:0:
64,192,136680,1,8,0:0:0:0:
192,192,136680,1,0,0:0:0:0:
320,192,136761,1,8,0:0:0:0:
448,192,136761,1,0,0:0:0:0:
192,192,136842,1,0,0:0:0:0:
64,192,137004,1,2,0:0:0:0:
448,192,137004,1,0,0:0:0:0:
64,192,137166,1,8,0:0:0:0:
192,192,137166,1,0,0:0:0:0:
320,192,137166,1,0,0:0:0:0:
192,192,137329,1,2,0:0:0:0:
320,192,137329,1,4,0:0:0:0:
448,192,137329,1,0,0:0:0:0:
64,192,137491,1,0,0:0:0:0:
448,192,137491,1,0,0:0:0:0:
64,192,137653,1,2,0:0:0:0:
192,192,137653,1,0,0:0:0:0:
192,192,137815,1,8,0:0:0:0:
320,192,137815,1,0,0:0:0:0:
448,192,137815,1,0,0:0:0:0:
64,192,137977,1,2,0:0:0:0:
320,192,137977,1,4,0:0:0:0:
448,192,137977,1,0,0:0:0:0:
192,192,138139,1,0,0:0:0:0:
320,192,138302,1,8,0:0:0:0:
448,192,138302,1,0,0:0:0:0:
64,192,138383,1,8,0:0:0:0:
192,192,138383,1,0,0:0:0:0:
320,192,138464,1,0,0:0:0:55:Tom1.wav
192,192,138626,1,0,0:0:0:60:Tom2.wav
320,192,138707,1,0,0:0:0:60:Tom2.wav
64,192,138788,1,8,0:0:0:0:
192,192,138788,1,4,0:0:0:0:
448,192,138788,1,0,0:0:0:0:
320,192,138950,1,2,0:0:0:0:
448,192,138950,1,0,0:0:0:0:
64,192,139112,1,2,0:0:0:0:
192,192,139112,1,0,0:0:0:0:
64,192,139274,1,8,0:0:0:0:
320,192,139274,1,4,0:0:0:0:
448,192,139274,1,0,0:0:0:0:
192,192,139599,1,2,0:0:0:0:
448,192,139599,1,0,0:0:0:0:
64,192,139761,1,8,0:0:0:0:
192,192,139761,1,0,0:0:0:0:
320,192,139761,1,0,0:0:0:0:
64,192,139923,1,2,0:0:0:0:
320,192,139923,1,4,0:0:0:0:
448,192,139923,1,0,0:0:0:0:
192,192,140004,1,0,0:0:0:0:
320,192,140085,1,0,0:0:0:0:
448,192,140166,1,0,0:0:0:0:
192,192,140247,1,0,0:0:0:0:
320,192,140329,1,0,0:0:0:0:
64,192,140410,1,2,0:0:0:0:
192,192,140410,1,0,0:0:0:0:
448,192,140491,1,0,0:0:0:0:
64,192,140572,1,8,0:0:0:0:
192,192,140572,1,0,0:0:0:0:
320,192,140572,1,0,0:0:0:0:
448,192,140653,128,0,140815:0:0:0:0:
320,192,140734,128,0,140815:0:0:0:0:
64,192,140815,128,0,140977:0:0:0:0:
192,192,140896,128,8,140977:0:0:0:0:
320,192,140896,128,0,140977:0:0:0:0:
448,192,140896,128,0,141058:0:0:0:0:
64,192,141058,128,2,141302:0:0:0:0:
192,192,141058,128,0,141302:0:0:0:0:
64,192,141383,1,2,0:0:0:0:
320,192,141383,1,4,0:0:0:0:
448,192,141383,128,0,141545:0:0:0:0:
192,192,141545,1,2,0:0:0:0:
320,192,141545,1,0,0:0:0:0:
64,192,141707,1,8,0:0:0:0:
192,192,141707,128,0,141869:0:0:0:0:
448,192,141707,1,0,0:0:0:0:
320,192,141869,128,0,142031:0:0:0:0:
64,192,142031,1,2,0:0:0:0:
192,192,142031,1,0,0:0:0:0:
320,192,142193,1,2,0:0:0:0:
448,192,142193,1,0,0:0:0:0:
64,192,142356,128,8,142518:0:0:0:0:
192,192,142356,1,0,0:0:0:0:
448,192,142356,1,0,0:0:0:0:
320,192,142518,1,0,0:0:0:0:
64,192,142680,1,2,0:0:0:0:
448,192,142680,128,0,142842:0:0:0:0:
192,192,142842,1,2,0:0:0:0:
320,192,142842,1,0,0:0:0:0:
64,192,143004,1,8,0:0:0:0:
320,192,143004,1,0,0:0:0:0:
448,192,143004,1,0,0:0:0:0:
192,192,143166,128,0,143329:0:0:0:0:
320,192,143329,1,2,0:0:0:0:
448,192,143329,1,0,0:0:0:0:
64,192,143491,1,2,0:0:0:0:
192,192,143491,1,0,0:0:0:0:
64,192,143653,1,8,0:0:0:0:
320,192,143653,1,0,0:0:0:0:
448,192,143653,128,0,143815:0:0:0:0:
192,192,143815,1,0,0:0:0:0:
64,192,143977,128,2,144139:0:0:0:0:
448,192,143977,1,0,0:0:0:0:
192,192,144139,1,2,0:0:0:0:
320,192,144139,1,0,0:0:0:0:
64,192,144302,1,8,0:0:0:0:
192,192,144302,1,0,0:0:0:0:
448,192,144302,1,0,0:0:0:0:
320,192,144464,1,0,0:0:0:0:
64,192,144626,128,2,144788:0:0:0:0:
192,192,144626,1,0,0:0:0:0:
320,192,144788,1,2,0:0:0:0:
448,192,144788,128,0,144950:0:0:0:0:
64,192,144950,1,8,0:0:0:0:
192,192,144950,1,0,0:0:0:0:
320,192,144950,1,0,0:0:0:0:
192,192,145112,128,0,145274:0:0:0:0:
64,192,145274,1,2,0:0:0:0:
448,192,145274,1,0,0:0:0:0:
192,192,145437,1,2,0:0:0:0:
320,192,145437,128,0,145599:0:0:0:0:
64,192,145599,1,8,0:0:0:0:
448,192,145599,1,0,0:0:0:0:
192,192,145599,1,0,0:0:0:0:
64,192,145761,128,0,145923:0:0:0:0:
320,192,145923,1,2,0:0:0:0:
448,192,145923,1,4,0:0:0:0:
64,192,146085,1,2,0:0:0:0:
192,192,146085,1,0,0:0:0:0:
64,192,146247,1,8,0:0:0:0:
448,192,146247,1,0,0:0:0:0:
320,192,146247,128,0,146410:0:0:0:0:
192,192,146410,128,0,146572:0:0:0:0:
64,192,146572,1,2,0:0:0:0:
448,192,146572,1,4,0:0:0:0:
192,192,146734,1,2,0:0:0:0:
320,192,146734,1,0,0:0:0:0:
64,192,146896,1,8,0:0:0:0:
192,192,146896,1,0,0:0:0:0:
448,192,146896,128,0,147058:0:0:0:0:
320,192,147058,1,0,0:0:0:0:
64,192,147220,128,2,147383:0:0:0:0:
192,192,147220,1,0,0:0:0:0:
320,192,147383,1,2,0:0:0:0:
448,192,147383,128,0,147545:0:0:0:0:
64,192,147545,1,8,0:0:0:0:
192,192,147545,1,0,0:0:0:0:
320,192,147545,1,0,0:0:0:0:
192,192,147707,128,0,147869:0:0:0:0:
64,192,147869,1,2,0:0:0:0:
448,192,147869,1,0,0:0:0:0:
192,192,148031,1,2,0:0:0:0:
320,192,148031,128,0,148193:0:0:0:0:
64,192,148193,1,8,0:0:0:0:
448,192,148193,1,0,0:0:0:0:
192,192,148193,1,0,0:0:0:0:
64,192,148356,128,0,148518:0:0:0:0:
320,192,148518,1,2,0:0:0:0:
448,192,148518,1,0,0:0:0:0:
64,192,148680,1,2,0:0:0:0:
192,192,148680,1,0,0:0:0:0:
64,192,148842,1,8,0:0:0:0:
320,192,148842,1,0,0:0:0:0:
448,192,148842,128,0,149004:0:0:0:0:
192,192,149004,1,0,0:0:0:0:
64,192,149166,128,2,149329:0:0:0:0:
448,192,149166,1,0,0:0:0:0:
192,192,149329,1,2,0:0:0:0:
320,192,149329,1,0,0:0:0:0:
64,192,149491,1,8,0:0:0:0:
192,192,149491,1,0,0:0:0:0:
448,192,149491,1,0,0:0:0:0:
192,192,149653,1,2,0:0:0:0:
320,192,149653,128,0,149815:0:0:0:0:
64,192,149815,1,0,0:0:0:0:
192,192,149977,128,2,150139:0:0:0:0:
448,192,149977,1,0,0:0:0:0:
64,192,150139,1,8,0:0:0:0:
320,192,150139,1,0,0:0:0:0:
448,192,150139,1,0,0:0:0:0:
64,192,150302,128,2,150545:0:0:0:0:
192,192,150302,128,0,150545:0:0:0:0:
448,192,150302,128,0,150545:0:0:0:0:
64,192,150626,1,8,0:0:0:0:
320,192,150626,1,0,0:0:0:0:
448,192,150626,1,0,0:0:0:0:
64,192,150788,1,8,0:0:0:0:
192,192,150788,1,0,0:0:0:0:
448,192,150788,1,0,0:0:0:0:
320,192,150869,1,0,0:0:0:0:
192,192,150950,1,0,0:0:0:0:
64,192,151031,1,0,0:0:0:0:
320,192,151112,1,0,0:0:0:55:Tom1.wav
448,192,151112,1,0,0:0:0:0:
192,192,151193,1,0,0:0:0:0:
320,192,151274,1,8,0:0:0:0:
448,192,151274,1,0,0:0:0:0:
64,192,151356,1,8,0:0:0:0:
192,192,151356,1,0,0:0:0:0:
320,192,151437,1,8,0:0:0:0:
448,192,151437,1,0,0:0:0:0:
192,192,151518,1,0,0:0:0:0:
64,192,151599,1,8,0:0:0:0:
448,192,151599,1,0,0:0:0:0:
320,192,151680,1,8,0:0:0:0:
64,192,151761,128,2,151923:0:0:0:0:
192,192,151761,1,4,0:0:0:0:
448,192,151761,1,0,0:0:0:0:
192,192,151923,1,2,0:0:0:0:
320,192,151923,1,0,0:0:0:0:
64,192,152085,1,8,0:0:0:0:
320,192,152085,128,0,152247:0:0:0:0:
448,192,152085,1,0,0:0:0:0:
192,192,152247,128,0,152410:0:0:0:0:
320,192,152410,1,2,0:0:0:0:
448,192,152410,1,0,0:0:0:0:
64,192,152572,1,2,0:0:0:0:
192,192,152572,1,0,0:0:0:0:
64,192,152734,1,8,0:0:0:0:
320,192,152734,1,0,0:0:0:0:
448,192,152734,128,0,152896:0:0:0:0:
192,192,152896,1,0,0:0:0:0:
64,192,153058,128,2,153220:0:0:0:0:
448,192,153058,1,0,0:0:0:0:
192,192,153220,1,2,0:0:0:0:
320,192,153220,1,0,0:0:0:0:
64,192,153383,1,8,0:0:0:0:
192,192,153383,1,0,0:0:0:0:
448,192,153383,1,0,0:0:0:0:
320,192,153545,128,0,153707:0:0:0:0:
64,192,153707,1,2,0:0:0:0:
192,192,153707,1,0,0:0:0:0:
320,192,153869,1,2,0:0:0:0:
448,192,153869,1,0,0:0:0:0:
64,192,154031,128,8,154193:0:0:0:0:
192,192,154031,1,0,0:0:0:0:
448,192,154031,1,0,0:0:0:0:
320,192,154193,1,0,0:0:0:0:
64,192,154356,1,2,0:0:0:0:
448,192,154356,128,0,154518:0:0:0:0:
192,192,154518,1,2,0:0:0:0:
320,192,154518,1,0,0:0:0:0:
64,192,154680,1,8,0:0:0:0:
320,192,154680,1,0,0:0:0:0:
448,192,154680,1,0,0:0:0:0:
192,192,154842,1,0,0:0:0:0:
320,192,155004,1,2,0:0:0:0:
448,192,155004,128,0,155166:0:0:0:0:
64,192,155166,128,2,155329:0:0:0:0:
192,192,155166,1,0,0:0:0:0:
192,192,155329,1,8,0:0:0:0:
320,192,155329,1,0,0:0:0:0:
448,192,155329,1,0,0:0:0:0:
64,192,155491,1,2,0:0:0:0:
320,192,155491,128,4,155653:0:0:0:0:
448,192,155491,1,0,0:0:0:0:
192,192,155653,1,0,0:0:0:0:
64,192,155815,1,2,0:0:0:0:
448,192,155815,128,0,155977:0:0:0:0:
64,192,155977,1,8,0:0:0:0:
192,192,155977,1,0,0:0:0:0:
320,192,155977,1,0,0:0:0:0:
320,192,156139,128,2,156302:0:0:0:0:
448,192,156139,1,4,0:0:0:0:
192,192,156302,1,0,0:0:0:0:
64,192,156464,1,8,0:0:0:0:
448,192,156464,1,0,0:0:0:0:
320,192,156464,1,0,0:0:0:0:
64,192,156626,1,0,0:0:0:55:Tom1.wav
192,192,156626,128,0,156788:0:0:0:0:
320,192,156788,128,0,156950:0:0:0:60:Tom2.wav
448,192,156788,1,0,0:0:0:0:
64,192,156950,1,2,0:0:0:0:
192,192,156950,1,4,0:0:0:0:
448,192,156950,1,0,0:0:0:0:
64,192,157112,1,0,0:0:0:0:
320,192,157274,1,0,0:0:0:0:
320,192,157437,1,2,0:0:0:0:
448,192,157437,1,0,0:0:0:0:
64,192,157599,1,8,0:0:0:0:
192,192,157599,1,0,0:0:0:0:
448,192,157599,1,0,0:0:0:0:
192,192,157761,1,0,0:0:0:0:
320,192,157923,128,0,158085:0:0:0:0:
448,192,157923,1,0,0:0:0:0:
64,192,158085,128,8,158247:0:0:0:0:
192,192,158085,1,0,0:0:0:0:
448,192,158085,1,0,0:0:0:0:
192,192,158247,128,0,158410:0:0:0:0:
64,192,158410,1,8,0:0:0:0:
320,192,158410,1,0,0:0:0:0:
448,192,158410,1,0,0:0:0:0:
320,192,158572,1,2,0:0:0:0:
448,192,158572,128,0,158734:0:0:0:0:
64,192,158734,128,2,158896:0:0:0:0:
192,192,158734,1,0,0:0:0:0:
192,192,158896,1,8,0:0:0:0:
320,192,158896,1,0,0:0:0:0:
448,192,158896,1,0,0:0:0:0:
64,192,159058,1,2,0:0:0:0:
448,192,159058,1,0,0:0:0:0:
192,192,159220,1,8,0:0:0:0:
320,192,159220,128,0,159383:0:0:0:0:
448,192,159220,1,0,0:0:0:0:
192,192,159383,128,0,159545:0:0:0:0:
64,192,159545,1,2,0:0:0:0:
320,192,159545,1,4,0:0:0:0:
448,192,159545,128,0,159707:0:0:0:0:
192,192,159707,1,0,0:0:0:0:
64,192,159869,128,0,160031:0:0:0:0:
320,192,160031,128,2,160193:0:0:0:0:
448,192,160031,1,0,0:0:0:0:
64,192,160193,1,8,0:0:0:0:
192,192,160193,1,0,0:0:0:0:
448,192,160193,1,0,0:0:0:0:
320,192,160356,1,0,0:0:0:0:
192,192,160518,128,0,160680:0:0:0:0:
64,192,160680,1,8,0:0:0:0:
320,192,160680,1,0,0:0:0:0:
448,192,160680,1,0,0:0:0:0:
448,192,160842,128,0,161004:0:0:0:0:
64,192,161004,1,8,0:0:0:0:
192,192,161004,1,0,0:0:0:0:
320,192,161004,1,0,0:0:0:0:
320,192,161166,1,2,0:0:0:0:
448,192,161166,1,0,0:0:0:0:
64,192,161329,1,2,0:0:0:0:
192,192,161329,1,0,0:0:0:0:
64,192,161491,1,8,0:0:0:0:
320,192,161491,1,0,0:0:0:0:
448,192,161491,1,0,0:0:0:0:
192,192,161653,1,2,0:0:0:0:
320,192,161653,1,0,0:0:0:0:
64,192,161815,1,8,0:0:0:0:
192,192,161815,1,0,0:0:0:0:
448,192,161815,1,0,0:0:0:0:
64,192,161977,1,8,0:0:0:0:
320,192,161977,1,0,0:0:0:0:
448,192,161977,1,0,0:0:0:0:
64,192,162139,1,2,0:0:0:0:
192,192,162139,1,4,0:0:0:0:
320,192,162139,1,0,0:0:0:0:
320,192,162302,1,8,0:0:0:0:
448,192,162302,1,0,0:0:0:0:
64,192,162383,1,8,0:0:0:0:
192,192,162383,1,0,0:0:0:0:
320,192,162464,1,2,0:0:0:0:
448,192,162464,1,0,0:0:0:0:
64,192,162626,1,8,0:0:0:0:
448,192,162626,1,0,0:0:0:0:
192,192,162707,1,8,0:0:0:0:
320,192,162707,1,0,0:0:0:0:
64,192,162788,1,2,0:0:0:0:
448,192,162788,1,0,0:0:0:0:
64,192,162950,1,8,0:0:0:0:
192,192,162950,1,0,0:0:0:0:
320,192,163031,1,8,0:0:0:0:
448,192,163031,1,0,0:0:0:0:
64,192,163112,1,2,0:0:0:0:
192,192,163112,1,0,0:0:0:0:
192,192,163274,1,8,0:0:0:0:
448,192,163274,1,0,0:0:0:0:
64,192,163356,1,8,0:0:0:0:
320,192,163356,1,0,0:0:0:0:
192,192,163437,1,2,0:0:0:0:
448,192,163437,1,0,0:0:0:0:
64,192,163599,1,8,0:0:0:0:
320,192,163599,1,0,0:0:0:0:
192,192,163680,1,8,0:0:0:0:
448,192,163680,1,0,0:0:0:0:
64,192,163761,1,2,0:0:0:0:
320,192,163761,1,0,0:0:0:0:
320,192,163923,1,8,0:0:0:0:
448,192,163923,1,0,0:0:0:0:
64,192,164004,1,8,0:0:0:0:
192,192,164004,1,0,0:0:0:0:
320,192,164085,1,2,0:0:0:0:
448,192,164085,1,0,0:0:0:0:
64,192,164247,1,8,0:0:0:0:
192,192,164247,1,0,0:0:0:0:
320,192,164329,1,8,0:0:0:0:
448,192,164329,1,0,0:0:0:0:
64,192,164410,1,2,0:0:0:0:
192,192,164410,1,0,0:0:0:0:
64,192,164572,1,8,0:0:0:0:
448,192,164572,1,0,0:0:0:0:
192,192,164653,1,8,0:0:0:0:
320,192,164653,1,0,0:0:0:0:
64,192,164734,1,2,0:0:0:0:
448,192,164734,1,0,0:0:0:0:
192,192,164896,1,0,0:0:0:0:
320,192,165058,1,2,0:0:0:0:
448,192,165058,1,0,0:0:0:0:
64,192,165220,1,8,0:0:0:0:
192,192,165220,1,0,0:0:0:0:
320,192,165383,1,0,0:0:0:30:Tom3.wav
192,192,165383,1,2,0:0:0:0:
448,192,165545,1,8,0:0:0:0:
320,192,165545,1,0,0:0:0:0:
192,192,165707,1,0,0:0:0:50:Tom3.wav
64,192,165707,1,2,0:0:0:0:
320,192,165869,1,8,0:0:0:0:
448,192,165869,128,0,166031:0:0:0:60:Tom3.wav
192,192,166031,128,0,166356:0:0:0:0:
320,192,166356,128,0,166680:0:0:0:0:
64,192,166680,128,0,167004:0:0:0:0:
448,192,167004,128,0,167247:0:0:0:0:
320,192,167166,128,0,167247:0:0:0:0:
64,192,167329,128,2,167491:0:0:0:0:
320,192,167329,1,4,0:0:0:0:
448,192,167329,1,0,0:0:0:0:
192,192,167491,1,0,0:0:0:0:
320,192,167653,1,2,0:0:0:0:
448,192,167653,1,0,0:0:0:0:
64,192,167815,1,8,0:0:0:0:
192,192,167815,128,0,167977:0:0:0:0:
448,192,167815,1,0,0:0:0:0:
64,192,167977,1,8,0:0:0:0:
320,192,167977,1,0,0:0:0:0:
448,192,167977,1,0,0:0:0:0:
192,192,168139,1,2,0:0:0:0:
320,192,168139,1,0,0:0:0:0:
64,192,168302,1,2,0:0:0:0:
192,192,168302,1,4,0:0:0:0:
448,192,168302,128,0,168464:0:0:0:0:
320,192,168464,1,0,0:0:0:0:
64,192,168626,1,2,0:0:0:0:
192,192,168626,1,0,0:0:0:0:
64,192,168788,1,8,0:0:0:0:
320,192,168788,128,0,168950:0:0:0:0:
448,192,168788,1,0,0:0:0:0:
64,192,168950,1,8,0:0:0:0:
192,192,168950,1,0,0:0:0:0:
448,192,168950,1,0,0:0:0:0:
192,192,169112,1,2,0:0:0:0:
320,192,169112,1,0,0:0:0:0:
64,192,169274,1,2,0:0:0:0:
448,192,169274,1,0,0:0:0:0:
320,192,169437,1,8,0:0:0:0:
448,192,169437,1,0,0:0:0:0:
64,192,169518,1,8,0:0:0:0:
192,192,169518,1,0,0:0:0:0:
320,192,169599,128,2,169761:0:0:0:0:
448,192,169599,1,4,0:0:0:0:
64,192,169761,1,2,0:0:0:0:
192,192,169761,1,0,0:0:0:0:
192,192,169923,1,8,0:0:0:0:
320,192,169923,1,0,0:0:0:0:
448,192,169923,1,0,0:0:0:0:
64,192,170085,128,2,170247:0:0:0:0:
448,192,170085,1,0,0:0:0:0:
192,192,170247,1,8,0:0:0:0:
320,192,170247,1,0,0:0:0:0:
448,192,170247,1,0,0:0:0:0:
64,192,170410,128,2,170491:0:0:0:0:
192,192,170410,128,0,170491:0:0:0:0:
320,192,170734,128,2,171058:0:0:0:0:
448,192,170734,128,4,171058:0:0:0:0:
64,192,171058,128,2,171220:0:0:0:0:
192,192,171058,1,0,0:0:0:0:
192,192,171220,1,8,0:0:0:0:
320,192,171220,128,0,171383:0:0:0:0:
448,192,171220,1,0,0:0:0:0:
64,192,171383,128,0,171545:0:0:0:0:
320,192,171545,1,2,0:0:0:0:
448,192,171545,128,0,171707:0:0:0:0:
64,192,171707,1,8,0:0:0:0:
192,192,171707,1,0,0:0:0:0:
320,192,171788,1,8,0:0:0:0:
448,192,171788,1,0,0:0:0:0:
64,192,171869,1,8,0:0:0:0:
192,192,171869,1,0,0:0:0:0:
320,192,171950,1,0,0:0:0:55:Tom1.wav
192,192,172031,1,0,0:0:0:60:Tom2.wav
448,192,172112,1,0,0:0:0:60:Tom3.wav
64,192,172193,128,2,172518:0:0:0:0:
192,192,172193,1,4,0:0:0:0:
320,192,172193,1,0,0:0:0:0:
320,192,172356,1,2,0:0:0:0:
448,192,172356,1,0,0:0:0:0:
192,192,172518,1,8,0:0:0:0:
448,192,172518,128,0,172680:0:0:0:0:
320,192,172599,128,0,172680:0:0:0:0:
64,192,172680,128,0,172842:0:0:0:0:
192,192,172761,128,0,172842:0:0:0:0:
320,192,172842,1,2,0:0:0:0:
448,192,172842,128,0,172923:0:0:0:0:
320,192,173004,1,2,0:0:0:0:
448,192,173004,128,0,173329:0:0:0:0:
64,192,173166,1,8,0:0:0:0:
192,192,173166,1,0,0:0:0:0:
320,192,173166,1,0,0:0:0:0:
64,192,173329,128,2,174302:0:0:0:0:
192,192,173329,1,0,0:0:0:0:
448,192,173491,1,0,0:0:0:0:
192,192,173653,1,2,0:0:0:0:
320,192,173653,1,0,0:0:0:0:
192,192,173815,1,8,0:0:0:0:
320,192,173815,1,0,0:0:0:0:
448,192,173815,1,0,0:0:0:0:
192,192,173977,1,8,0:0:0:0:
320,192,173977,1,0,0:0:0:0:
448,192,173977,1,0,0:0:0:0:
320,192,174139,1,2,0:0:0:0:
448,192,174139,1,0,0:0:0:0:
192,192,174302,1,8,0:0:0:0:
320,192,174302,128,4,174383:0:0:0:0:
448,192,174302,128,0,174383:0:0:0:0:
64,192,174626,1,2,0:0:0:0:
192,192,174626,1,4,0:0:0:0:
448,192,174626,128,0,174950:0:0:0:0:
320,192,174788,1,0,0:0:0:0:
64,192,174950,128,2,175031:0:0:0:0:
192,192,174950,1,0,0:0:0:0:
64,192,175112,1,8,0:0:0:0:
320,192,175112,128,0,175193:0:0:0:0:
448,192,175112,1,0,0:0:0:0:
192,192,175274,128,0,175356:0:0:0:0:
320,192,175437,1,2,0:0:0:0:
448,192,175437,128,0,175518:0:0:0:0:
64,192,175599,128,2,175680:0:0:0:0:
192,192,175599,1,0,0:0:0:0:
64,192,175761,1,8,0:0:0:0:
320,192,175761,1,0,0:0:0:0:
448,192,175761,1,0,0:0:0:0:
448,192,175923,128,0,176410:0:0:0:0:
64,192,176085,1,2,0:0:0:0:
192,192,176085,1,0,0:0:0:0:
64,192,176247,1,2,0:0:0:0:
320,192,176247,1,0,0:0:0:0:
64,192,176410,1,8,0:0:0:0:
192,192,176410,128,0,176491:0:0:0:0:
320,192,176410,1,0,0:0:0:0:
192,192,176572,1,8,0:0:0:0:
320,192,176572,1,0,0:0:0:0:
448,192,176572,1,0,0:0:0:0:
64,192,176734,128,2,176815:0:0:0:0:
192,192,176734,1,0,0:0:0:0:
64,192,176896,1,8,0:0:0:0:
320,192,176896,128,0,176977:0:0:0:0:
448,192,176896,1,0,0:0:0:0:
64,192,177058,1,8,0:0:0:0:
192,192,177058,128,0,177139:0:0:0:0:
320,192,177058,1,0,0:0:0:0:
320,192,177220,1,2,0:0:0:0:
448,192,177220,128,0,177707:0:0:0:0:
64,192,177383,1,0,0:0:0:0:
192,192,177545,1,2,0:0:0:0:
320,192,177545,1,0,0:0:0:0:
64,192,177707,128,8,177869:0:0:0:0:
320,192,177707,1,0,0:0:0:0:
192,192,177788,128,0,177869:0:0:0:0:
448,192,177869,128,0,178031:0:0:0:0:
320,192,177950,128,0,178031:0:0:0:0:
64,192,178031,128,2,178112:0:0:0:0:
192,192,178031,1,0,0:0:0:0:
320,192,178193,128,2,178274:0:0:0:0:
448,192,178193,1,0,0:0:0:0:
64,192,178356,1,8,0:0:0:0:
192,192,178356,128,0,178437:0:0:0:0:
320,192,178356,1,0,0:0:0:0:
192,192,178518,1,2,0:0:0:0:
448,192,178518,128,0,178599:0:0:0:0:
320,192,178680,1,0,0:0:0:0:
64,192,178842,128,8,178923:0:0:0:0:
192,192,178842,1,0,0:0:0:0:
448,192,178842,1,0,0:0:0:0:
64,192,179004,1,8,0:0:0:0:
320,192,179004,128,0,179085:0:0:0:0:
448,192,179004,1,0,0:0:0:0:
64,192,179166,1,2,0:0:0:0:
192,192,179166,128,4,179247:0:0:0:0:
320,192,179166,1,0,0:0:0:0:
320,192,179329,1,8,0:0:0:0:
448,192,179329,128,0,179410:0:0:0:0:
192,192,179410,1,0,0:0:0:55:Tom1.wav
64,192,179491,128,0,179572:0:0:0:60:Tom2.wav
448,192,179491,1,0,0:0:0:0:
320,192,179572,1,0,0:0:0:60:Tom3.wav
64,192,179653,1,8,0:0:0:0:
192,192,179653,128,0,179734:0:0:0:0:
448,192,179653,1,0,0:0:0:0:
192,192,179815,1,2,0:0:0:0:
320,192,179815,128,4,180788:0:0:0:0:
448,192,179977,1,0,0:0:0:0:
64,192,180139,1,2,0:0:0:0:
192,192,180139,1,0,0:0:0:0:
64,192,180302,1,8,0:0:0:0:
192,192,180302,1,0,0:0:0:45:Ride.wav
448,192,180302,1,0,0:0:0:0:
192,192,180464,1,2,0:0:0:0:
448,192,180464,1,0,0:0:0:0:
64,192,180626,1,0,0:0:0:45:Ride.wav
192,192,180788,1,2,0:0:0:0:
448,192,180788,128,0,180869:0:0:0:0:
64,192,180950,1,8,0:0:0:0:
192,192,180950,1,0,0:0:0:0:
320,192,180950,1,0,0:0:0:0:
64,192,181112,128,2,181437:0:0:0:0:
448,192,181112,1,4,0:0:0:0:
192,192,181274,1,0,0:0:0:0:
192,192,181437,1,8,0:0:0:0:
320,192,181437,1,0,0:0:0:0:
448,192,181437,128,0,181599:0:0:0:0:
64,192,181599,1,8,0:0:0:0:
192,192,181599,128,0,181761:0:0:0:0:
320,192,181599,1,0,0:0:0:0:
320,192,181761,128,0,181923:0:0:0:0:
64,192,181923,128,0,182085:0:0:0:55:Tom1.wav
192,192,181923,1,0,0:0:0:0:
320,192,182085,1,8,0:0:0:0:
448,192,182085,128,0,182247:0:0:0:0:
64,192,182166,1,8,0:0:0:0:
192,192,182247,128,8,182410:0:0:0:0:
320,192,182247,1,0,0:0:0:0:
320,192,182410,128,8,182572:0:0:0:0:
448,192,182410,1,0,0:0:0:0:
192,192,182491,1,8,0:0:0:0:
64,192,182572,128,2,182734:0:0:0:0:
448,192,182572,1,4,0:0:0:0:
192,192,182734,1,2,0:0:0:0:
320,192,182734,1,0,0:0:0:0:
64,192,182896,1,8,0:0:0:0:
192,192,182896,1,0,0:0:0:0:
448,192,182896,1,0,0:0:0:0:
320,192,183058,1,0,0:0:0:0:
64,192,183220,1,2,0:0:0:0:
448,192,183220,1,0,0:0:0:0:
192,192,183383,1,2,0:0:0:0:
320,192,183383,1,0,0:0:0:0:
64,192,183545,1,8,0:0:0:0:
192,192,183545,1,0,0:0:0:0:
448,192,183545,1,0,0:0:0:0:
320,192,183707,1,0,0:0:0:0:
64,192,183869,1,2,0:0:0:0:
192,192,183869,1,0,0:0:0:0:
320,192,184031,1,2,0:0:0:0:
448,192,184031,1,0,0:0:0:0:
64,192,184193,1,8,0:0:0:0:
192,192,184193,1,0,0:0:0:0:
320,192,184193,1,0,0:0:0:0:
448,192,184356,1,0,0:0:0:0:
192,192,184518,1,2,0:0:0:0:
320,192,184518,1,0,0:0:0:0:
64,192,184680,1,2,0:0:0:0:
448,192,184680,1,0,0:0:0:0:
192,192,184842,1,8,0:0:0:0:
320,192,184842,1,0,0:0:0:0:
448,192,184842,1,0,0:0:0:0:
64,192,185004,1,0,0:0:0:0:
320,192,185166,1,2,0:0:0:0:
448,192,185166,1,0,0:0:0:0:
64,192,185329,1,2,0:0:0:0:
192,192,185329,1,0,0:0:0:0:
64,192,185491,1,8,0:0:0:0:
320,192,185491,1,0,0:0:0:0:
448,192,185491,1,0,0:0:0:0:
192,192,185653,1,0,0:0:0:0:
320,192,185815,1,2,0:0:0:0:
448,192,185815,1,0,0:0:0:0:
64,192,185977,1,2,0:0:0:0:
192,192,185977,1,0,0:0:0:0:
192,192,186139,1,8,0:0:0:0:
320,192,186139,1,0,0:0:0:0:
448,192,186139,1,0,0:0:0:0:
64,192,186301,1,2,0:0:0:0:
320,192,186301,1,4,0:0:0:0:
448,192,186301,1,0,0:0:0:0:
192,192,186464,1,0,0:0:0:0:
320,192,186626,1,2,0:0:0:0:
448,192,186626,1,0,0:0:0:0:
64,192,186788,1,8,0:0:0:0:
192,192,186788,1,0,0:0:0:0:
448,192,186788,1,0,0:0:0:0:
64,192,186950,1,2,0:0:0:0:
192,192,186950,1,4,0:0:0:0:
320,192,186950,1,0,0:0:0:0:
448,192,187112,1,0,0:0:0:0:
64,192,187274,1,8,0:0:0:0:
192,192,187274,1,0,0:0:0:0:
320,192,187274,1,0,0:0:0:0:
64,192,187437,1,0,0:0:0:55:Tom1.wav
448,192,187437,1,0,0:0:0:0:
192,192,187599,1,2,0:0:0:0:
320,192,187599,1,4,0:0:0:0:
448,192,187599,1,0,0:0:0:0:
64,192,187923,1,2,0:0:0:0:
192,192,187923,1,0,0:0:0:0:
64,192,188085,1,2,0:0:0:0:
448,192,188085,1,0,0:0:0:0:
320,192,188247,1,2,0:0:0:0:
448,192,188247,1,0,0:0:0:0:
64,192,188410,1,8,0:0:0:0:
192,192,188410,1,0,0:0:0:0:
320,192,188410,1,0,0:0:0:0:
64,192,188572,1,2,0:0:0:0:
448,192,188572,1,0,0:0:0:0:
192,192,188734,1,2,0:0:0:0:
320,192,188734,1,0,0:0:0:0:
64,192,188896,1,8,0:0:0:0:
320,192,188896,1,4,0:0:0:0:
448,192,188896,1,0,0:0:0:0:
192,192,189058,1,0,0:0:0:0:
64,192,189220,1,8,0:0:0:0:
448,192,189220,1,0,0:0:0:0:
64,192,189383,1,2,0:0:0:0:
192,192,189383,1,0,0:0:0:0:
320,192,189545,1,2,0:0:0:0:
448,192,189545,1,0,0:0:0:0:
64,192,189707,1,8,0:0:0:0:
192,192,189707,1,0,0:0:0:0:
448,192,189707,1,0,0:0:0:0:
192,192,189869,1,2,0:0:0:0:
320,192,189869,1,0,0:0:0:0:
64,192,190031,1,8,0:0:0:0:
320,192,190031,1,0,0:0:0:0:
448,192,190031,1,0,0:0:0:0:
64,192,190193,128,2,191491:0:0:0:0:
192,192,190193,1,4,0:0:0:0:
448,192,190193,1,0,0:0:0:0:
448,192,190680,1,0,0:0:0:45:Ride.wav
192,192,190842,1,0,0:0:0:0:
448,192,191166,1,0,0:0:0:45:Ride.wav
192,192,191491,1,2,0:0:0:0:
320,192,191491,1,4,0:0:0:0:
448,192,191491,128,0,192301:0:0:0:0:
64,192,191977,1,0,0:0:0:0:
320,192,192058,1,0,0:0:0:0:
64,192,192301,1,8,0:0:0:0:
192,192,192301,1,0,0:0:0:0:
64,192,192464,1,0,0:0:0:55:Tom1.wav
448,192,192464,1,0,0:0:0:0:
320,192,192626,1,0,0:0:0:60:Tom2.wav
448,192,192626,1,0,0:0:0:0:
64,192,192788,1,2,0:0:0:0:
192,192,192788,1,4,0:0:0:0:
320,192,192788,128,0,193112:0:0:0:0:
64,192,193112,1,8,0:0:0:0:
192,192,193112,1,0,0:0:0:0:
320,192,193193,1,8,0:0:0:0:
448,192,193193,1,0,0:0:0:0:
64,192,193274,1,2,0:0:0:0:
192,192,193274,1,0,0:0:0:0:
64,192,193437,1,8,0:0:0:0:
448,192,193437,1,0,0:0:0:0:
192,192,193518,1,8,0:0:0:0:
320,192,193518,1,0,0:0:0:0:
64,192,193599,1,2,0:0:0:0:
448,192,193599,1,0,0:0:0:0:
320,192,193761,1,8,0:0:0:0:
448,192,193761,1,0,0:0:0:0:
64,192,193842,1,8,0:0:0:0:
192,192,193842,1,0,0:0:0:0:
320,192,193923,1,2,0:0:0:0:
448,192,193923,1,0,0:0:0:0:
64,192,194085,1,8,0:0:0:0:
320,192,194085,1,0,0:0:0:0:
192,192,194166,1,8,0:0:0:0:
448,192,194166,1,0,0:0:0:0:
64,192,194247,1,2,0:0:0:0:
320,192,194247,1,0,0:0:0:0:
192,192,194410,1,8,0:0:0:0:
448,192,194410,1,0,0:0:0:0:
64,192,194491,1,8,0:0:0:0:
320,192,194491,1,0,0:0:0:0:
192,192,194572,1,2,0:0:0:0:
448,192,194572,1,0,0:0:0:0:
64,192,194734,1,8,0:0:0:0:
192,192,194734,1,0,0:0:0:0:
320,192,194815,1,8,0:0:0:0:
448,192,194815,1,0,0:0:0:0:
64,192,194896,1,2,0:0:0:0:
192,192,194896,1,0,0:0:0:0:
320,192,195058,1,8,0:0:0:0:
448,192,195058,1,0,0:0:0:0:
64,192,195139,1,8,0:0:0:0:
192,192,195139,1,0,0:0:0:0:
320,192,195220,1,2,0:0:0:0:
448,192,195220,1,0,0:0:0:0:
64,192,195383,1,8,0:0:0:0:
448,192,195383,1,0,0:0:0:0:
192,192,195464,1,8,0:0:0:0:
320,192,195464,1,0,0:0:0:0:
64,192,195545,1,2,0:0:0:0:
448,192,195545,1,0,0:0:0:0:
64,192,195707,1,8,0:0:0:0:
192,192,195707,1,0,0:0:0:0:
320,192,195788,1,8,0:0:0:0:
448,192,195788,1,0,0:0:0:0:
64,192,195869,1,2,0:0:0:0:
192,192,195869,1,0,0:0:0:0:
64,192,196031,1,8,0:0:0:0:
448,192,196031,1,0,0:0:0:0:
192,192,196112,1,8,0:0:0:0:
320,192,196112,1,0,0:0:0:0:
64,192,196193,1,2,0:0:0:0:
448,192,196193,1,0,0:0:0:0:
320,192,196356,1,8,0:0:0:0:
448,192,196356,1,0,0:0:0:0:
64,192,196437,1,8,0:0:0:0:
192,192,196437,1,0,0:0:0:0:
320,192,196518,1,2,0:0:0:0:
448,192,196518,1,0,0:0:0:0:
64,192,196680,1,8,0:0:0:0:
320,192,196680,1,0,0:0:0:0:
192,192,196761,1,8,0:0:0:0:
448,192,196761,1,0,0:0:0:0:
64,192,196842,1,2,0:0:0:0:
320,192,196842,1,0,0:0:0:0:
192,192,197004,1,8,0:0:0:0:
448,192,197004,1,0,0:0:0:0:
64,192,197085,1,8,0:0:0:0:
320,192,197085,1,0,0:0:0:0:
192,192,197166,1,2,0:0:0:0:
448,192,197166,1,0,0:0:0:0:
64,192,197329,1,8,0:0:0:0:
192,192,197329,1,0,0:0:0:0:
320,192,197410,1,8,0:0:0:0:
448,192,197410,1,0,0:0:0:0:
64,192,197491,1,2,0:0:0:0:
192,192,197491,1,0,0:0:0:0:
320,192,197653,1,8,0:0:0:0:
448,192,197653,1,0,0:0:0:0:
64,192,197734,1,8,0:0:0:0:
192,192,197734,1,0,0:0:0:0:
320,192,197815,1,2,0:0:0:0:
448,192,197815,1,0,0:0:0:0:
64,192,197977,1,8,0:0:0:0:
448,192,197977,1,0,0:0:0:0:
192,192,198058,1,8,0:0:0:0:
320,192,198058,1,0,0:0:0:0:
64,192,198139,1,2,0:0:0:0:
448,192,198139,1,0,0:0:0:0:
64,192,198301,1,8,0:0:0:0:
192,192,198301,1,0,0:0:0:0:
320,192,198383,1,8,0:0:0:0:
448,192,198383,1,0,0:0:0:0:
64,192,198464,1,2,0:0:0:0:
192,192,198464,1,0,0:0:0:0:
64,192,198626,1,8,0:0:0:0:
448,192,198626,1,0,0:0:0:0:
192,192,198707,1,8,0:0:0:0:
320,192,198707,1,0,0:0:0:0:
64,192,198788,1,2,0:0:0:0:
448,192,198788,1,0,0:0:0:0:
320,192,198950,1,8,0:0:0:0:
448,192,198950,1,0,0:0:0:0:
64,192,199031,1,8,0:0:0:0:
192,192,199031,1,0,0:0:0:0:
320,192,199112,1,2,0:0:0:0:
448,192,199112,1,0,0:0:0:0:
64,192,199274,1,8,0:0:0:0:
320,192,199274,1,0,0:0:0:0:
192,192,199356,1,8,0:0:0:0:
448,192,199356,1,0,0:0:0:0:
64,192,199437,1,2,0:0:0:0:
320,192,199437,1,0,0:0:0:0:
192,192,199599,1,8,0:0:0:0:
448,192,199599,1,0,0:0:0:0:
64,192,199680,1,8,0:0:0:0:
320,192,199680,1,0,0:0:0:0:
192,192,199761,1,2,0:0:0:0:
448,192,199761,1,0,0:0:0:0:
64,192,199923,1,8,0:0:0:0:
192,192,199923,1,0,0:0:0:0:
320,192,200004,1,8,0:0:0:0:
448,192,200004,1,0,0:0:0:0:
64,192,200085,1,2,0:0:0:0:
192,192,200085,1,0,0:0:0:0:
320,192,200247,1,8,0:0:0:0:
448,192,200247,1,0,0:0:0:0:
64,192,200329,1,8,0:0:0:0:
192,192,200329,1,0,0:0:0:0:
320,192,200410,1,2,0:0:0:0:
448,192,200410,1,0,0:0:0:0:
64,192,200572,1,8,0:0:0:0:
448,192,200572,1,0,0:0:0:0:
192,192,200653,1,8,0:0:0:0:
320,192,200653,1,0,0:0:0:0:
64,192,200734,1,2,0:0:0:0:
448,192,200734,1,0,0:0:0:0:
64,192,200896,1,8,0:0:0:0:
192,192,200896,1,0,0:0:0:0:
320,192,200977,1,8,0:0:0:0:
448,192,200977,1,0,0:0:0:0:
64,192,201058,1,2,0:0:0:0:
192,192,201058,1,0,0:0:0:0:
64,192,201220,1,8,0:0:0:0:
448,192,201220,1,0,0:0:0:0:
192,192,201301,1,8,0:0:0:0:
320,192,201301,1,0,0:0:0:0:
64,192,201383,1,2,0:0:0:0:
448,192,201383,1,0,0:0:0:0:
320,192,201545,1,8,0:0:0:0:
448,192,201545,1,0,0:0:0:0:
64,192,201626,1,8,0:0:0:0:
192,192,201626,1,0,0:0:0:0:
320,192,201707,1,2,0:0:0:0:
448,192,201707,1,0,0:0:0:0:
64,192,201869,1,8,0:0:0:0:
320,192,201869,1,0,0:0:0:0:
192,192,201950,1,8,0:0:0:0:
448,192,201950,1,0,0:0:0:0:
64,192,202031,1,2,0:0:0:0:
320,192,202031,1,0,0:0:0:0:
192,192,202193,1,8,0:0:0:0:
448,192,202193,1,0,0:0:0:0:
64,192,202274,1,8,0:0:0:0:
320,192,202274,1,0,0:0:0:0:
192,192,202356,1,2,0:0:0:0:
448,192,202356,1,0,0:0:0:0:
64,192,202518,1,8,0:0:0:0:
192,192,202518,1,0,0:0:0:0:
320,192,202599,1,8,0:0:0:0:
448,192,202599,1,0,0:0:0:0:
64,192,202680,1,2,0:0:0:0:
192,192,202680,1,0,0:0:0:0:
320,192,202842,1,8,0:0:0:0:
448,192,202842,1,0,0:0:0:0:
64,192,202923,1,8,0:0:0:0:
192,192,202923,1,0,0:0:0:0:
320,192,203004,1,2,0:0:0:0:
448,192,203004,1,0,0:0:0:0:
64,192,203166,1,8,0:0:0:0:
448,192,203166,1,0,0:0:0:0:
192,192,203247,1,8,0:0:0:0:
320,192,203247,1,0,0:0:0:0:
64,192,203329,128,2,203491:0:0:0:0:
448,192,203329,1,4,0:0:0:0:
320,192,203491,128,0,203653:0:0:0:0:
192,192,203653,128,0,203815:0:0:0:0:
448,192,203815,128,0,203977:0:0:0:0:
192,192,203977,128,0,204139:0:0:0:0:
64,192,204139,128,0,204301:0:0:0:0:
320,192,204301,128,0,204464:0:0:0:0:
192,192,204464,128,0,204626:0:0:0:0:
448,192,204626,128,0,204788:0:0:0:0:
320,192,204788,128,0,204950:0:0:0:0:
64,192,204950,128,0,205112:0:0:0:0:
192,192,205112,128,0,205274:0:0:0:0:
448,192,205274,128,0,205437:0:0:0:0:
320,192,205437,128,0,205599:0:0:0:0:
64,192,205599,128,0,205761:0:0:0:0:
192,192,205761,128,2,205923:0:0:0:0:
448,192,205761,1,0,0:0:0:45:Ride.wav
64,192,205923,1,2,0:0:0:0:
320,192,205923,128,0,206085:0:0:0:45:Ride.wav
448,192,206085,128,0,206247:0:0:0:0:
192,192,206247,128,0,206410:0:0:0:0:
64,192,206410,128,0,206572:0:0:0:0:
320,192,206572,128,0,206734:0:0:0:0:
448,192,206734,128,0,206896:0:0:0:0:
192,192,206896,128,0,207058:0:0:0:0:
64,192,207058,128,0,207220:0:0:0:0:
448,192,207220,128,0,207383:0:0:0:45:Ride.wav
192,192,207383,128,0,207545:0:0:0:0:
320,192,207545,128,0,207707:0:0:0:0:
64,192,207707,128,0,207869:0:0:0:45:Ride.wav
448,192,207869,128,0,208031:0:0:0:0:
320,192,208031,128,0,208193:0:0:0:45:Ride.wav
192,192,208193,128,0,208356:0:0:0:0:
64,192,208356,128,0,208518:0:0:0:0:
192,192,208518,1,2,0:0:0:0:
320,192,208518,1,4,0:0:0:0:
448,192,208518,128,0,208680:0:0:0:0:
192,192,208680,128,0,208842:0:0:0:0:
320,192,208842,128,0,209004:0:0:0:0:
64,192,209004,128,0,209166:0:0:0:0:
448,192,209166,128,0,209329:0:0:0:0:
320,192,209329,128,0,209491:0:0:0:0:
64,192,209491,128,0,209653:0:0:0:0:
192,192,209653,128,0,209815:0:0:0:0:
320,192,209815,128,0,209977:0:0:0:0:
448,192,209977,128,0,210139:0:0:0:0:
64,192,210139,128,0,210301:0:0:0:0:
448,192,210301,1,0,0:0:0:55:Tom1.wav
320,192,210383,1,0,0:0:0:55:Tom1.wav
192,192,210464,1,0,0:0:0:55:Tom1.wav
448,192,210626,1,0,0:0:0:60:Tom2.wav
64,192,210788,1,0,0:0:0:60:Tom3.wav
320,192,210950,128,0,211112:0:0:0:0:
64,192,211112,1,2,0:0:0:0:
192,192,211112,1,4,0:0:0:0:
448,192,211112,1,0,0:0:0:0:
64,192,211437,1,0,0:0:0:45:Ride.wav
320,192,211599,1,2,0:0:0:0:
448,192,211599,1,0,0:0:0:0:
64,192,211761,1,8,0:0:0:0:
192,192,211761,1,0,0:0:0:0:
448,192,211761,1,0,0:0:0:0:
192,192,211923,1,2,0:0:0:0:
320,192,211923,1,0,0:0:0:0:
64,192,212085,1,0,0:0:0:45:Ride.wav
320,192,212247,1,2,0:0:0:0:
448,192,212247,1,0,0:0:0:0:
64,192,212410,1,2,0:0:0:0:
192,192,212410,1,0,0:0:0:45:Ride.wav
320,192,212572,1,0,0:0:0:0:
448,192,212734,1,0,0:0:0:45:Ride.wav
64,192,212896,1,2,0:0:0:0:
192,192,212896,1,0,0:0:0:0:
64,192,213058,1,8,0:0:0:0:
320,192,213058,1,0,0:0:0:0:
448,192,213058,1,0,0:0:0:0:
192,192,213220,1,2,0:0:0:0:
320,192,213220,1,0,0:0:0:0:
64,192,213383,1,8,0:0:0:0:
192,192,213383,1,0,0:0:0:45:Ride.wav
448,192,213383,1,0,0:0:0:0:
320,192,213545,1,0,0:0:0:0:
64,192,213707,128,2,214031:0:0:0:0:
448,192,213707,128,4,214031:0:0:0:0:
192,192,213707,1,0,0:0:0:0:
192,192,214031,1,0,0:0:0:45:Ride.wav
320,192,214193,1,2,0:0:0:0:
448,192,214193,1,0,0:0:0:0:
64,192,214356,1,8,0:0:0:0:
192,192,214356,1,0,0:0:0:0:
448,192,214356,1,0,0:0:0:0:
64,192,214518,1,8,0:0:0:0:
320,192,214518,1,0,0:0:0:0:
448,192,214518,1,0,0:0:0:0:
320,192,214680,1,2,0:0:0:0:
192,192,214680,1,0,0:0:0:0:
64,192,214842,1,2,0:0:0:0:
192,192,214842,1,4,0:0:0:0:
448,192,214842,128,0,215166:0:0:0:0:
64,192,215166,1,2,0:0:0:0:
192,192,215166,1,0,0:0:0:0:
64,192,215329,1,8,0:0:0:0:
320,192,215329,1,0,0:0:0:0:
448,192,215329,1,0,0:0:0:0:
192,192,215491,1,2,0:0:0:0:
320,192,215491,1,0,0:0:0:0:
64,192,215653,128,2,215734:0:0:0:0:
448,192,215653,1,0,0:0:0:0:
192,192,215734,128,0,215815:0:0:0:0:
320,192,215815,1,8,0:0:0:0:
448,192,215815,128,0,215896:0:0:0:0:
64,192,215896,128,0,215977:0:0:0:0:
192,192,215977,128,8,216058:0:0:0:0:
320,192,215977,1,4,0:0:0:0:
448,192,216058,128,0,216139:0:0:0:0:
320,192,216139,128,0,216220:0:0:0:0:
64,192,216220,128,0,216301:0:0:0:0:
192,192,216301,1,2,0:0:0:0:
320,192,216301,1,4,0:0:0:0:
448,192,216301,128,0,217599:0:0:0:0:
320,192,216788,128,0,217599:0:0:0:0:
64,192,217599,128,0,218896:0:0:0:0:
192,192,218085,128,0,218896:0:0:0:0:
448,192,218247,1,0,0:0:0:0:
448,192,218896,128,0,219383:0:0:0:0:
64,192,219383,128,0,219545:0:0:0:0:
320,192,219545,1,8,0:0:0:0:
448,192,219545,1,0,0:0:0:0:
64,192,219626,1,0,0:0:0:55:Tom1.wav
192,192,219626,1,0,0:0:0:0:
320,192,219707,1,0,0:0:0:60:Tom2.wav
192,192,219788,1,0,0:0:0:60:Tom2.wav
64,192,219869,1,8,0:0:0:0:
448,192,219869,1,0,0:0:0:0:
192,192,220031,1,2,0:0:0:0:
320,192,220031,1,4,0:0:0:0:
448,192,220031,128,0,220356:0:0:0:0:
64,192,220356,1,2,0:0:0:0:
192,192,220356,128,0,220680:0:0:0:0:
320,192,220680,128,2,221004:0:0:0:0:
448,192,220680,1,4,0:0:0:0:
64,192,221004,1,2,0:0:0:0:
192,192,221004,1,0,0:0:0:0:
64,192,221166,1,8,0:0:0:0:
320,192,221166,1,0,0:0:0:0:
448,192,221166,1,0,0:0:0:0:
64,192,221491,1,2,0:0:0:0:
192,192,221491,1,4,0:0:0:0:
448,192,221491,1,0,0:0:0:0:
320,192,221815,1,2,0:0:0:0:
448,192,221815,1,0,0:0:0:0:
192,192,221977,1,0,0:0:0:0:
320,192,222139,1,2,0:0:0:0:
448,192,222139,1,0,0:0:0:0:
64,192,222301,1,0,0:0:0:0:
320,192,222464,1,2,0:0:0:0:
448,192,222464,1,0,0:0:0:0:
192,192,222626,1,0,0:0:0:0:
64,192,222788,1,2,0:0:0:0:
448,192,222788,1,0,0:0:0:0:
320,192,222950,1,0,0:0:0:0:
64,192,223112,1,2,0:0:0:0:
192,192,223112,1,0,0:0:0:0:
448,192,223274,1,0,0:0:0:0:
64,192,223437,1,2,0:0:0:0:
192,192,223437,1,0,0:0:0:0:
320,192,223599,1,0,0:0:0:0:
448,192,223680,1,0,0:0:0:0:
64,192,223761,1,2,0:0:0:0:
192,192,223761,1,0,0:0:0:0:
320,192,223842,1,0,0:0:0:0:
448,192,223923,1,0,0:0:0:0:
64,192,224085,1,2,0:0:0:0:
320,192,224085,1,0,0:0:0:0:
192,192,224247,1,0,0:0:0:0:
320,192,224410,1,2,0:0:0:0:
448,192,224410,1,0,0:0:0:0:
64,192,224572,1,0,0:0:0:0:
320,192,224734,1,2,0:0:0:0:
448,192,224734,1,0,0:0:0:0:
192,192,224896,1,0,0:0:0:0:
320,192,225058,1,2,0:0:0:0:
448,192,225058,1,0,0:0:0:0:
64,192,225220,1,8,0:0:0:0:
192,192,225220,1,0,0:0:0:0:
448,192,225220,1,0,0:0:0:0:
192,192,225383,1,2,0:0:0:0:
320,192,225383,1,0,0:0:0:0:
64,192,225545,1,0,0:0:0:0:
320,192,225707,1,2,0:0:0:0:
448,192,225707,128,0,225788:0:0:0:0:
192,192,225788,128,0,225869:0:0:0:0:
320,192,225869,128,0,225950:0:0:0:0:
64,192,225950,128,0,226031:0:0:0:0:
320,192,226031,1,2,0:0:0:0:
448,192,226031,128,0,226112:0:0:0:0:
192,192,226193,128,0,226274:0:0:0:0:
320,192,226274,128,0,226356:0:0:0:0:
64,192,226356,128,2,226437:0:0:0:0:
192,192,226356,1,0,0:0:0:0:
448,192,226437,128,0,226518:0:0:0:0:
64,192,226518,1,8,0:0:0:0:
192,192,226518,1,0,0:0:0:0:
320,192,226599,1,8,0:0:0:0:
64,192,226680,128,2,227004:0:0:0:0:
192,192,226680,1,4,0:0:0:0:
448,192,226680,1,0,0:0:0:0:
320,192,227004,1,2,0:0:0:0:
448,192,227004,1,0,0:0:0:0:
192,192,227166,1,0,0:0:0:55:Tom1.wav
64,192,227329,1,2,0:0:0:0:
448,192,227329,1,0,0:0:0:0:
320,192,227491,1,0,0:0:0:60:Tom2.wav
64,192,227653,1,8,0:0:0:0:
192,192,227653,1,0,0:0:0:0:
448,192,227653,1,0,0:0:0:0:
64,192,227977,1,2,0:0:0:0:
192,192,227977,1,0,0:0:0:0:
320,192,228139,1,0,0:0:0:60:Tom2.wav
64,192,228301,1,2,0:0:0:0:
448,192,228301,1,0,0:0:0:0:
192,192,228464,1,0,0:0:0:55:Tom1.wav
320,192,228626,1,2,0:0:0:0:
448,192,228626,1,0,0:0:0:0:
64,192,228788,1,0,0:0:0:60:Tom2.wav
192,192,228950,1,8,0:0:0:0:
320,192,228950,1,0,0:0:0:0:
448,192,228950,1,0,0:0:0:0:
64,192,229274,1,2,0:0:0:0:
448,192,229274,1,0,0:0:0:0:
320,192,229437,1,0,0:0:0:60:Tom2.wav
64,192,229599,1,2,0:0:0:0:
192,192,229599,1,0,0:0:0:0:
448,192,229761,1,0,0:0:0:55:Tom1.wav
192,192,229923,1,2,0:0:0:0:
320,192,229923,1,0,0:0:0:0:
64,192,230085,1,0,0:0:0:60:Tom2.wav
192,192,230247,1,8,0:0:0:0:
320,192,230247,1,0,0:0:0:0:
448,192,230247,1,0,0:0:0:0:
64,192,230410,1,8,0:0:0:0:
192,192,230410,1,4,0:0:0:0:
320,192,230410,1,0,0:0:0:0:
64,192,230572,1,2,0:0:0:0:
448,192,230572,1,0,0:0:0:0:
192,192,230734,1,0,0:0:0:60:Tom2.wav
320,192,230896,1,2,0:0:0:0:
448,192,230896,1,0,0:0:0:0:
64,192,231058,1,8,0:0:0:0:
192,192,231058,1,4,0:0:0:0:
448,192,231058,1,0,0:0:0:0:
64,192,231220,1,2,0:0:0:0:
320,192,231220,1,0,0:0:0:0:
192,192,231383,1,0,0:0:0:60:Tom2.wav
64,192,231545,1,8,0:0:0:0:
320,192,231545,1,0,0:0:0:0:
448,192,231545,1,0,0:0:0:0:
192,192,231707,1,0,0:0:0:60:Tom2.wav
320,192,231788,1,0,0:0:0:60:Tom2.wav
64,192,231869,1,2,0:0:0:0:
192,192,231869,1,4,0:0:0:0:
448,192,231869,1,0,0:0:0:0:
448,192,232031,1,0,0:0:0:0:
64,192,232193,1,2,0:0:0:0:
192,192,232193,1,0,0:0:0:0:
64,192,232356,1,0,0:0:0:55:Tom1.wav
192,192,232518,1,2,0:0:0:0:
320,192,232518,1,0,0:0:0:0:
320,192,232680,1,0,0:0:0:60:Tom2.wav
64,192,232842,1,8,0:0:0:0:
192,192,232842,1,0,0:0:0:0:
448,192,232842,1,0,0:0:0:0:
192,192,233004,1,0,0:0:0:60:Tom2.wav
320,192,233085,1,0,0:0:0:60:Tom2.wav
64,192,233166,1,2,0:0:0:0:
448,192,233166,1,0,0:0:0:0:
448,192,233329,1,0,0:0:0:60:Tom3.wav
64,192,233491,1,2,0:0:0:0:
192,192,233491,1,0,0:0:0:0:
64,192,233653,1,0,0:0:0:55:Tom1.wav
192,192,233815,1,2,0:0:0:0:
320,192,233815,1,0,0:0:0:0:
320,192,233977,1,0,0:0:0:60:Tom2.wav
64,192,234139,1,8,0:0:0:0:
192,192,234139,1,0,0:0:0:0:
448,192,234139,1,0,0:0:0:0:
320,192,234301,1,8,0:0:0:0:
448,192,234301,1,0,0:0:0:0:
192,192,234383,1,8,0:0:0:0:
64,192,234464,1,2,0:0:0:0:
320,192,234464,1,4,0:0:0:0:
448,192,234464,1,0,0:0:0:0:
192,192,234788,1,2,0:0:0:0:
320,192,234788,1,0,0:0:0:0:
448,192,234788,1,0,0:0:0:0:
64,192,234950,1,8,0:0:0:0:
192,192,234950,1,0,0:0:0:30:Tom3.wav
320,192,234950,1,0,0:0:0:0:
64,192,235112,1,8,0:0:0:0:
320,192,235112,1,2,0:0:0:0:
448,192,235112,1,0,0:0:0:30:Tom3.wav
64,192,235274,1,8,0:0:0:0:
192,192,235274,1,0,0:0:0:30:Tom3.wav
448,192,235274,1,0,0:0:0:0:
192,192,235437,1,8,0:0:0:0:
320,192,235437,1,2,0:0:0:0:
448,192,235437,1,0,0:0:0:40:Tom3.wav
64,192,235599,1,8,0:0:0:0:
192,192,235599,1,0,0:0:0:40:Tom3.wav
320,192,235599,1,0,0:0:0:0:
64,192,235761,1,8,0:0:0:0:
320,192,235761,1,2,0:0:0:0:
448,192,235761,1,0,0:0:0:40:Tom3.wav
64,192,235923,1,8,0:0:0:0:
192,192,235923,1,0,0:0:0:50:Tom3.wav
448,192,235923,1,0,0:0:0:0:
192,192,236085,1,8,0:0:0:0:
320,192,236085,1,2,0:0:0:0:
448,192,236085,1,0,0:0:0:50:Tom3.wav
64,192,236247,1,8,0:0:0:0:
192,192,236247,1,0,0:0:0:50:Tom3.wav
320,192,236247,1,0,0:0:0:0:
192,192,236410,1,8,0:0:0:0:
320,192,236410,1,2,0:0:0:0:
448,192,236410,1,0,0:0:0:60:Tom3.wav
64,192,236491,128,0,236572:0:0:0:0:
320,192,236572,1,8,0:0:0:0:
448,192,236572,128,0,236653:0:0:0:0:
64,192,236653,128,8,236734:0:0:0:0:
192,192,236653,1,0,0:0:0:0:
320,192,236734,1,2,0:0:0:0:
448,192,236734,128,0,236815:0:0:0:55:Tom1.wav
64,192,236815,128,0,236896:0:0:0:60:Tom2.wav
192,192,236815,1,0,0:0:0:0:
320,192,236896,1,0,0:0:0:60:Tom3.wav
448,192,236896,128,0,236977:0:0:0:0:
64,192,236977,128,0,237058:0:0:0:60:Tom3.wav
192,192,237058,1,2,0:0:0:0:
320,192,237058,1,4,0:0:0:0:
448,192,237058,128,0,237220:0:0:0:0:
64,192,237220,1,2,0:0:0:0:
192,192,237220,1,0,0:0:0:0:
64,192,237383,1,8,0:0:0:0:
192,192,237383,128,0,237545:0:0:0:0:
448,192,237383,1,0,0:0:0:0:
320,192,237545,128,0,237707:0:0:0:0:
64,192,237707,1,2,0:0:0:0:
192,192,237707,1,0,0:0:0:0:
320,192,237869,1,2,0:0:0:0:
448,192,237869,1,0,0:0:0:0:
64,192,238031,128,8,238193:0:0:0:0:
192,192,238031,1,0,0:0:0:0:
448,192,238031,1,0,0:0:0:0:
320,192,238193,1,0,0:0:0:0:
64,192,238356,1,2,0:0:0:0:
448,192,238356,128,0,238518:0:0:0:0:
192,192,238518,1,2,0:0:0:0:
320,192,238518,1,0,0:0:0:0:
64,192,238680,1,8,0:0:0:0:
320,192,238680,1,0,0:0:0:0:
448,192,238680,1,0,0:0:0:0:
192,192,238842,128,0,239004:0:0:0:0:
320,192,239004,1,2,0:0:0:0:
448,192,239004,1,0,0:0:0:0:
64,192,239166,1,2,0:0:0:0:
192,192,239166,1,0,0:0:0:0:
64,192,239329,1,8,0:0:0:0:
320,192,239329,1,0,0:0:0:0:
448,192,239329,128,0,239491:0:0:0:0:
192,192,239491,1,0,0:0:0:0:
64,192,239653,128,2,239815:0:0:0:0:
448,192,239653,1,0,0:0:0:0:
192,192,239815,1,2,0:0:0:0:
320,192,239815,1,0,0:0:0:0:
64,192,239977,1,8,0:0:0:0:
192,192,239977,1,0,0:0:0:0:
448,192,239977,1,0,0:0:0:0:
320,192,240139,1,0,0:0:0:0:
64,192,240301,128,2,240464:0:0:0:0:
192,192,240301,1,0,0:0:0:0:
320,192,240464,1,2,0:0:0:0:
448,192,240464,128,0,240626:0:0:0:0:
64,192,240626,1,8,0:0:0:0:
192,192,240626,1,0,0:0:0:0:
320,192,240626,1,0,0:0:0:0:
192,192,240788,128,0,240950:0:0:0:0:
64,192,240950,1,2,0:0:0:0:
448,192,240950,1,0,0:0:0:0:
192,192,241112,1,2,0:0:0:0:
320,192,241112,128,0,241274:0:0:0:0:
64,192,241274,1,8,0:0:0:0:
448,192,241274,1,0,0:0:0:0:
192,192,241274,1,0,0:0:0:0:
64,192,241437,128,0,241599:0:0:0:0:
320,192,241599,1,2,0:0:0:0:
448,192,241599,1,4,0:0:0:0:
64,192,241761,1,2,0:0:0:0:
192,192,241761,1,0,0:0:0:0:
64,192,241923,1,8,0:0:0:0:
448,192,241923,1,0,0:0:0:0:
320,192,241923,128,0,242085:0:0:0:0:
192,192,242085,128,0,242247:0:0:0:0:
64,192,242247,1,2,0:0:0:0:
448,192,242247,1,4,0:0:0:0:
192,192,242410,1,2,0:0:0:0:
320,192,242410,1,0,0:0:0:0:
64,192,242572,1,8,0:0:0:0:
192,192,242572,1,0,0:0:0:0:
448,192,242572,128,0,242734:0:0:0:0:
320,192,242734,1,0,0:0:0:0:
64,192,242896,128,2,243058:0:0:0:0:
192,192,242896,1,0,0:0:0:0:
320,192,243058,1,2,0:0:0:0:
448,192,243058,128,0,243220:0:0:0:0:
64,192,243220,1,8,0:0:0:0:
192,192,243220,1,0,0:0:0:0:
320,192,243220,1,0,0:0:0:0:
192,192,243383,128,0,243545:0:0:0:0:
64,192,243545,1,2,0:0:0:0:
448,192,243545,1,0,0:0:0:0:
192,192,243707,1,2,0:0:0:0:
320,192,243707,128,0,243869:0:0:0:0:
64,192,243869,1,8,0:0:0:0:
448,192,243869,1,0,0:0:0:0:
192,192,243869,1,0,0:0:0:0:
64,192,244031,128,0,244193:0:0:0:0:
320,192,244193,1,2,0:0:0:0:
448,192,244193,1,0,0:0:0:0:
64,192,244356,1,2,0:0:0:0:
192,192,244356,1,0,0:0:0:0:
64,192,244518,1,8,0:0:0:0:
320,192,244518,1,0,0:0:0:0:
448,192,244518,128,0,244680:0:0:0:0:
192,192,244680,1,0,0:0:0:0:
64,192,244842,128,2,245004:0:0:0:0:
448,192,244842,1,4,0:0:0:0:
192,192,245004,1,2,0:0:0:0:
320,192,245004,1,0,0:0:0:0:
64,192,245166,1,8,0:0:0:0:
192,192,245166,1,0,0:0:0:0:
448,192,245166,128,0,245329:0:0:0:0:
192,192,245329,1,2,0:0:0:0:
320,192,245329,128,0,245491:0:0:0:0:
64,192,245491,1,0,0:0:0:0:
192,192,245653,128,2,245815:0:0:0:0:
320,192,245653,1,0,0:0:0:0:
64,192,245815,1,8,0:0:0:0:
320,192,245815,1,0,0:0:0:0:
448,192,245815,1,0,0:0:0:0:
64,192,245977,128,2,246220:0:0:0:0:
192,192,245977,128,4,246220:0:0:0:0:
448,192,245977,128,0,246220:0:0:0:0:
64,192,246301,1,8,0:0:0:0:
320,192,246301,1,0,0:0:0:0:
448,192,246301,1,0,0:0:0:0:
64,192,246464,1,8,0:0:0:0:
192,192,246464,1,4,0:0:0:0:
448,192,246464,1,0,0:0:0:0:
320,192,246545,1,0,0:0:0:0:
192,192,246626,1,0,0:0:0:0:
64,192,246707,1,0,0:0:0:0:
320,192,246788,1,0,0:0:0:55:Tom1.wav
448,192,246788,1,0,0:0:0:0:
192,192,246869,1,0,0:0:0:0:
320,192,246950,1,8,0:0:0:0:
448,192,246950,1,0,0:0:0:0:
64,192,247031,1,8,0:0:0:0:
192,192,247031,1,0,0:0:0:0:
320,192,247112,1,8,0:0:0:0:
448,192,247112,1,0,0:0:0:0:
192,192,247193,1,0,0:0:0:0:
64,192,247274,1,8,0:0:0:0:
448,192,247274,1,0,0:0:0:0:
320,192,247356,1,8,0:0:0:0:
64,192,247437,128,2,247599:0:0:0:0:
192,192,247437,1,4,0:0:0:0:
448,192,247437,1,0,0:0:0:0:
192,192,247599,1,2,0:0:0:0:
320,192,247599,1,0,0:0:0:0:
64,192,247761,1,8,0:0:0:0:
320,192,247761,128,0,247923:0:0:0:0:
448,192,247761,1,0,0:0:0:0:
192,192,247923,128,0,248085:0:0:0:0:
320,192,248085,1,2,0:0:0:0:
448,192,248085,1,0,0:0:0:0:
64,192,248247,1,2,0:0:0:0:
192,192,248247,1,0,0:0:0:0:
64,192,248410,1,8,0:0:0:0:
320,192,248410,1,0,0:0:0:0:
448,192,248410,128,0,248572:0:0:0:0:
192,192,248572,1,0,0:0:0:0:
64,192,248734,128,2,248896:0:0:0:0:
448,192,248734,1,0,0:0:0:0:
192,192,248896,1,2,0:0:0:0:
320,192,248896,1,0,0:0:0:0:
64,192,249058,1,8,0:0:0:0:
192,192,249058,1,0,0:0:0:0:
448,192,249058,1,0,0:0:0:0:
320,192,249220,128,0,249383:0:0:0:0:
64,192,249383,1,2,0:0:0:0:
192,192,249383,1,0,0:0:0:0:
320,192,249545,1,2,0:0:0:0:
448,192,249545,1,0,0:0:0:0:
64,192,249707,128,8,249869:0:0:0:0:
192,192,249707,1,0,0:0:0:0:
448,192,249707,1,0,0:0:0:0:
320,192,249869,1,0,0:0:0:0:
64,192,250031,1,2,0:0:0:0:
448,192,250031,128,0,250193:0:0:0:0:
192,192,250193,1,2,0:0:0:0:
320,192,250193,1,0,0:0:0:0:
64,192,250356,1,8,0:0:0:0:
320,192,250356,1,0,0:0:0:0:
448,192,250356,1,0,0:0:0:0:
192,192,250518,1,0,0:0:0:0:
320,192,250680,1,2,0:0:0:0:
448,192,250680,128,0,250842:0:0:0:0:
64,192,250842,128,2,251004:0:0:0:0:
192,192,250842,1,0,0:0:0:0:
192,192,251004,1,8,0:0:0:0:
320,192,251004,1,0,0:0:0:0:
448,192,251004,1,0,0:0:0:0:
64,192,251166,1,2,0:0:0:0:
320,192,251166,128,4,251329:0:0:0:0:
448,192,251166,1,0,0:0:0:0:
192,192,251329,1,0,0:0:0:0:
64,192,251491,1,2,0:0:0:0:
448,192,251491,128,0,251653:0:0:0:0:
64,192,251653,1,8,0:0:0:0:
192,192,251653,1,0,0:0:0:0:
320,192,251653,1,0,0:0:0:0:
320,192,251815,128,2,251977:0:0:0:0:
448,192,251815,1,4,0:0:0:0:
64,192,251815,1,0,0:0:0:0:
192,192,251977,1,0,0:0:0:0:
64,192,252139,1,8,0:0:0:0:
448,192,252139,1,0,0:0:0:0:
320,192,252301,128,0,252464:0:0:0:55:Tom1.wav
448,192,252301,1,0,0:0:0:0:
64,192,252464,1,0,0:0:0:60:Tom2.wav
192,192,252464,128,0,252626:0:0:0:0:
64,192,252626,1,2,0:0:0:0:
320,192,252626,1,4,0:0:0:0:
448,192,252626,1,0,0:0:0:0:
448,192,252788,1,0,0:0:0:0:
192,192,252950,1,0,0:0:0:0:
64,192,253112,1,2,0:0:0:0:
192,192,253112,1,0,0:0:0:0:
64,192,253274,1,8,0:0:0:0:
320,192,253274,1,0,0:0:0:0:
448,192,253274,1,0,0:0:0:0:
320,192,253437,1,0,0:0:0:0:
64,192,253599,1,0,0:0:0:0:
192,192,253599,128,0,253761:0:0:0:0:
64,192,253761,1,8,0:0:0:0:
320,192,253761,1,0,0:0:0:0:
448,192,253761,128,0,253923:0:0:0:0:
320,192,253923,128,0,254085:0:0:0:0:
64,192,254085,1,8,0:0:0:0:
192,192,254085,1,0,0:0:0:0:
448,192,254085,1,0,0:0:0:0:
64,192,254247,128,2,254410:0:0:0:0:
192,192,254247,1,0,0:0:0:0:
320,192,254410,1,2,0:0:0:0:
448,192,254410,128,0,254572:0:0:0:0:
64,192,254572,1,8,0:0:0:0:
192,192,254572,1,0,0:0:0:0:
320,192,254572,1,0,0:0:0:0:
64,192,254734,1,2,0:0:0:0:
448,192,254734,1,0,0:0:0:0:
64,192,254896,1,8,0:0:0:0:
192,192,254896,128,0,255058:0:0:0:0:
320,192,254896,1,0,0:0:0:0:
320,192,255058,128,0,255220:0:0:0:0:
64,192,255220,128,2,255383:0:0:0:0:
192,192,255220,1,4,0:0:0:0:
448,192,255220,1,0,0:0:0:0:
320,192,255383,1,0,0:0:0:0:
448,192,255545,128,0,255707:0:0:0:0:
64,192,255707,1,2,0:0:0:0:
192,192,255707,128,0,255869:0:0:0:0:
64,192,255869,1,8,0:0:0:0:
320,192,255869,1,0,0:0:0:0:
448,192,255869,1,0,0:0:0:0:
448,192,256031,128,0,256193:0:0:0:0:
320,192,256193,128,0,256356:0:0:0:0:
64,192,256356,1,8,0:0:0:0:
192,192,256356,1,0,0:0:0:0:
448,192,256356,1,0,0:0:0:0:
64,192,256518,128,0,256680:0:0:0:0:
192,192,256680,1,8,0:0:0:0:
320,192,256680,1,0,0:0:0:0:
448,192,256680,1,0,0:0:0:0:
64,192,256842,1,2,0:0:0:0:
192,192,256842,1,0,0:0:0:0:
320,192,257004,1,2,0:0:0:0:
448,192,257004,1,0,0:0:0:0:
64,192,257166,1,8,0:0:0:0:
192,192,257166,1,0,0:0:0:0:
448,192,257166,1,0,0:0:0:0:
192,192,257329,1,2,0:0:0:0:
320,192,257329,1,0,0:0:0:0:
64,192,257491,1,8,0:0:0:0:
320,192,257491,1,0,0:0:0:0:
448,192,257491,1,0,0:0:0:0:
64,192,257653,1,8,0:0:0:0:
192,192,257653,1,0,0:0:0:0:
448,192,257653,1,0,0:0:0:0:
192,192,257815,1,2,0:0:0:0:
320,192,257815,1,4,0:0:0:0:
448,192,257815,1,0,0:0:0:0:
64,192,258139,1,0,0:0:0:0:
320,192,258301,1,2,0:0:0:0:
448,192,258301,1,0,0:0:0:0:
64,192,258464,1,8,0:0:0:0:
192,192,258464,1,0,0:0:0:0:
448,192,258464,1,0,0:0:0:0:
192,192,258626,1,2,0:0:0:0:
320,192,258626,1,0,0:0:0:0:
64,192,258788,1,0,0:0:0:0:
320,192,258950,1,2,0:0:0:0:
448,192,258950,1,0,0:0:0:0:
192,192,259031,1,2,0:0:0:0:
64,192,259112,1,2,0:0:0:0:
320,192,259356,1,2,0:0:0:0:
448,192,259356,1,0,0:0:0:0:
192,192,259437,1,0,0:0:0:0:
64,192,259518,1,0,0:0:0:0:
448,192,259518,1,0,0:0:0:0:
320,192,259599,1,2,0:0:0:0:
64,192,259761,1,8,0:0:0:0:
192,192,259761,1,0,0:0:0:0:
448,192,259761,1,0,0:0:0:0:
64,192,259923,1,8,0:0:0:0:
320,192,259923,1,0,0:0:0:0:
448,192,259923,1,0,0:0:0:0:
192,192,260085,1,2,0:0:0:0:
320,192,260085,1,0,0:0:0:0:
64,192,260247,1,8,0:0:0:0:
192,192,260247,1,0,0:0:0:0:
448,192,260247,1,0,0:0:0:0:
64,192,260410,1,2,0:0:0:0:
320,192,260410,1,4,0:0:0:0:
448,192,260410,1,0,0:0:0:0:
192,192,260734,1,0,0:0:0:0:
320,192,260896,1,2,0:0:0:0:
448,192,260896,1,0,0:0:0:0:
64,192,261058,1,8,0:0:0:0:
192,192,261058,1,0,0:0:0:0:
448,192,261058,1,0,0:0:0:0:
64,192,261220,1,8,0:0:0:0:
320,192,261220,1,0,0:0:0:0:
448,192,261220,1,0,0:0:0:0:
192,192,261383,1,2,0:0:0:0:
320,192,261383,1,0,0:0:0:0:
64,192,261545,1,8,0:0:0:0:
192,192,261545,1,0,0:0:0:0:
448,192,261545,1,0,0:0:0:0:
64,192,261707,1,8,0:0:0:0:
320,192,261707,1,4,0:0:0:0:
448,192,261707,1,0,0:0:0:0:
192,192,261869,1,2,0:0:0:0:
320,192,261869,1,0,0:0:0:0:
64,192,262031,1,2,0:0:0:0:
448,192,262031,1,0,0:0:0:0:
320,192,262193,1,0,0:0:0:0:
64,192,262356,1,8,0:0:0:0:
192,192,262356,1,0,0:0:0:0:
448,192,262356,1,0,0:0:0:0:
64,192,262518,1,8,0:0:0:0:
320,192,262518,1,0,0:0:0:0:
448,192,262518,1,0,0:0:0:0:
192,192,262680,1,2,0:0:0:0:
320,192,262680,1,0,0:0:0:0:
64,192,262842,1,8,0:0:0:0:
192,192,262842,1,0,0:0:0:0:
448,192,262842,1,0,0:0:0:0:
64,192,263004,1,2,0:0:0:0:
320,192,263004,1,4,0:0:0:0:
448,192,263004,1,0,0:0:0:0:
64,192,263166,1,8,0:0:0:0:
192,192,263166,1,0,0:0:0:0:
320,192,263247,1,8,0:0:0:0:
448,192,263247,1,0,0:0:0:0:
64,192,263329,1,2,0:0:0:0:
192,192,263329,1,0,0:0:0:0:
64,192,263491,1,8,0:0:0:0:
448,192,263491,1,0,0:0:0:0:
192,192,263572,1,8,0:0:0:0:
320,192,263572,1,0,0:0:0:0:
64,192,263653,1,2,0:0:0:0:
448,192,263653,1,0,0:0:0:0:
320,192,263815,1,8,0:0:0:0:
448,192,263815,1,0,0:0:0:0:
64,192,263896,1,8,0:0:0:0:
192,192,263896,1,0,0:0:0:0:
320,192,263977,1,2,0:0:0:0:
448,192,263977,1,0,0:0:0:0:
64,192,264139,1,8,0:0:0:0:
320,192,264139,1,0,0:0:0:0:
192,192,264220,1,8,0:0:0:0:
448,192,264220,1,0,0:0:0:0:
64,192,264301,1,2,0:0:0:0:
320,192,264301,1,0,0:0:0:0:
192,192,264464,1,8,0:0:0:0:
448,192,264464,1,0,0:0:0:0:
64,192,264545,1,8,0:0:0:0:
320,192,264545,1,0,0:0:0:0:
192,192,264626,1,2,0:0:0:0:
448,192,264626,1,0,0:0:0:0:
64,192,264788,1,8,0:0:0:0:
192,192,264788,1,0,0:0:0:0:
320,192,264869,1,8,0:0:0:0:
448,192,264869,1,0,0:0:0:0:
64,192,264950,1,2,0:0:0:0:
192,192,264950,1,0,0:0:0:0:
320,192,265112,1,8,0:0:0:0:
448,192,265112,1,0,0:0:0:0:
64,192,265193,1,8,0:0:0:0:
192,192,265193,1,0,0:0:0:0:
320,192,265274,1,2,0:0:0:0:
448,192,265274,1,0,0:0:0:0:
64,192,265437,1,8,0:0:0:0:
448,192,265437,1,0,0:0:0:0:
192,192,265518,1,8,0:0:0:0:
320,192,265518,1,0,0:0:0:0:
64,192,265599,1,2,0:0:0:0:
448,192,265599,1,4,0:0:0:0:
192,192,265761,1,0,0:0:0:0:
320,192,265923,1,2,0:0:0:0:
448,192,265923,1,0,0:0:0:0:
64,192,266085,1,8,0:0:0:0:
192,192,266085,1,0,0:0:0:0:
320,192,266247,1,0,0:0:0:30:Tom3.wav
192,192,266247,1,2,0:0:0:0:
448,192,266410,1,8,0:0:0:0:
320,192,266410,1,0,0:0:0:0:
192,192,266572,1,0,0:0:0:50:Tom3.wav
64,192,266572,1,2,0:0:0:0:
320,192,266734,1,8,0:0:0:0:
448,192,266734,128,0,266896:0:0:0:60:Tom3.wav
192,192,266896,128,0,267220:0:0:0:0:
64,192,266896,1,0,0:0:0:0:
320,192,267220,128,0,267383:0:0:0:0:
64,192,267383,128,0,267869:0:0:0:0:
448,192,267869,128,0,268112:0:0:0:0:
320,192,268031,128,0,268112:0:0:0:0:
64,192,268193,1,2,0:0:0:0:
192,192,268193,1,4,0:0:0:0:
448,192,268193,128,0,268274:0:0:0:0:
448,192,268356,128,0,268437:0:0:0:60:Tom2.wav
64,192,268518,1,2,0:0:0:0:
192,192,268518,128,0,268599:0:0:0:0:
192,192,268680,128,0,268761:0:0:0:55:Tom1.wav
320,192,268842,128,2,268923:0:0:0:0:
448,192,268842,1,0,0:0:0:0:
320,192,269004,128,0,269085:0:0:0:60:Tom2.wav
64,192,269166,128,8,269247:0:0:0:0:
192,192,269166,1,0,0:0:0:0:
448,192,269166,1,0,0:0:0:0:
64,192,269329,128,0,269410:0:0:0:60:Tom3.wav
320,192,269491,1,2,0:0:0:0:
448,192,269491,128,0,269572:0:0:0:0:
448,192,269653,128,0,269734:0:0:0:60:Tom2.wav
64,192,269815,1,2,0:0:0:0:
192,192,269815,128,0,269896:0:0:0:0:
192,192,269977,128,0,270058:0:0:0:55:Tom1.wav
320,192,270139,128,2,270220:0:0:0:0:
448,192,270139,1,0,0:0:0:0:
320,192,270301,128,0,270383:0:0:0:60:Tom2.wav
64,192,270464,128,8,270545:0:0:0:0:
192,192,270464,1,0,0:0:0:0:
448,192,270464,1,0,0:0:0:0:
64,192,270626,128,0,270707:0:0:0:60:Tom3.wav
192,192,270788,1,2,0:0:0:0:
320,192,270788,1,4,0:0:0:0:
448,192,270788,128,0,270869:0:0:0:0:
448,192,270950,128,0,271031:0:0:0:60:Tom2.wav
64,192,271112,1,2,0:0:0:0:
192,192,271112,128,0,271193:0:0:0:0:
192,192,271274,128,0,271356:0:0:0:55:Tom1.wav
320,192,271437,128,2,271518:0:0:0:0:
448,192,271437,1,0,0:0:0:0:
320,192,271599,128,0,271680:0:0:0:60:Tom2.wav
64,192,271761,128,8,271842:0:0:0:0:
192,192,271761,1,0,0:0:0:0:
448,192,271761,1,0,0:0:0:0:
64,192,271923,128,0,272004:0:0:0:60:Tom3.wav
192,192,272085,1,2,0:0:0:0:
320,192,272085,1,4,0:0:0:0:
448,192,272085,128,0,272166:0:0:0:0:
448,192,272247,128,0,272329:0:0:0:60:Tom2.wav
64,192,272410,1,2,0:0:0:0:
192,192,272410,128,0,272491:0:0:0:0:
192,192,272572,128,0,272653:0:0:0:55:Tom1.wav
320,192,272734,128,2,272815:0:0:0:0:
448,192,272734,1,0,0:0:0:0:
320,192,272896,128,0,272977:0:0:0:60:Tom2.wav
64,192,273058,128,8,273139:0:0:0:0:
192,192,273058,1,0,0:0:0:0:
448,192,273058,1,0,0:0:0:0:
64,192,273220,128,0,273301:0:0:0:60:Tom2.wav
192,192,273301,1,0,0:0:0:60:Tom2.wav
64,192,273383,1,2,0:0:0:0:
320,192,273383,1,4,0:0:0:0:
448,192,273383,1,0,0:0:0:0:
192,192,273545,1,0,0:0:0:60:Tom2.wav
320,192,273707,1,2,0:0:0:0:
448,192,273707,1,0,0:0:0:0:
64,192,273869,1,0,0:0:0:55:Tom1.wav
192,192,274031,1,2,0:0:0:0:
320,192,274031,1,0,0:0:0:0:
448,192,274193,1,0,0:0:0:60:Tom2.wav
64,192,274356,1,8,0:0:0:0:
192,192,274356,1,0,0:0:0:0:
320,192,274356,1,0,0:0:0:0:
320,192,274680,1,2,0:0:0:0:
448,192,274680,128,4,275329:0:0:0:0:
64,192,274842,1,0,0:0:0:60:Tom2.wav
192,192,275004,1,2,0:0:0:0:
320,192,275004,1,0,0:0:0:0:
64,192,275166,1,0,0:0:0:55:Tom1.wav
192,192,275329,128,2,275653:0:0:0:0:
320,192,275329,1,0,0:0:0:0:
64,192,275491,1,0,0:0:0:60:Tom2.wav
64,192,275653,1,8,0:0:0:0:
320,192,275653,128,0,275977:0:0:0:0:
448,192,275653,1,0,0:0:0:0:
192,192,275815,1,0,0:0:0:60:Tom3.wav
64,192,275977,128,2,277274:0:0:0:0:
192,192,275977,1,4,0:0:0:0:
448,192,275977,1,0,0:0:0:0:
448,192,276301,1,2,0:0:0:0:
192,192,276464,1,0,0:0:0:55:Tom1.wav
448,192,276626,1,2,0:0:0:0:
192,192,276788,1,0,0:0:0:60:Tom2.wav
192,192,276950,1,8,0:0:0:0:
320,192,276950,1,0,0:0:0:0:
448,192,276950,1,0,0:0:0:0:
320,192,277274,1,2,0:0:0:0:
448,192,277274,1,0,0:0:0:0:
192,192,277437,1,0,0:0:0:0:
64,192,277599,1,2,0:0:0:0:
448,192,277599,1,0,0:0:0:0:
320,192,277761,1,0,0:0:0:55:Tom1.wav
64,192,277923,1,2,0:0:0:0:
192,192,277923,1,0,0:0:0:0:
448,192,278085,1,0,0:0:0:60:Tom2.wav
64,192,278247,1,8,0:0:0:0:
192,192,278247,1,0,0:0:0:0:
320,192,278247,1,0,0:0:0:0:
64,192,278410,1,0,0:0:0:60:Tom2.wav
448,192,278410,1,0,0:0:0:0:
320,192,278491,1,0,0:0:0:60:Tom2.wav
64,192,278572,1,2,0:0:0:0:
192,192,278572,1,4,0:0:0:0:
448,192,278572,128,0,278734:0:0:0:0:
192,192,278734,128,0,278896:0:0:0:0:
320,192,278896,128,0,279058:0:0:0:0:
64,192,279058,128,0,279220:0:0:0:0:
448,192,279220,128,0,279383:0:0:0:0:
192,192,279383,128,0,279545:0:0:0:0:
320,192,279545,128,0,279707:0:0:0:0:
64,192,279707,128,0,279869:0:0:0:45:Ride.wav
192,192,279788,1,0,0:0:0:45:Ride.wav
320,192,279869,1,2,0:0:0:0:
448,192,279869,128,0,280193:0:0:0:45:Ride.wav
64,192,280193,128,0,280518:0:0:0:0:
192,192,280356,1,0,0:0:0:45:Ride.wav
448,192,280518,128,0,280680:0:0:0:0:
192,192,280680,128,0,280842:0:0:0:0:
320,192,280842,128,2,281004:0:0:0:0:
448,192,280842,1,0,0:0:0:45:Ride.wav
64,192,281004,128,0,281166:0:0:0:0:
192,192,281166,1,2,0:0:0:0:
320,192,281166,1,4,0:0:0:0:
448,192,281166,128,0,282464:0:0:0:0:
64,192,281491,1,0,0:0:0:0:
320,192,281815,1,0,0:0:0:0:
192,192,281977,1,0,0:0:0:0:
64,192,282139,1,0,0:0:0:0:
320,192,282301,1,0,0:0:0:45:Ride.wav
192,192,282410,1,0,0:0:0:0:
64,192,282464,128,0,283112:0:0:0:45:Ride.wav
448,192,283112,128,0,283761:0:0:0:45:Ride.wav
64,192,283761,128,2,284085:0:0:0:0:
192,192,283761,1,4,0:0:0:0:
320,192,283761,1,0,0:0:0:0:
192,192,284085,1,2,0:0:0:0:
320,192,284085,1,0,0:0:0:0:
64,192,284247,1,8,0:0:0:0:
320,192,284247,1,0,0:0:0:0:
448,192,284247,128,0,284410:0:0:0:0:
64,192,284410,1,2,0:0:0:0:
192,192,284410,1,0,0:0:0:0:
64,192,284572,128,0,284734:0:0:0:55:Tom1.wav
448,192,284572,1,0,0:0:0:0:
320,192,284734,128,0,284896:0:0:0:0:
64,192,284896,1,2,0:0:0:0:
192,192,284896,1,4,0:0:0:0:
448,192,284896,128,0,285383:0:0:0:0:
64,192,285383,1,8,0:0:0:0:
192,192,285383,1,0,0:0:0:30:Tom3.wav
320,192,285383,1,0,0:0:0:0:
192,192,285545,1,8,0:0:0:0:
320,192,285545,1,0,0:0:0:30:Tom3.wav
448,192,285545,1,0,0:0:0:0:
64,192,285707,1,8,0:0:0:0:
192,192,285707,1,0,0:0:0:40:Tom3.wav
448,192,285707,1,0,0:0:0:0:
64,192,285869,1,8,0:0:0:0:
320,192,285869,1,0,0:0:0:40:Tom3.wav
448,192,285869,1,0,0:0:0:0:
64,192,286031,1,8,0:0:0:0:
192,192,286031,1,0,0:0:0:50:Tom3.wav
320,192,286031,1,0,0:0:0:0:
192,192,286193,1,8,0:0:0:0:
320,192,286193,1,0,0:0:0:60:Tom3.wav
448,192,286193,1,0,0:0:0:0:
64,192,287004,128,2,292518:0:0:0:0:
320,192,287004,128,4,292518:0:0:0:0:
448,192,287004,128,0,292518:0:0:0:0:
