osu file format v14

[General]
AudioFilename: Hoshikuzu Orchestra.mp3
AudioLeadIn: 0
PreviewTime: 215931
Countdown: 0
SampleSet: Soft
StackLeniency: 0.7
Mode: 0
LetterboxInBreaks: 0
WidescreenStoryboard: 0

[Editor]
DistanceSpacing: 1.2
BeatDivisor: 4
GridSize: 32
TimelineZoom: 2.999999

[Metadata]
Title:Hoshikuzu Orchestra
TitleUnicode:星屑オーケストラ
Artist:HAG
ArtistUnicode:H△G
Creator:C O N N E R
Version:Symphony
Source:
Tags:ハグ hagu vocaloid cover album pop jpop j-pop mili full ver ハヤブサ [_lost_] conner c_o_n_n_e_r asuka_- door weapon xiced
BeatmapID:2236638
BeatmapSetID:804193

[Difficulty]
HPDrainRate:7
CircleSize:4.2
OverallDifficulty:8
ApproachRate:9.2
SliderMultiplier:1.92
SliderTickRate:1

[Events]
//Background and Video events
0,0,"BG.jpg",0,0
//Break Periods
2,216536,218922
//Storyboard Layer 0 (Background)
//Storyboard Layer 1 (Fail)
//Storyboard Layer 2 (Pass)
//Storyboard Layer 3 (Foreground)
//Storyboard Layer 4 (Overlay)
//Storyboard Sound Samples

[TimingPoints]
1310,324.324324324324,4,2,2,50,1,0
1310,-200,4,2,2,50,0,0
6337,-125,4,2,2,50,0,0
10228,-125,4,2,1,50,0,0
10391,-125,4,2,1,50,0,0
11201,-125,4,2,1,50,0,0
11364,-83.3333333333333,4,2,1,80,0,0
11607,-83.3333333333333,4,2,1,5,0,0
11688,-100,4,2,1,70,0,0
16877,-200,4,2,2,50,0,0
18012,-200,4,2,1,50,0,0
18174,-200,4,2,1,50,0,0
22066,-142.857142857143,4,2,2,40,0,0
24580,-142.857142857143,4,2,2,5,0,0
24661,-142.857142857143,4,2,2,40,0,0
31472,-142.857142857143,4,2,1,30,0,0
31796,-142.857142857143,4,2,1,40,0,0
32120,-142.857142857143,4,2,1,50,0,0
32445,-125,4,2,2,55,0,0
37553,-125,4,2,2,5,0,0
37634,-125,4,2,2,55,0,0
38526,-125,4,2,2,5,0,0
38607,-125,4,2,2,55,0,0
39904,-125,4,2,1,55,0,0
40147,-125,4,2,1,5,0,0
40228,-100,4,2,1,60,0,0
41850,-100,4,2,1,60,0,0
42093,-100,4,2,1,5,0,0
42174,-100,4,2,1,60,0,0
42337,-100,4,2,1,60,0,0
42499,-100,4,2,1,60,0,0
42661,-100,4,2,1,60,0,0
42823,-100,4,2,1,60,0,0
43066,-100,4,2,1,5,0,0
43147,-100,4,2,1,60,0,0
44688,-100,4,2,1,5,0,0
44769,-100,4,2,1,60,0,0
45661,-100,4,2,1,5,0,0
45742,-100,4,2,1,60,0,0
48255,-100,4,2,1,5,0,0
48337,-100,4,2,1,60,0,0
49877,-100,4,2,1,5,0,0
49958,-100,4,2,1,60,0,0
51255,-100,4,2,1,60,0,0
51337,-100,4,2,1,60,0,0
51580,-100,4,2,1,60,0,0
51661,-100,4,2,1,60,0,0
52877,-100,4,2,1,60,0,0
53201,-200,4,2,1,40,0,0
54337,-200,4,2,1,40,0,0
54580,-200,4,2,1,40,0,0
55634,-200,4,2,1,40,0,0
55877,-200,4,2,1,40,0,0
58391,-100,4,2,1,60,0,0
58715,-100,4,2,1,60,0,0
58958,-100,4,2,1,60,0,0
60985,-83.3333333333333,4,2,1,60,0,0
62607,-66.6666666666667,4,2,2,50,0,0
62931,-66.6666666666667,4,2,2,60,0,0
63255,-66.6666666666667,4,2,2,70,0,0
63580,-83.3333333333333,4,2,1,80,0,1
63823,-83.3333333333333,4,2,1,5,0,1
63904,-83.3333333333333,4,2,1,80,0,1
65120,-83.3333333333333,4,2,1,5,0,1
65201,-83.3333333333333,4,2,1,80,0,1
66418,-83.3333333333333,4,2,1,5,0,1
66499,-83.3333333333333,4,2,1,80,0,1
67715,-83.3333333333333,4,2,1,5,0,1
67796,-83.3333333333333,4,2,1,80,0,1
69012,-83.3333333333333,4,2,1,5,0,1
69093,-83.3333333333333,4,2,1,80,0,1
70309,-83.3333333333333,4,2,1,5,0,1
70391,-83.3333333333333,4,2,1,80,0,1
71607,-83.3333333333333,4,2,1,5,0,1
71688,-83.3333333333333,4,2,1,80,0,1
72985,-83.3333333333333,4,2,2,50,0,1
73309,-83.3333333333333,4,2,2,60,0,1
73634,-83.3333333333333,4,2,2,70,0,1
73958,-83.3333333333333,4,2,1,80,0,0
74039,-83.3333333333333,4,2,1,80,0,1
74201,-83.3333333333333,4,2,1,5,0,1
74282,-83.3333333333333,4,2,1,80,0,1
75499,-83.3333333333333,4,2,1,5,0,1
75580,-83.3333333333333,4,2,1,80,0,1
76796,-83.3333333333333,4,2,1,5,0,1
76877,-83.3333333333333,4,2,1,80,0,1
79147,-125,4,2,1,70,0,1
84337,-83.3333333333333,4,2,1,55,0,1
84985,-83.3333333333333,4,2,1,60,0,1
85634,-83.3333333333333,4,2,1,65,0,1
86282,-83.3333333333333,4,2,1,70,0,1
87174,-83.3333333333333,4,2,1,5,0,1
87255,-83.3333333333333,4,2,1,60,0,1
87580,-83.3333333333333,4,2,1,70,0,1
87904,-83.3333333333333,4,2,1,80,0,1
88228,-83.3333333333334,4,2,1,60,0,0
89526,-100,4,2,1,70,0,1
89607,-100,4,2,1,70,0,0
94715,-200,4,2,2,50,0,0
95850,-200,4,2,1,50,0,0
99904,-142.857142857143,4,2,2,50,0,0
105012,-142.857142857143,4,2,2,5,0,0
105093,-142.857142857143,4,2,2,30,0,0
105174,-142.857142857143,4,2,2,50,0,0
108985,-142.857142857143,4,2,1,50,0,0
109309,-142.857142857143,4,2,1,30,0,0
109634,-142.857142857143,4,2,1,40,0,0
109958,-142.857142857143,4,2,1,50,0,0
110282,-125,4,2,2,55,0,0
111580,-125,4,2,2,55,0,0
111742,-125,4,2,2,55,0,0
112715,-125,4,2,2,35,0,0
112877,-125,4,2,2,55,0,0
117985,-125,4,2,1,5,0,0
118066,-100,4,2,1,60,0,0
119688,-100,4,2,1,60,0,0
119769,-100,4,2,1,60,0,0
119931,-100,4,2,1,5,0,0
120012,-100,4,2,1,60,0,0
120174,-100,4,2,1,60,0,0
120337,-100,4,2,1,60,0,0
120499,-100,4,2,1,60,0,0
120661,-100,4,2,1,60,0,0
120904,-100,4,2,1,5,0,0
120985,-100,4,2,1,60,0,0
122526,-100,4,2,1,5,0,0
122607,-100,4,2,1,60,0,0
123499,-100,4,2,1,5,0,0
123580,-100,4,2,1,60,0,0
126093,-100,4,2,1,5,0,0
126174,-100,4,2,1,60,0,0
127715,-100,4,2,1,5,0,0
127796,-100,4,2,1,60,0,0
129093,-100,4,2,1,60,0,0
129174,-100,4,2,1,60,0,0
129418,-100,4,2,1,60,0,0
129499,-100,4,2,1,60,0,0
130715,-100,4,2,1,60,0,0
131039,-200,4,2,1,40,0,0
132174,-200,4,2,1,40,0,0
132418,-200,4,2,1,40,0,0
133472,-200,4,2,1,40,0,0
133715,-200,4,2,1,40,0,0
136228,-100,4,2,1,60,0,0
140445,-66.6666666666667,4,2,2,50,0,0
140769,-66.6666666666667,4,2,2,60,0,0
141093,-66.6666666666667,4,2,2,70,0,0
141418,-83.3333333333333,4,2,1,80,0,1
141661,-83.3333333333333,4,2,1,5,0,1
141742,-83.3333333333333,4,2,1,80,0,1
142958,-83.3333333333333,4,2,1,5,0,1
143039,-83.3333333333333,4,2,1,80,0,1
144255,-83.3333333333333,4,2,1,5,0,1
144337,-83.3333333333333,4,2,1,80,0,1
145553,-83.3333333333333,4,2,1,5,0,1
145634,-83.3333333333333,4,2,1,80,0,1
146850,-83.3333333333333,4,2,1,5,0,1
146931,-83.3333333333333,4,2,1,80,0,1
148147,-83.3333333333333,4,2,1,5,0,1
148228,-83.3333333333333,4,2,1,80,0,1
149445,-83.3333333333333,4,2,1,5,0,1
149526,-83.3333333333333,4,2,1,80,0,1
150823,-83.3333333333333,4,2,2,50,0,1
151147,-83.3333333333333,4,2,2,60,0,1
151472,-83.3333333333333,4,2,2,70,0,1
151796,-83.3333333333333,4,2,1,80,0,0
151877,-83.3333333333333,4,2,1,80,0,1
152039,-83.3333333333333,4,2,1,5,0,1
152120,-83.3333333333333,4,2,1,80,0,1
153337,-83.3333333333333,4,2,1,5,0,1
153418,-83.3333333333333,4,2,1,80,0,1
154634,-83.3333333333333,4,2,1,5,0,1
154715,-83.3333333333333,4,2,1,80,0,1
156174,-83.3333333333333,4,2,1,80,0,1
156255,-83.3333333333333,4,2,1,80,0,1
156661,-83.3333333333333,4,2,1,80,0,1
156823,-83.3333333333333,4,2,1,80,0,1
156985,-125,4,2,1,70,0,1
162093,-125,4,2,1,5,0,1
162174,-83.3333333333333,4,2,1,55,0,1
162823,-83.3333333333333,4,2,1,60,0,1
163472,-83.3333333333333,4,2,1,65,0,1
164120,-83.3333333333333,4,2,1,70,0,1
165012,-83.3333333333333,4,2,1,5,0,1
165093,-83.3333333333333,4,2,1,60,0,1
165418,-83.3333333333333,4,2,1,70,0,1
165742,-83.3333333333333,4,2,1,80,0,1
166066,-83.3333333333333,4,2,1,60,0,0
167364,-83.3333333333333,4,2,1,70,0,0
167607,-83.3333333333333,4,2,1,5,0,0
167688,-83.3333333333333,4,2,1,70,0,0
168580,-83.3333333333333,4,2,1,5,0,0
168661,-83.3333333333333,4,2,1,70,0,0
169472,-83.3333333333333,4,2,1,40,0,0
169634,324.324324324324,4,2,1,70,1,0
169634,-83.3333333333333,4,2,1,70,0,0
169877,-83.3333333333333,4,2,1,5,0,0
169958,-83.3333333333333,4,2,1,70,0,0
171012,-83.3333333333333,4,2,1,5,0,0
171093,-83.3333333333333,4,2,1,70,0,0
171579,-83.3333333333333,4,2,1,70,0,0
171742,-83.3333333333333,4,2,1,70,0,0
172471,-83.3333333333333,4,2,1,5,0,0
172552,-83.3333333333333,4,2,1,70,0,0
176769,-83.3333333333333,4,2,1,40,0,0
177255,-83.3333333333333,4,2,1,70,0,0
180579,-83.3333333333333,4,2,1,5,0,0
180661,-83.3333333333333,4,2,1,70,0,0
181390,-83.3333333333333,4,2,1,5,0,0
181471,-83.3333333333333,4,2,1,70,0,0
187633,-125,4,2,1,60,0,0
188769,-125,4,2,1,60,0,0
188931,-125,4,2,1,60,0,0
190228,-200,4,2,1,40,0,0
191444,-200,4,2,1,5,0,0
191525,-200,4,2,1,55,0,0
192255,-200,4,2,1,5,0,0
192336,-200,4,2,1,55,0,0
192823,-100,4,2,1,70,0,0
194525,-100,4,2,1,70,0,0
194606,-100,4,2,1,70,0,0
195823,-100,4,2,1,70,0,0
195904,-100,4,2,1,70,0,0
197120,-100,4,2,1,70,0,0
197201,-100,4,2,1,70,0,0
198417,-100,4,2,1,70,0,0
198498,-100,4,2,1,70,0,0
199715,-100,4,2,1,70,0,0
199796,-100,4,2,1,70,0,0
201012,-100,4,2,1,70,0,0
201093,-100,4,2,1,70,0,0
202309,-100,4,2,1,70,0,0
202390,-100,4,2,1,70,0,0
203363,-200,4,2,2,40,0,0
205796,-200,4,2,1,40,0,0
206282,-200,4,2,2,40,0,0
208552,-200,4,2,2,40,0,0
208633,-200,4,2,2,40,0,0
210336,-200,4,2,1,40,0,0
211066,-200,4,2,1,5,0,0
211147,-125,4,2,1,60,0,0
213742,-125,4,2,1,65,0,0
214877,-125,4,2,1,70,0,0
215688,-125,4,2,2,50,0,0
216012,-125,4,2,2,60,0,0
216336,-125,4,2,2,70,0,0
219579,-90.9090909090909,4,2,1,70,0,0
220715,-100,4,2,1,70,0,0
221201,-100,4,2,1,75,0,0
221525,-125,4,2,2,50,0,0
222661,-125,4,2,2,50,0,0
222823,-125,4,2,2,50,0,0
225417,-125,4,2,2,30,0,0
226066,-125,4,2,2,40,0,0
226552,-125,4,2,2,40,0,0
226633,-125,4,2,2,40,0,0
226715,-125,4,2,1,50,0,0
234498,-100,4,2,1,50,0,0
234742,-100,4,2,1,5,0,0
234823,-100,4,2,1,30,0,0
235147,-100,4,2,1,40,0,0
235471,-100,4,2,1,50,0,0
235796,-100,4,2,1,60,0,0
236120,-100,4,2,1,50,0,0
236444,-100,4,2,1,60,0,0
236769,-100,4,2,2,70,0,0
237093,-83.3333333333333,4,2,1,80,0,1
237336,-83.3333333333333,4,2,1,5,0,1
237417,-83.3333333333333,4,2,1,80,0,1
238633,-83.3333333333333,4,2,1,5,0,1
238715,-83.3333333333333,4,2,1,80,0,1
239931,-83.3333333333333,4,2,1,5,0,1
240012,-83.3333333333333,4,2,1,80,0,1
241228,-83.3333333333333,4,2,1,5,0,1
241309,-83.3333333333333,4,2,1,80,0,1
242525,-83.3333333333333,4,2,1,5,0,1
242606,-83.3333333333333,4,2,1,80,0,1
243823,-83.3333333333333,4,2,1,5,0,1
243904,-83.3333333333333,4,2,1,80,0,1
245120,-83.3333333333333,4,2,1,5,0,1
245201,-83.3333333333333,4,2,1,80,0,1
246498,-83.3333333333333,4,2,2,50,0,1
246823,-83.3333333333333,4,2,2,60,0,1
247147,-83.3333333333333,4,2,2,70,0,1
247471,-83.3333333333333,4,2,1,80,0,0
247552,-83.3333333333333,4,2,1,80,0,1
247715,-83.3333333333333,4,2,1,5,0,1
247796,-83.3333333333333,4,2,1,80,0,1
249012,-83.3333333333333,4,2,1,5,0,1
249093,-83.3333333333333,4,2,1,80,0,1
250309,-83.3333333333333,4,2,1,5,0,1
250390,-83.3333333333333,4,2,1,80,0,1
252336,-83.3333333333333,4,2,1,80,0,1
252498,-83.3333333333333,4,2,1,80,0,1
252661,-125,4,2,1,70,0,1
259309,-125,4,2,1,5,0,1
259390,-125,4,2,1,70,0,1
259552,-125,4,2,1,5,0,1
259633,-125,4,2,1,70,0,1
263039,-83.3333333333333,4,2,1,60,0,1
263688,-83.3333333333333,4,2,1,65,0,1
264336,-83.3333333333333,4,2,1,70,0,1
264985,-83.3333333333333,4,2,1,75,0,1
265877,-83.3333333333333,4,2,1,5,0,1
265958,-83.3333333333333,4,2,1,60,0,1
266282,-83.3333333333333,4,2,1,70,0,1
266606,-83.3333333333333,4,2,1,80,0,1
266931,-83.3333333333333,4,2,1,60,0,0
268228,-100,4,2,1,70,0,0
278606,-200,4,2,2,70,0,0
279742,-200,4,2,1,70,0,0
281282,-200,4,2,1,20,0,0
283796,-90.9090909090909,4,2,1,50,0,0
284282,-90.9090909090909,4,2,1,60,0,0
284931,-83.3333333333333,4,2,1,70,0,0
285174,-100,4,2,1,5,0,0
285255,-100,4,2,1,70,0,0
285417,-100,4,2,1,50,0,0
285742,-100,4,2,1,70,0,0
287039,-100,4,2,1,60,0,0
290606,-100,4,2,1,60,0,0
290931,-100,4,2,1,50,0,0
291255,-100,4,2,1,40,0,0
291579,-100,4,2,1,30,0,0
291904,-100,4,2,1,20,0,0
292228,-100,4,2,1,10,0,0
292552,-100,4,2,1,5,0,0

[Colours]
Combo1 : 220,245,167
Combo2 : 243,194,122
Combo3 : 164,209,255
Combo4 : 128,64,64

[HitObjects]
74,60,1310,6,0,L|84:211,2,144,6|2|2,3:2|0:0|0:0,0:0:0:0:
200,106,2607,2,0,P|250:112|292:78,1,96,6|0,3:2|0:0,0:0:0:0:
343,52,3093,2,0,P|393:46|426:136,1,144,2|2,0:0|0:0,0:0:0:0:
497,237,3904,6,0,B|463:224|427:233|430:265|395:285|352:264,1,144,6|0,3:2|0:0,0:0:0:0:
303,239,4553,2,0,P|263:227|242:227,1,48,2|0,0:0|0:0,0:0:0:0:
203,267,4877,1,0,0:0:0:0:
95,290,5039,6,0,L|206:281,1,96,6|2,3:2|0:0,0:0:0:0:
232,154,5688,2,0,L|121:163,1,96,6|2,3:2|0:0,0:0:0:0:
81,122,6174,1,0,0:0:0:0:
121,21,6337,6,0,B|158:9|192:27|189:54|231:64|268:47,1,153.6,6|0,3:2|0:0,0:0:0:0:
370,29,6823,2,0,P|344:64|346:109,1,76.8,2|0,3:0|0:0,0:0:0:0:
435,164,7147,2,0,B|443:125|443:125|431:86,1,76.8,2|0,3:0|0:0,0:0:0:0:
349,173,7472,2,0,B|341:212|341:212|353:251,1,76.8,2|0,3:0|0:0,0:0:0:0:
423,327,7796,5,2,3:0:0:0:
500,252,7958,1,0,0:0:0:0:
345,271,8120,2,0,P|335:323|334:357,1,76.8,2|0,3:0|0:0,0:0:0:0:
261,219,8445,2,0,P|228:203|186:204,1,76.8,2|0,3:0|0:0,0:0:0:0:
106,273,8769,1,2,3:0:0:0:
189,346,8931,1,2,0:3:0:0:
189,346,9012,1,2,0:3:0:0:
189,346,9093,6,0,P|213:279|184:198,1,153.6,2|2,3:0|3:0,0:0:0:0:
91,155,9580,1,0,0:0:0:0:
10,225,9742,2,0,L|16:313,1,76.8,2|0,3:0|0:0,0:0:0:0:
165,123,10066,1,2,3:0:0:0:
0,55,10228,1,0,3:2:0:0:
0,55,10309,1,0,3:2:0:0:
0,55,10391,5,0,1:2:0:0:
0,55,11201,1,0,3:2:0:0:
91,155,11364,6,0,P|161:162|217:71,1,172.799994726563,0|0,1:0|0:0,0:0:0:0:
284,48,11688,6,0,P|341:19|424:120,1,192,6|2,3:2|3:1,0:0:0:0:
446,207,12174,1,8,0:3:0:0:
339,253,12337,2,0,P|327:193|343:151,1,96,2|0,3:1|0:0,0:0:0:0:
483,285,12661,2,0,P|495:345|479:387,1,96,2|4,1:1|0:3,0:0:0:0:
373,350,12985,6,0,B|333:366|286:343|288:308|258:283|195:302,1,192,2|2,3:1|3:1,0:0:0:0:
97,356,13472,1,8,0:3:0:0:
88,365,13553,1,8,0:3:0:0:
78,374,13634,1,2,3:1:0:0:
70,202,13796,1,0,0:0:0:0:
199,300,13958,1,2,1:1:0:0:
0,254,14120,1,4,0:3:0:0:
163,147,14282,5,4,3:2:0:0:
121,273,14445,1,0,0:0:0:0:
93,65,14607,1,2,3:1:0:0:
228,207,14769,1,8,0:3:0:0:
22,108,14931,2,0,P|11:51|28:4,1,96,2|0,3:1|0:0,0:0:0:0:
172,21,15255,2,0,P|183:78|166:125,1,96,2|4,1:1|0:3,0:0:0:0:
70,202,15580,5,4,3:2:0:0:
251,122,15742,1,0,0:0:0:0:
121,273,15904,1,2,3:1:0:0:
93,65,16066,1,8,0:3:0:0:
228,207,16228,2,0,P|288:206|322:173,1,96,2|0,3:1|0:0,0:0:0:0:
348,73,16553,2,0,P|288:74|254:107,1,96,2|0,1:1|3:2,0:0:0:0:
160,142,16796,1,0,3:2:0:0:
160,142,16877,6,0,L|170:297,2,144,6|2|2,3:2|0:0|0:0,0:0:0:0:
320,157,18012,1,8,0:0:0:0:
320,157,18093,1,8,0:0:0:0:
320,157,18174,6,0,B|350:143|391:155|388:181|425:198|471:177,2,144,10|8|8,3:2|0:0|3:2,0:0:0:0:
256,324,19472,1,6,3:2:0:0:
256,192,19553,12,0,21742,0:0:0:0:
256,324,22066,6,0,P|214:275|134:294,1,134.399995898438,2|0,0:0|0:0,0:0:0:0:
90,336,22553,2,0,L|87:182,1,134.399995898438,2|0,0:0|0:0,0:0:0:0:
105,123,23039,1,2,0:0:0:0:
42,72,23201,1,0,0:0:0:0:
106,23,23364,6,0,B|139:5|173:17|170:49|203:58|246:45,1,134.399995898438,2|0,0:0|0:0,0:0:0:0:
307,25,23850,2,0,P|355:8|395:86,1,134.399995898438,2|0,0:0|0:0,0:0:0:0:
374,142,24337,2,0,P|406:107|474:129,1,100.799996923828,2|0,0:0|0:0,0:0:0:0:
473,125,24661,6,0,L|474:279,1,134.399995898438,2|0,0:0|0:0,0:0:0:0:
444,334,25147,2,0,P|383:301|400:220,2,134.399995898438,2|0|0,0:0|0:0|0:0,0:0:0:0:
363,323,25958,6,0,B|330:306|297:317|300:349|267:357|226:344,1,134.399995898438,2|0,0:0|0:0,0:0:0:0:
174,297,26445,1,2,0:0:0:0:
104,333,26607,2,0,P|63:286|86:214,1,134.399995898438
90,210,27255,6,0,B|136:211|136:211|171:224|171:224|221:224,1,134.399995898438,2|0,0:0|0:0,0:0:0:0:
287,176,27742,2,0,L|277:32,2,134.399995898438,2|0|0,0:0|0:0|0:0,0:0:0:0:
356,217,28553,6,0,P|429:215|459:151,1,134.399995898438,2|0,0:0|0:0,0:0:0:0:
458,87,29039,1,2,0:0:0:0:
425,13,29201,2,0,B|391:-4|357:7|359:40|326:49|282:35,1,134.399995898438
281,31,29850,6,0,P|230:9|176:77,1,134.399995898438,2|0,0:0|0:0,0:0:0:0:
120,115,30337,2,0,P|32:111|11:61,2,134.399995898438,2|0|0,0:0|0:0|0:0,0:0:0:0:
176,56,31147,1,2,0:0:0:0:
259,202,31472,5,2,0:0:0:0:
186,228,31796,1,2,0:0:0:0:
115,257,32120,1,2,0:0:0:0:
43,284,32445,6,0,P|117:273|172:342,1,153.6,2|2,3:3|3:0,0:0:0:0:
250,366,32931,1,0,0:0:0:0:
323,311,33093,2,0,P|330:269|316:224,1,76.8,2|0,3:0|0:0,0:0:0:0:
243,186,33418,2,0,P|236:228|250:273,1,76.8,2|0,3:0|0:0,0:0:0:0:
302,125,33742,6,0,B|260:112|227:125|231:156|189:171|155:159,1,153.6,2|2,3:0|3:0,0:0:0:0:
89,101,34228,1,0,0:0:0:0:
148,29,34391,2,0,P|192:26|225:53,1,76.8,2|0,3:0|0:0,0:0:0:0:
309,38,34715,2,0,P|353:41|386:14,1,76.8,2|0,3:0|0:0,0:0:0:0:
464,57,35039,6,0,L|461:217,1,153.6,2|2,3:0|3:0,0:0:0:0:
501,293,35526,1,0,0:0:0:0:
428,350,35688,2,0,P|384:320|353:322,1,76.8,2|0,3:0|0:0,0:0:0:0:
297,253,36012,2,0,P|334:247|362:222,1,76.8,2|0,3:0|0:0,0:0:0:0:
282,340,36337,6,0,B|240:327|207:340|211:371|169:386|135:374,1,153.6,2|2,3:0|3:0,0:0:0:0:
57,333,36823,1,0,0:0:0:0:
102,253,36985,2,0,P|146:255|168:279,1,76.8,2|0,3:0|0:0,0:0:0:0:
18,252,37309,2,0,P|-4:211|20:146,1,115.2,2|0,3:0|0:0,0:0:0:0:
27,139,37634,6,0,B|69:126|102:139|98:170|140:185|174:173,1,153.6,2|2,3:0|3:0,0:0:0:0:
237,112,38120,1,0,0:0:0:0:
309,55,38282,2,0,P|360:47|404:98,1,115.2,2|0,3:0|0:0,0:0:0:0:
409,96,38607,2,0,P|401:51|412:18,1,76.8,2|0,3:0|0:0,0:0:0:0:
494,57,38931,6,0,L|491:142,1,76.8,2|0,3:0|0:0,0:0:0:0:
354,201,39255,2,0,P|381:180|424:176,1,76.8,2|0,3:0|0:0,0:0:0:0:
512,277,39580,2,0,P|485:256|442:252,1,76.8,2|0,3:0|0:0,0:0:0:0:
361,333,39904,2,0,P|377:271|346:204,1,115.2,0|0,1:2|0:0,0:0:0:0:
354,201,40228,6,0,B|304:181|270:211|271:248|233:272|177:255,1,192,2|2,3:1|1:1,0:0:0:0:
82,167,40715,1,0,0:0:0:0:
175,70,40877,2,0,P|189:117|176:169,1,96,2|0,0:1|3:2,0:0:0:0:
90,262,41201,1,2,1:1:0:0:
9,106,41364,6,0,B|59:86|93:116|92:153|130:177|186:160,1,192,4|0,3:2|3:2,0:0:0:0:
364,25,41850,6,0,P|294:25|266:103,1,144,2|0,1:1|0:0,0:0:0:0:
264,162,42174,1,8,0:3:0:0:
439,61,42337,1,0,1:2:0:0:
439,61,42418,1,0,1:2:0:0:
439,61,42499,1,0,1:2:0:0:
354,201,42661,2,0,L|351:142,1,48,0|0,1:2|1:2,0:0:0:0:
436,229,42823,6,0,P|394:278|295:258,1,144,4|0,3:2|0:0,0:0:0:0:
303,263,43147,2,0,L|309:369,1,96,2|0,1:1|0:0,0:0:0:0:
351,153,43472,1,2,3:1:0:0:
196,211,43634,2,0,L|202:317,1,96,0|2,3:2|0:1,0:0:0:0:
262,84,43958,6,0,B|211:65|173:94|177:125|136:159|72:136,1,192,0|0,1:2|3:2,0:0:0:0:
2,31,44445,2,0,P|64:13|113:81,1,144,2|0,1:1|0:0,0:0:0:0:
90,140,44769,2,0,P|37:140|5:111,1,96,2|0,3:1|3:2,0:0:0:0:
176,11,45093,1,2,1:1:0:0:
196,211,45255,1,8,0:0:0:0:
196,211,45337,1,8,0:0:0:0:
196,211,45418,6,0,P|139:206|90:277,1,144,4|0,3:2|0:0,0:0:0:0:
81,279,45742,2,0,L|88:380,1,96,2|0,1:1|0:0,0:0:0:0:
263,257,46066,2,0,P|276:206|262:161,1,96,2|0,3:1|3:2,0:0:0:0:
168,282,46391,1,2,1:1:0:0:
271,367,46553,6,0,P|328:360|356:329,1,96,0|2,0:0|3:1,0:0:0:0:
360,199,46877,2,0,P|303:206|275:237,1,96,0|2,0:0|1:1,0:0:0:0:
451,289,47201,1,0,0:0:0:0:
512,167,47364,2,0,P|524:113|507:73,1,96,2|0,3:1|3:2,0:0:0:0:
393,9,47688,1,2,1:1:0:0:
303,109,47850,1,0,1:2:0:0:
303,109,47931,1,0,1:2:0:0:
303,109,48012,6,0,P|226:122|176:73,1,144,4|0,3:2|0:0,0:0:0:0:
176,62,48337,1,2,1:1:0:0:
214,197,48499,1,0,0:0:0:0:
85,107,48661,2,0,P|70:60|87:14,1,96,2|0,3:1|3:2,0:0:0:0:
251,47,48985,1,2,0:1:0:0:
108,210,49147,6,0,B|159:191|197:220|193:251|234:285|298:262,1,192,0|0,1:2|3:2,0:0:0:0:
410,231,49634,2,0,P|359:214|288:276,1,144,2|0,1:1|0:0,0:0:0:0:
279,266,49958,2,0,L|288:370,1,96,2|0,3:1|3:2,0:0:0:0:
410,231,50282,2,0,P|423:180|401:127,1,96,2|0,1:1|0:0,0:0:0:0:
324,35,50607,6,0,B|273:16|235:45|239:76|198:110|134:87,1,192,4|2,3:2|1:2,0:0:0:0:
34,26,51093,1,0,0:0:0:0:
154,174,51255,2,0,P|212:172|247:144,1,96,2|0,3:2|3:2,0:0:0:0:
30,136,51580,2,0,P|18:187|34:233,1,96,2|0,1:2|0:0,0:0:0:0:
105,338,51904,6,0,B|168:330|168:330|226:345|226:345|306:335,1,192,2|2,3:2|1:1,0:0:0:0:
368,224,52391,1,8,0:0:0:0:
368,224,52472,1,8,0:0:0:0:
368,224,52553,1,2,3:1:0:0:
394,363,52715,1,0,1:2:0:0:
280,249,52877,1,8,0:3:0:0:
439,159,53039,1,4,0:3:0:0:
373,87,53201,6,0,P|323:78|281:99,1,96,6|0,3:2|0:0,0:0:0:0:
218,113,53688,2,0,P|175:87|159:38,2,96,2|0|8,0:0|0:0|0:0,0:0:0:0:
218,113,54418,1,8,0:0:0:0:
218,113,54499,6,0,P|230:160|217:213,1,96,8|2,0:0|0:0,0:0:0:0:
163,241,54985,1,0,0:0:0:0:
101,214,55147,2,0,P|55:215|20:222,2,72,2|0|0,0:0|0:0|3:2,0:0:0:0:
163,241,55796,6,0,P|207:237|249:277,1,96,6|0,3:2|0:0,0:0:0:0:
297,310,56282,2,0,P|347:298|404:292,2,96,0|0|0,0:0|0:0|0:0,0:0:0:0:
253,361,57093,6,0,P|197:347|148:344,1,96,10|0,0:0|0:0,0:0:0:0:
94,364,57580,1,10,0:0:0:0:
41,321,57742,2,0,P|20:284|41:226,1,96,0|8,0:0|0:0,0:0:0:0:
83,190,58228,1,0,0:0:0:0:
23,68,58391,6,0,P|65:143|170:139,1,192,4|0,1:2|3:2,0:0:0:0:
250,70,58877,1,8,0:3:0:0:
155,4,59039,2,0,P|119:26|111:85,1,96,0|4,3:2|0:3,0:0:0:0:
248,160,59364,2,0,P|262:106|242:60,1,96,0|4,1:2|0:0,0:0:0:0:
188,233,59688,6,0,B|229:253|278:227|276:195|320:176|369:195,1,192,0|0,0:0|1:2,0:0:0:0:
449,272,60174,1,2,3:1:0:0:
343,361,60337,2,0,P|327:317|337:267,1,96,0|2,0:0|1:1,0:0:0:0:
436,160,60661,1,8,3:0:0:0:
499,351,60823,1,0,1:2:0:0:
499,351,60904,1,0,1:2:0:0:
499,351,60985,5,4,1:2:0:0:
335,269,61147,1,0,3:2:0:0:
509,203,61309,1,0,3:2:0:0:
362,68,61472,2,0,L|357:187,1,115.199996484375,0|0,1:2|3:2,0:0:0:0:
498,110,61796,2,0,P|513:52|495:-2,1,115.199996484375,0|0,3:2|1:2,0:0:0:0:
370,56,62120,2,0,B|310:29|259:64|266:95|216:130|154:104,1,230.39999296875,4|0,3:2|0:0,0:0:0:0:
52,60,62607,5,2,0:0:0:0:
67,41,62688,1,2,0:0:0:0:
88,29,62769,2,0,P|119:18|160:29,1,72.0000027465821,2|2,0:0|0:0,0:0:0:0:
81,186,62931,5,2,0:0:0:0:
57,182,63012,1,2,0:0:0:0:
36,170,63093,2,0,P|10:148|1:106,1,72.0000027465821,2|2,0:0|0:0,0:0:0:0:
172,109,63255,5,2,0:0:0:0:
180,131,63337,1,2,0:0:0:0:
180,155,63418,2,0,P|174:187|147:217,1,72.0000027465821,2|2,0:0|0:0,0:0:0:0:
15,281,63580,6,0,B|51:265|99:279|93:315|133:336|186:316,1,172.799994726563,6|0,3:2|0:0,0:0:0:0:
230,266,63904,2,0,P|287:239|346:242,1,115.199996484375,8|0,1:2|0:0,0:0:0:0:
450,355,64228,1,8,3:2:0:0:
450,355,64391,1,0,3:2:0:0:
512,198,64553,2,0,P|455:171|396:174,1,115.199996484375,8|0,1:2|0:0,0:0:0:0:
302,337,64877,6,0,P|332:248|276:172,1,172.799994726563,10|0,3:2|0:0,0:0:0:0:
229,137,65201,1,8,1:2:0:0:
347,0,65364,2,0,L|343:129,1,115.199996484375,0|10,0:0|3:2,0:0:0:0:
189,66,65688,1,0,3:2:0:0:
418,167,65850,2,0,L|422:38,1,115.199996484375,8|0,1:2|0:0,0:0:0:0:
262,26,66174,6,0,B|219:12|181:40|193:70|152:98|100:85,1,172.799994726563,6|0,3:2|0:0,0:0:0:0:
40,38,66499,2,0,P|76:89|66:149,1,115.199996484375,8|0,1:2|0:0,0:0:0:0:
8,287,66823,1,8,3:2:0:0:
173,196,66985,1,0,3:2:0:0:
196,351,67147,2,0,P|125:354|87:317,1,115.199996484375,8|0,1:2|0:0,0:0:0:0:
246,254,67472,6,0,B|284:238|327:256|321:292|361:313|414:293,1,172.799994726563,6|0,3:2|0:0,0:0:0:0:
468,242,67796,2,0,B|483:187|483:187|466:131,1,115.199996484375,8|0,1:2|0:0,0:0:0:0:
477,349,68120,1,6,3:2:0:0:
477,349,68282,1,0,3:2:0:0:
390,142,68445,2,0,P|321:144|285:186,1,115.199996484375,8|0,1:2|0:0,0:0:0:0:
161,278,68769,6,0,P|206:220|163:133,1,172.799994726563,6|0,3:2|0:0,0:0:0:0:
97,120,69093,2,0,L|88:244,1,115.199996484375,8|0,1:2|0:0,0:0:0:0:
218,57,69418,1,8,3:2:0:0:
218,57,69580,1,0,3:2:0:0:
13,172,69742,2,0,P|-7:108|18:58,1,115.199996484375,8|0,1:2|0:0,0:0:0:0:
158,2,70066,6,0,B|196:-14|239:4|233:40|273:61|326:41,1,172.799994726563,10|0,3:2|0:0,0:0:0:0:
387,18,70391,2,0,P|441:-8|502:5,1,115.199996484375,8|0,1:2|0:0,0:0:0:0:
498,161,70715,1,10,3:2:0:0:
315,44,70877,1,0,3:2:0:0:
388,208,71039,2,0,P|404:149|381:89,1,115.199996484375,8|0,1:2|0:0,0:0:0:0:
306,255,71364,6,0,P|347:307|450:290,1,172.799994726563,10|0,3:2|0:0,0:0:0:0:
498,238,71688,1,8,1:2:0:0:
311,168,71850,2,0,P|253:175|220:222,1,115.199996484375,0|8,3:2|0:0,0:0:0:0:
164,377,72174,2,0,B|182:321|182:321|160:269,1,115.199996484375,0|8,3:2|1:2,0:0:0:0:
12,200,72499,6,0,P|91:218|148:96,1,230.39999296875,6|0,3:2|1:2,0:0:0:0:
23,3,72985,5,10,0:0:0:0:
20,31,73066,1,2,0:0:0:0:
18,59,73147,2,0,L|14:126,1,57.5999982421876,2|2,3:2|3:2,0:0:0:0:
205,20,73309,5,10,0:0:0:0:
176,14,73391,1,10,0:0:0:0:
147,17,73472,2,0,P|112:25|91:46,1,57.5999982421876,2|2,3:2|3:2,0:0:0:0:
246,101,73634,5,10,0:0:0:0:
275,107,73715,1,10,0:0:0:0:
304,104,73796,2,0,P|339:96|360:75,1,57.5999982421876,10|10,0:0|0:0,0:0:0:0:
496,15,73958,6,0,P|438:44|456:146,1,172.799994726563,6|0,3:2|0:0,0:0:0:0:
486,211,74282,2,0,P|431:173|376:184,1,115.199996484375,8|0,1:2|0:0,0:0:0:0:
498,308,74607,1,8,3:2:0:0:
498,308,74769,1,0,3:2:0:0:
341,268,74931,2,0,P|329:328|347:383,1,115.199996484375,8|0,1:2|0:0,0:0:0:0:
385,178,75255,6,0,B|347:162|304:180|310:216|270:237|217:217,1,172.799994726563,10|0,3:2|0:0,0:0:0:0:
157,179,75580,1,8,1:2:0:0:
142,339,75742,2,0,P|199:340|250:312,1,115.199996484375,0|10,0:0|3:2,0:0:0:0:
228,138,76066,1,0,3:2:0:0:
49,243,76228,2,0,L|59:362,1,115.199996484375,8|0,1:2|0:0,0:0:0:0:
227,220,76553,6,0,P|258:162|212:62,1,172.799994726563,10|0,3:2|0:0,0:0:0:0:
140,76,76877,2,0,P|124:141|143:187,1,115.199996484375,8|0,1:2|0:0,0:0:0:0:
333,110,77201,2,0,P|349:45|330:-1,1,115.199996484375,8|0,3:2|3:2,0:0:0:0:
140,76,77526,1,8,1:2:0:0:
227,220,77688,6,0,B|308:213|308:213|368:237|368:237|480:225,1,230.39999296875,6|0,3:2|3:2,0:0:0:0:
484,70,78174,1,8,1:2:0:0:
332,1,78337,6,0,B|273:-17|213:22|243:55|178:99|117:73,1,230.39999296875,6|0,3:2|3:2,0:0:0:0:
10,186,78823,2,0,P|69:158|135:172,1,115.199996484375,8|4,0:3|0:3,0:0:0:0:
206,223,79147,6,0,P|160:273|78:258,1,153.6,6|8,3:2|0:0,0:0:0:0:
10,186,79634,1,0,3:2:0:0:
80,107,79796,2,0,L|81:274,1,153.6,8|8,1:2|0:0,0:0:0:0:
8,339,80282,1,0,1:2:0:0:
110,373,80445,6,0,P|148:349|193:354,1,76.8,8|0,3:2|1:2,0:0:0:0:
265,286,80769,2,0,P|227:262|182:267,1,76.8,8|0,3:2|3:2,0:0:0:0:
318,362,81093,2,0,B|356:367|389:351|383:326|420:305|467:323,1,153.6,8|8,1:2|1:2,0:0:0:0:
503,222,81580,1,0,0:0:0:0:
446,130,81742,6,0,P|386:118|337:199,1,153.6,6|8,3:2|0:0,0:0:0:0:
264,265,82228,1,0,3:2:0:0:
159,235,82391,2,0,P|70:233|41:164,1,153.6,8|8,1:2|0:0,0:0:0:0:
29,76,82877,1,0,1:2:0:0:
118,16,83039,6,0,P|165:22|194:61,1,76.8,8|0,3:2|1:2,0:0:0:0:
208,146,83364,2,0,P|161:140|132:101,1,76.8,8|0,3:2|3:2,0:0:0:0:
264,63,83688,2,0,B|320:58|320:58|356:70|356:70|430:63,1,153.6,8|8,1:2|1:2,0:0:0:0:
508,10,84174,1,0,1:2:0:0:
512,167,84337,5,8,1:2:0:0:
476,152,84418,1,0,1:2:0:0:
438,151,84499,1,0,1:2:0:0:
402,166,84580,1,0,1:2:0:0:
375,193,84661,1,8,1:2:0:0:
360,228,84742,1,0,1:2:0:0:
348,260,84823,1,0,1:2:0:0:
329,293,84904,1,0,1:2:0:0:
299,317,84985,5,8,1:2:0:0:
262,328,85066,1,0,1:2:0:0:
224,323,85147,1,0,1:2:0:0:
190,304,85228,1,0,1:2:0:0:
169,275,85309,1,8,1:2:0:0:
164,240,85391,1,0,1:2:0:0:
174,207,85472,1,0,1:2:0:0:
196,180,85553,1,0,1:2:0:0:
227,166,85634,6,0,L|297:179,3,57.5999982421876,8|0|0|0,1:2|1:2|1:2|1:2,0:0:0:0:
196,79,85958,2,0,L|206:17,3,57.5999982421876,8|0|0|0,1:2|1:2|1:2|1:2,0:0:0:0:
118,149,86282,6,0,L|128:211,3,57.5999982421876,8|0|0|0,1:2|1:2|1:2|1:2,0:0:0:0:
44,91,86607,2,0,L|54:29,3,57.5999982421876,8|0|0|0,1:2|1:2|1:2|1:2,0:0:0:0:
42,232,86931,6,0,P|114:205|165:275,1,172.799994726563,6|0,1:2|0:0,0:0:0:0:
173,350,87255,5,0,1:2:0:0:
42,232,87418,1,0,1:2:0:0:
173,350,87580,1,0,1:2:0:0:
7,311,87742,1,0,1:2:0:0:
246,231,87904,1,0,1:2:0:0:
79,374,88066,1,0,1:2:0:0:
126,169,88228,5,8,0:0:0:0:
44,91,89526,6,0,B|91:69|135:86|127:123|177:139|226:119,1,192,6|2,3:2|3:1,0:0:0:0:
308,42,90012,1,8,0:3:0:0:
403,106,90174,2,0,P|459:114|499:94,1,96,2|0,3:1|0:0,0:0:0:0:
317,149,90499,2,0,B|305:196|305:196|323:246,1,96,2|4,1:1|0:3,0:0:0:0:
387,334,90823,6,0,P|357:274|238:304,1,192,2|2,3:1|3:1,0:0:0:0:
149,347,91309,1,8,0:3:0:0:
149,347,91391,1,8,0:3:0:0:
149,347,91472,2,0,P|92:350|56:324,1,96,2|0,3:1|0:0,0:0:0:0:
84,217,91796,2,0,P|137:210|173:236,1,96,2|4,1:1|0:3,0:0:0:0:
259,308,92120,5,4,3:2:0:0:
84,217,92282,1,0,0:0:0:0:
259,308,92445,1,2,3:1:0:0:
60,329,92607,1,8,0:3:0:0:
245,168,92769,2,0,P|254:110|238:74,1,96,2|0,3:1|0:0,0:0:0:0:
133,32,93093,2,0,P|124:90|140:126,1,96,2|4,1:1|0:3,0:0:0:0:
290,233,93418,5,4,3:2:0:0:
137,122,93580,1,0,0:0:0:0:
290,233,93742,1,2,3:1:0:0:
84,217,93904,1,0,0:0:0:0:
240,76,94066,2,0,L|340:85,1,96,2|4,3:1|0:3,0:0:0:0:
194,224,94391,1,2,1:1:0:0:
133,32,94553,1,0,3:2:0:0:
133,32,94634,1,0,3:2:0:0:
133,32,94715,6,0,B|169:21|203:38|203:65|229:76|274:64,2,144,2|2|2,0:0|0:0|0:0,0:0:0:0:
84,217,95850,1,8,0:0:0:0:
84,217,95931,1,8,0:0:0:0:
84,217,96012,6,0,P|136:201|150:112,2,144,10|8|8,3:2|0:0|3:2,0:0:0:0:
39,110,97309,5,6,3:2:0:0:
256,192,97391,12,8,99580,0:0:0:0:
39,110,99904,6,0,B|88:105|88:105|123:119|123:119|190:110,1,134.399995898438,4|2,3:2|3:0,0:0:0:0:
235,64,100391,1,0,0:0:0:0:
306,100,100553,2,0,P|313:135|311:168,1,67.1999979492188,2|0,3:0|0:0,0:0:0:0:
246,214,100877,2,0,P|237:168|239:127,1,67.1999979492188,2|0,3:0|0:0,0:0:0:0:
296,285,101201,6,0,P|251:306|176:251,1,134.399995898438,2|2,3:0|3:0,0:0:0:0:
170,187,101688,1,0,0:0:0:0:
237,147,101850,2,0,B|267:131|301:149|296:174|335:187|371:172,1,134.399995898438,2|2,3:0|3:0,0:0:0:0:
426,128,102337,1,0,0:0:0:0:
488,178,102499,6,0,P|460:219|494:300,1,134.399995898438,2|2,3:0|3:0,0:0:0:0:
432,354,102985,1,0,0:0:0:0:
354,331,103147,2,0,P|313:319|276:328,1,67.1999979492188,2|0,3:0|0:0,0:0:0:0:
212,346,103472,2,0,P|171:358|136:348,1,67.1999979492188,2|2,3:0|0:3,0:0:0:0:
74,319,103796,6,0,L|69:171,1,134.399995898438,2|2,3:0|3:0,0:0:0:0:
70,104,104282,1,0,0:0:0:0:
144,134,104445,2,0,P|188:136|212:111,1,67.1999979492188,2|0,3:0|0:0,0:0:0:0:
259,64,104769,2,0,B|308:36|308:36|364:58,1,100.799996923828,2|0,3:0|0:0,0:0:0:0:
368,57,105093,6,0,L|367:206,1,134.399995898438,4|2,3:2|3:0,0:0:0:0:
344,269,105580,1,0,0:0:0:0:
400,326,105742,2,0,P|443:321|469:299,1,67.1999979492188,2|0,3:0|0:0,0:0:0:0:
344,269,106066,2,0,P|301:274|275:295,1,67.1999979492188,2|0,3:0|0:0,0:0:0:0:
223,343,106391,6,0,P|256:306|209:218,1,134.399995898438,2|2,3:0|3:0,0:0:0:0:
159,201,106877,1,0,0:0:0:0:
89,242,107039,2,0,L|92:315,1,67.1999979492188,2|0,3:0|0:0,0:0:0:0:
159,201,107364,2,0,P|169:156|157:130,1,67.1999979492188,2|0,3:0|0:0,0:0:0:0:
90,100,107688,6,0,B|128:112|156:93|153:66|187:53|219:70,1,134.399995898438,2|2,3:0|3:0,0:0:0:0:
261,130,108174,1,0,0:0:0:0:
327,83,108337,2,0,P|356:54|357:20,1,67.1999979492188,2|0,3:0|0:0,0:0:0:0:
425,75,108661,2,0,P|417:124|425:143,1,67.1999979492188,2|8,3:0|0:0,0:0:0:0:
494,217,108985,5,8,0:0:0:0:
488,221,109309,1,2,0:0:0:0:
481,224,109634,1,2,0:0:0:0:
474,228,109958,1,2,0:0:0:0:
467,232,110282,6,0,B|424:218|393:239|396:269|359:284|323:265,1,153.6,6|2,3:2|3:0,0:0:0:0:
250,215,110769,1,0,0:0:0:0:
181,276,110931,2,0,P|173:325|189:358,1,76.8,2|0,3:0|0:0,0:0:0:0:
250,215,111255,2,0,P|258:166|242:133,1,76.8,2|8,3:0|0:3,0:0:0:0:
167,96,111580,6,0,P|159:145|175:178,1,76.8,2|4,3:0|0:3,0:0:0:0:
250,215,111904,1,2,3:0:0:0:
83,208,112066,2,0,L|75:115,1,76.8,8|2,0:0|3:0,0:0:0:0:
168,169,112391,1,8,0:0:0:0:
6,210,112553,2,0,L|14:303,1,76.8,2|8,3:0|0:0,0:0:0:0:
16,306,112796,1,8,0:0:0:0:
16,306,112877,6,0,B|59:292|90:313|87:343|124:358|160:339,1,153.6,6|2,3:2|3:0,0:0:0:0:
240,303,113364,1,0,0:0:0:0:
312,359,113526,2,0,P|357:366|383:349,1,76.8,2|0,3:0|0:0,0:0:0:0:
395,259,113850,2,0,P|350:252|324:269,1,76.8,2|8,3:0|0:0,0:0:0:0:
466,317,114174,5,2,3:0:0:0:
502,231,114337,1,8,0:0:0:0:
455,151,114499,2,0,P|410:147|379:169,1,76.8,2|0,3:0|0:0,0:0:0:0:
509,79,114823,2,0,P|514:36|503:-1,1,76.8,2|0,3:0|0:0,0:0:0:0:
358,54,115147,2,0,P|399:51|438:45,1,76.8,2|0,3:0|0:0,0:0:0:0:
287,17,115472,6,0,B|244:3|213:24|216:54|179:69|143:50,1,153.6,2|2,3:0|3:0,0:0:0:0:
64,12,115958,1,0,0:0:0:0:
32,98,116120,2,0,P|59:132|36:236,1,153.6,2|2,3:0|3:0,0:0:0:0:
19,323,116607,1,0,0:0:0:0:
99,278,116769,6,0,P|142:277|169:302,1,76.8,2|0,3:0|0:0,0:0:0:0:
292,355,117093,2,0,P|240:363|213:364,1,76.8,2|0,3:0|0:0,0:0:0:0:
237,273,117418,2,0,P|292:264|316:264,1,76.8,2|0,3:0|0:0,0:0:0:0:
393,334,117742,2,0,P|406:297|480:289,1,115.2,8|0,0:0|0:0,0:0:0:0:
482,295,118066,6,0,L|478:88,1,192,6|2,3:2|1:1,0:0:0:0:
373,17,118553,1,0,0:0:0:0:
313,137,118715,2,0,P|375:128|400:90,1,96,2|2,0:1|3:2,0:0:0:0:
250,19,119039,1,2,1:1:0:0:
132,117,119201,6,0,B|175:90|221:113|224:144|278:163|320:131,1,192,6|0,3:2|3:2,0:0:0:0:
373,17,119688,2,0,P|323:39|318:138,1,144,2|0,1:1|0:0,0:0:0:0:
341,198,120012,1,0,3:2:0:0:
174,29,120174,1,0,1:2:0:0:
174,29,120255,1,0,1:2:0:0:
174,29,120337,1,0,1:2:0:0:
252,266,120499,2,0,L|255:211,1,48,0|0,1:2|1:2,0:0:0:0:
132,117,120661,6,0,P|141:198|146:266,1,144,6|0,3:2|0:0,0:0:0:0:
151,271,120985,2,0,P|106:253|49:264,1,96,8|0,1:2|0:0,0:0:0:0:
252,266,121309,2,0,P|300:259|333:218,1,96,8|0,3:2|3:2,0:0:0:0:
213,157,121634,1,8,0:0:0:0:
208,354,121796,6,0,B|250:327|295:350|298:380|351:399|392:367,1,192,0|0,1:2|3:2,0:0:0:0:
487,280,122282,2,0,P|517:224|470:140,1,144,8|0,1:2|0:0,0:0:0:0:
479,151,122607,2,0,L|377:158,1,96,8|0,3:2|3:2,0:0:0:0:
487,280,122931,1,8,1:2:0:0:
504,51,123093,1,8,0:0:0:0:
504,51,123174,1,8,0:0:0:0:
504,51,123255,6,0,B|469:29|433:47|430:72|387:87|354:62,1,144,0|0,3:2|0:0,0:0:0:0:
361,63,123580,2,0,P|319:29|275:32,1,96,8|0,1:2|0:0,0:0:0:0:
234,189,123904,1,8,3:2:0:0:
298,106,124066,1,0,3:2:0:0:
194,8,124228,2,0,L|205:110,1,96,8|0,1:2|0:0,0:0:0:0:
146,241,124553,6,0,B|128:195|128:195|143:151,1,96,8|0,3:2|0:0,0:0:0:0:
314,186,124877,2,0,B|332:229|332:229|317:276,1,96,8|0,1:2|0:0,0:0:0:0:
200,343,125201,1,8,3:2:0:0:
234,189,125364,1,0,3:2:0:0:
404,330,125526,2,0,P|451:327|488:297,1,96,8|0,1:2|1:2,0:0:0:0:
493,285,125769,1,0,1:2:0:0:
493,285,125850,6,0,L|484:130,1,144,6|0,3:2|0:0,0:0:0:0:
479,129,126174,2,0,P|428:127|388:160,1,96,8|0,1:2|0:0,0:0:0:0:
312,261,126499,2,0,P|363:263|403:230,1,96,8|0,3:2|3:2,0:0:0:0:
316,100,126823,1,8,0:0:0:0:
135,170,126985,6,0,B|177:143|222:166|225:196|278:215|319:183,1,192,0|0,1:2|3:2,0:0:0:0:
357,37,127472,2,0,P|293:25|245:87,1,144,8|0,1:2|0:0,0:0:0:0:
243,89,127796,2,0,P|196:65|152:73,1,96,8|0,3:2|3:2,0:0:0:0:
59,217,128120,2,0,P|112:201|136:167,1,96,8|0,1:2|0:0,0:0:0:0:
47,25,128445,6,0,L|59:224,1,192,8|10,3:2|1:2,0:0:0:0:
12,342,128931,1,0,0:0:0:0:
158,266,129093,2,0,P|169:212|145:159,1,96,10|0,3:2|3:2,0:0:0:0:
93,333,129418,2,0,P|140:364|184:356,1,96,10|0,1:2|0:0,0:0:0:0:
402,235,129742,6,0,B|350:218|308:246|323:279|278:312|234:297,1,192,8|8,3:2|1:2,0:0:0:0:
386,322,130228,1,8,0:0:0:0:
386,322,130309,1,8,0:0:0:0:
386,322,130391,1,8,3:2:0:0:
259,191,130553,1,0,1:2:0:0:
386,322,130715,1,8,0:3:0:0:
234,297,130877,1,4,0:3:0:0:
351,168,131039,6,0,P|363:123|338:68,1,96,6|0,3:2|0:0,0:0:0:0:
274,48,131526,2,0,P|234:57|173:66,2,96,2|0|8,0:0|0:0|0:0,0:0:0:0:
282,34,132255,1,8,0:0:0:0:
282,34,132337,6,0,P|317:7|378:7,1,96,8|2,0:0|0:0,0:0:0:0:
419,46,132823,1,0,0:0:0:0:
435,111,132985,2,0,L|431:191,2,72,2|0|0,0:0|0:0|3:2,0:0:0:0:
506,110,133634,6,0,L|500:215,1,96,6|0,3:2|0:0,0:0:0:0:
456,256,134120,2,0,P|492:248|502:304,2,96,2|0|0,0:0|0:0|0:0,0:0:0:0:
401,295,134931,6,0,P|345:309|296:312,1,96,10|0,0:0|0:0,0:0:0:0:
251,351,135418,1,8,0:0:0:0:
209,298,135580,2,0,P|230:261|209:203,1,96,2|8,0:0|0:0,0:0:0:0:
183,153,136066,1,8,0:0:0:0:
14,295,136228,6,0,P|111:304|151:221,1,192,6|0,1:2|3:2,0:0:0:0:
77,142,136715,2,0,L|73:251,1,96,0|0,1:2|3:2,0:0:0:0:
159,67,137039,1,0,3:2:0:0:
0,38,137201,2,0,P|-9:85|9:137,1,96,0|4,1:2|3:2,0:0:0:0:
73,237,137526,6,0,B|125:254|167:226|152:193|197:160|241:175,1,192,0|0,0:0|1:2,0:0:0:0:
349,253,138012,1,0,3:2:0:0:
240,174,138174,1,0,3:2:0:0:
424,194,138337,1,0,1:2:0:0:
424,194,138418,1,0,1:2:0:0:
424,194,138499,1,0,3:2:0:0:
231,298,138661,1,0,3:2:0:0:
231,298,138742,1,0,3:2:0:0:
231,298,138823,5,4,1:2:0:0:
348,153,138985,1,0,3:2:0:0:
403,342,139147,1,0,3:2:0:0:
240,174,139309,2,0,P|225:129|242:78,1,96,0|0,1:2|3:2,0:0:0:0:
421,101,139634,2,0,P|434:146|423:193,1,96,0|0,3:2|1:2,0:0:0:0:
325,285,139958,6,0,B|259:280|259:280|212:304|212:304|126:301,1,192,6|0,3:2|0:0,0:0:0:0:
25,211,140445,1,2,3:2:0:0:
23,187,140526,1,2,0:0:0:0:
21,163,140607,2,0,L|14:87,1,72.0000027465821,10|2,0:0|0:0,0:0:0:0:
85,46,140769,6,0,P|106:40|121:34,6,36.0000013732911,2|0|2|0|10|0|2,0:0|0:0|0:0|0:0|0:0|0:0|0:0,0:0:0:0:
168,97,141093,5,2,3:2:0:0:
198,115,141174,1,2,0:0:0:0:
233,121,141255,2,0,P|268:114|296:89,1,72.0000027465821,2|2,0:0|0:0,0:0:0:0:
401,17,141418,6,0,P|347:48|388:144,1,172.799994726563,6|0,3:2|0:0,0:0:0:0:
449,177,141742,2,0,P|492:129|490:80,1,115.199996484375,8|0,1:2|0:0,0:0:0:0:
501,273,142066,1,8,3:2:0:0:
501,273,142228,1,0,3:2:0:0:
375,152,142391,2,0,P|311:157|278:199,1,115.199996484375,8|0,1:2|0:0,0:0:0:0:
258,375,142715,6,0,P|292:296|239:212,1,172.799994726563,10|0,3:2|0:0,0:0:0:0:
187,180,143039,1,8,1:2:0:0:
87,304,143201,2,0,L|213:292,1,115.199996484375,0|10,0:0|3:2,0:0:0:0:
75,92,143526,1,0,3:2:0:0:
0,233,143688,2,0,L|126:221,1,115.199996484375,8|0,1:2|0:0,0:0:0:0:
228,39,144012,6,0,B|178:21|141:45|158:78|107:102|63:89,1,172.799994726563,6|0,3:2|0:0,0:0:0:0:
17,42,144337,2,0,P|60:91|63:147,1,115.199996484375,8|0,1:2|0:0,0:0:0:0:
6,317,144661,1,8,3:2:0:0:
187,180,144823,1,0,3:2:0:0:
186,343,144985,2,0,P|131:302|75:308,1,115.199996484375,8|0,1:2|0:0,0:0:0:0:
262,282,145309,6,0,P|331:297|396:217,1,172.799994726563,6|0,3:2|0:0,0:0:0:0:
304,97,145634,2,0,B|287:155|287:155|316:218,1,115.199996484375,8|0,1:2|0:0,0:0:0:0:
357,0,145958,1,6,3:2:0:0:
357,0,146120,1,0,3:2:0:0:
412,151,146282,2,0,P|483:148|517:106,1,115.199996484375,8|0,1:2|0:0,0:0:0:0:
357,0,146607,6,0,B|307:-18|270:6|287:39|236:63|192:50,1,172.799994726563,6|0,3:2|0:0,0:0:0:0:
132,43,146931,2,0,P|196:57|226:113,1,115.199996484375,8|0,1:2|0:0,0:0:0:0:
172,256,147255,1,8,3:2:0:0:
57,141,147418,1,0,3:2:0:0:
253,202,147580,2,0,L|250:329,1,115.199996484375,8|0,1:2|0:0,0:0:0:0:
0,306,147904,6,0,P|19:236|113:242,1,172.799994726563,6|0,3:2|0:0,0:0:0:0:
172,256,148228,2,0,P|147:200|168:149,1,115.199996484375,8|0,1:2|0:0,0:0:0:0:
330,256,148553,1,10,3:2:0:0:
165,152,148715,1,0,3:2:0:0:
330,256,148877,2,0,P|401:255|433:214,1,115.199996484375,8|0,1:2|0:0,0:0:0:0:
343,15,149201,6,0,L|360:191,1,172.799994726563,6|0,3:2|0:0,0:0:0:0:
428,225,149526,1,8,1:2:0:0:
512,87,149688,2,0,P|449:100|434:147,1,115.199996484375,0|8,0:0|3:2,0:0:0:0:
508,282,150012,2,0,P|530:222|505:170,1,115.199996484375,0|8,3:2|1:2,0:0:0:0:
358,124,150337,6,0,B|294:100|246:131|268:173|203:204|147:187,1,230.39999296875,6|0,3:2|1:2,0:0:0:0:
13,107,150823,5,10,0:0:0:0:
32,86,150904,1,2,0:0:0:0:
58,73,150985,2,0,P|97:68|121:73,1,57.5999982421876,2|2,0:0|0:0,0:0:0:0:
112,254,151147,5,2,3:2:0:0:
84,248,151228,1,2,0:0:0:0:
60,232,151309,2,0,P|36:200|28:177,1,57.5999982421876,10|10,0:0|0:0,0:0:0:0:
191,72,151472,5,10,3:2:0:0:
199,99,151553,1,2,0:0:0:0:
197,128,151634,2,0,P|181:164|165:182,1,57.5999982421876,10|10,0:0|0:0,0:0:0:0:
27,354,151796,6,0,L|16:177,1,172.799994726563,6|0,3:2|0:0,0:0:0:0:
13,107,152120,2,0,P|71:79|129:106,1,115.199996484375,8|0,1:2|0:0,0:0:0:0:
254,208,152445,1,8,3:2:0:0:
254,208,152607,1,0,3:2:0:0:
281,22,152769,2,0,P|225:23|184:71,1,115.199996484375,8|0,1:2|0:0,0:0:0:0:
356,186,153093,6,0,P|446:178|474:110,1,172.799994726563,10|0,3:2|0:0,0:0:0:0:
452,37,153418,1,8,1:2:0:0:
356,186,153580,2,0,L|364:300,1,115.199996484375,0|8,0:0|3:2,0:0:0:0:
473,109,153904,1,0,3:2:0:0:
272,206,154066,2,0,P|252:145|272:98,1,115.199996484375,8|0,1:2|0:0,0:0:0:0:
283,291,154391,6,0,P|243:348|143:329,1,172.799994726563,10|0,3:2|0:0,0:0:0:0:
103,266,154715,2,0,P|139:320|132:377,1,115.199996484375,8|0,1:2|0:0,0:0:0:0:
15,185,155039,1,8,3:2:0:0:
201,249,155201,1,0,3:2:0:0:
10,333,155364,1,8,1:2:0:0:
90,60,155526,6,0,P|138:142|100:268,1,230.39999296875,6|0,3:2|3:2,0:0:0:0:
15,185,156012,1,8,1:2:0:0:
90,42,156174,6,0,B|137:16|194:38|189:84|247:106|302:69,1,230.39999296875,6|0,3:2|1:2,0:0:0:0:
481,23,156661,2,0,P|420:28|386:78,1,115.199996484375,8|4,0:3|0:3,0:0:0:0:
326,155,156985,6,0,L|334:318,1,153.6,6|8,3:2|0:0,0:0:0:0:
426,363,157472,1,0,3:2:0:0:
445,254,157634,2,0,P|373:246|333:317,1,153.6,8|8,1:2|0:0,0:0:0:0:
244,369,158120,1,0,1:2:0:0:
156,307,158282,6,0,P|144:265|154:231,1,76.8,8|0,3:2|1:2,0:0:0:0:
241,172,158607,2,0,P|253:214|243:248,1,76.8,8|0,3:2|3:2,0:0:0:0:
95,153,158931,2,0,B|134:135|162:153|164:174|204:187|249:169,1,153.6,8|8,1:2|1:2,0:0:0:0:
303,83,159418,1,0,0:0:0:0:
381,156,159580,6,0,P|444:171|487:90,1,153.6,6|8,3:2|0:0,0:0:0:0:
439,11,160066,1,0,3:2:0:0:
299,6,160228,2,0,L|303:96,1,76.8,8|0,1:2|0:0,0:0:0:0:
240,171,160553,2,0,P|220:133|234:93,1,76.8,8|0,0:0|1:2,0:0:0:0:
319,218,160877,6,0,B|280:197|253:220|251:241|215:260|174:242,1,153.6,8|8,3:2|3:2,0:0:0:0:
80,193,161364,1,0,3:2:0:0:
168,253,161526,2,0,P|186:293|179:333,1,76.8,8|0,1:2|3:2,0:0:0:0:
75,311,161850,2,0,L|70:183,1,115.2,8|0,1:2|0:0,0:0:0:0:
6,177,162174,5,8,1:2:0:0:
42,192,162255,1,0,1:2:0:0:
80,193,162337,1,0,1:2:0:0:
116,178,162418,1,0,1:2:0:0:
143,151,162499,1,8,1:2:0:0:
158,116,162580,1,0,1:2:0:0:
170,84,162661,1,0,1:2:0:0:
189,51,162742,1,0,1:2:0:0:
219,27,162823,5,8,1:2:0:0:
256,16,162904,1,0,1:2:0:0:
294,21,162985,1,0,1:2:0:0:
328,40,163066,1,0,1:2:0:0:
349,69,163147,1,8,1:2:0:0:
354,104,163228,1,0,1:2:0:0:
344,137,163309,1,0,1:2:0:0:
322,164,163391,1,0,1:2:0:0:
291,178,163472,6,0,L|217:166,3,57.5999982421876,8|0|0|0,1:2|1:2|1:2|1:2,0:0:0:0:
322,265,163796,2,0,L|312:331,3,57.5999982421876,8|0|0|0,1:2|1:2|1:2|1:2,0:0:0:0:
400,195,164120,6,0,L|390:123,3,57.5999982421876,8|0|0|0,1:2|1:2|1:2|1:2,0:0:0:0:
481,273,164445,2,0,L|472:331,3,57.5999982421876,8|0|0|0,1:2|1:2|1:2|1:2,0:0:0:0:
478,120,164769,6,0,P|398:139|347:69,1,172.799994726563,6|0,1:2|0:0,0:0:0:0:
341,1,165093,5,0,1:2:0:0:
478,120,165255,1,0,1:2:0:0:
270,122,165418,1,0,1:2:0:0:
434,28,165580,1,0,1:2:0:0:
396,304,165742,1,0,1:2:0:0:
270,122,165904,1,0,1:2:0:0:
481,273,166066,5,8,0:0:0:0:
481,273,167364,6,0,B|434:255|395:274|403:300|370:335|307:311,1,172.799994726563,6|0,3:2|0:0,0:0:0:0:
259,267,167688,1,8,3:2:0:0:
355,137,167850,2,0,P|423:139|457:178,1,115.199996484375,0|8,1:2|1:2,0:0:0:0:
259,267,168174,1,8,0:3:0:0:
176,127,168337,6,0,P|152:71|174:13,1,115.199996484375,10|0,3:2|0:0,0:0:0:0:
285,184,168661,1,8,3:2:0:0:
112,189,168823,2,0,L|123:309,1,115.199996484375,0|8,1:2|1:2,0:0:0:0:
235,65,169147,1,0,3:2:0:0:
67,5,169309,1,8,3:2:0:0:
191,220,169472,1,0,1:0:0:0:
191,220,169553,1,0,1:0:0:0:
191,220,169634,6,0,P|248:195|267:140,1,115.199996484375,6|0,3:2|3:2,0:0:0:0:
79,98,169958,1,8,1:2:0:0:
137,345,170120,2,0,L|251:326,1,115.199996484375,0|8,3:2|1:2,0:0:0:0:
86,178,170444,2,0,P|20:191|0:238,1,115.199996484375,0|8,3:2|1:2,0:0:0:0:
137,345,170769,6,0,P|186:285|143:198,1,172.799994726563,6|0,3:2|0:0,0:0:0:0:
86,177,171093,1,0,3:2:0:0:
43,345,171255,1,8,1:2:0:0:
212,141,171417,1,0,0:0:0:0:
0,56,171579,1,8,3:2:0:0:
209,277,171742,1,0,1:2:0:0:
237,280,171823,1,0,1:2:0:0:
265,276,171904,2,0,P|303:259|315:243,1,57.5999982421876,0|0,1:2|1:2,0:0:0:0:
315,111,172066,1,8,0:3:0:0:
315,111,172147,1,8,0:3:0:0:
315,111,172228,6,0,B|268:93|229:112|237:138|204:173|141:149,1,172.799994726563,6|0,3:2|0:0,0:0:0:0:
117,85,172552,2,0,P|153:46|226:43,1,115.199996484375,8|0,1:2|0:0,0:0:0:0:
290,184,172877,1,8,3:2:0:0:
398,31,173039,2,0,P|331:47|311:100,1,115.199996484375,0|8,3:2|1:2,0:0:0:0:
479,258,173363,6,0,P|520:178|477:48,1,230.39999296875,2|0,3:2|3:2,0:0:0:0:
376,182,173850,1,8,1:2:0:0:
505,335,174012,1,0,1:2:0:0:
290,184,174174,1,8,3:2:0:0:
479,50,174336,2,0,P|498:107|477:171,1,115.199996484375,0|8,1:2|0:0,0:0:0:0:
374,290,174661,6,0,B|310:262|261:301|283:344|218:382|152:352,1,230.39999296875,6|0,3:2|3:2,0:0:0:0:
69,234,175147,1,8,1:2:0:0:
171,358,175309,1,0,0:0:0:0:
5,312,175471,1,8,3:2:0:0:
194,232,175634,1,0,3:2:0:0:
74,375,175796,1,8,1:2:0:0:
17,124,175958,1,0,0:0:0:0:
194,232,176120,6,0,P|256:223|287:179,1,115.199996484375,8|0,3:2|3:2,0:0:0:0:
147,99,176444,1,8,1:2:0:0:
69,234,176606,1,0,1:2:0:0:
80,42,176769,2,0,P|128:9|198:33,1,115.199996484375,8|0,3:2|1:2,0:0:0:0:
293,134,177093,1,8,1:2:0:0:
430,28,177255,6,0,P|357:7|283:126,1,230.39999296875,2|0,3:2|3:2,0:0:0:0:
318,276,177742,1,8,1:2:0:0:
347,278,177823,1,8,0:0:0:0:
376,281,177904,1,8,0:0:0:0:
405,284,177985,1,8,0:0:0:0:
434,288,178066,2,0,P|450:228|426:163,1,115.199996484375,8|0,3:2|3:2,0:0:0:0:
500,357,178390,1,0,1:2:0:0:
436,178,178552,6,0,B|372:150|323:189|345:232|280:270|214:240,1,230.39999296875,2|0,3:2|1:2,0:0:0:0:
104,149,179039,1,8,1:2:0:0:
233,246,179201,1,8,3:2:0:0:
29,206,179363,2,0,P|11:138|28:94,1,115.199996484375,8|8,3:2|0:3,0:0:0:0:
66,33,179606,1,4,0:3:0:0:
66,33,179688,1,8,1:2:0:0:
218,85,179850,6,0,L|215:328,1,230.39999296875,2|0,3:2|3:2,0:0:0:0:
24,353,180336,2,0,P|50:288|145:302,1,172.799994726563,8|0,1:2|0:0,0:0:0:0:
148,370,180661,2,0,P|92:362|20:360,1,115.199996484375,8|0,3:2|3:2,0:0:0:0:
146,212,180985,1,8,1:2:0:0:
227,335,181147,6,0,P|325:333|352:263,1,172.799994726563,6|0,3:2|0:0,0:0:0:0:
350,197,181471,1,0,1:2:0:0:
448,328,181634,1,8,1:2:0:0:
266,239,181796,1,0,1:2:0:0:
467,115,181958,1,8,0:3:0:0:
448,328,182120,1,4,0:3:0:0:
288,134,182282,1,8,1:2:0:0:
289,105,182363,1,0,1:2:0:0:
291,76,182444,2,0,L|292:7,1,57.5999982421876,0|0,1:2|1:2,0:0:0:0:
350,197,182606,6,0,B|296:221|237:185|259:142|210:103|146:131,1,230.39999296875,6|8,3:2|1:2,0:0:0:0:
48,255,183093,1,0,0:0:0:0:
51,50,183255,2,0,P|69:123|71:174,1,115.199996484375,8|0,3:2|3:2,0:0:0:0:
0,321,183579,1,8,1:2:0:0:
157,360,183742,6,0,P|204:252|169:146,1,230.39999296875,0|0,0:0|3:2,0:0:0:0:
51,50,184228,1,8,1:2:0:0:
171,149,184390,1,0,0:0:0:0:
0,141,184552,1,8,3:2:0:0:
191,18,184715,1,0,3:2:0:0:
131,244,184877,2,0,L|1:238,1,115.199996484375,8|0,1:2|0:0,0:0:0:0:
124,85,185201,6,0,B|177:60|236:96|214:139|263:178|327:150,1,230.39999296875,8|8,3:2|1:2,0:0:0:0:
470,83,185688,1,0,0:0:0:0:
320,23,185850,2,0,P|303:76|331:144,1,115.199996484375,8|0,3:2|3:2,0:0:0:0:
453,221,186174,1,8,0:0:0:0:
375,362,186336,6,0,P|340:287|214:313,1,230.39999296875,4|0,3:2|3:2,0:0:0:0:
62,369,186823,1,8,1:2:0:0:
180,220,186985,1,4,3:2:0:0:
53,163,187147,2,0,P|36:217|55:276,1,115.199996484375,0|0,0:0|1:2,0:0:0:0:
174,376,187471,1,8,0:3:0:0:
272,278,187633,6,0,P|238:205|177:222,1,153.6,4|0,3:2|3:2,0:0:0:0:
156,129,188120,2,0,B|200:143|248:120|212:85|256:66|297:74,1,153.6,8|8,3:2|1:2,0:0:0:0:
353,35,188606,1,0,3:2:0:0:
412,83,188769,2,0,P|403:122|417:164,1,76.8,8|0,3:2|1:2,0:0:0:0:
459,217,189093,5,8,0:0:0:0:
410,276,189255,1,8,1:2:0:0:
402,286,189336,1,8,0:0:0:0:
394,297,189417,2,0,P|356:277|308:277,1,76.8,8|0,3:2|3:2,0:0:0:0:
267,328,189742,1,8,1:2:0:0:
204,282,189904,1,0,3:2:0:0:
148,334,190066,1,8,1:2:0:0:
77,298,190228,6,0,B|159:335|250:279|216:213|292:153|391:196,1,360,4|0,3:2|0:0,0:0:0:0:
389,195,191525,6,0,P|345:217|249:104,1,216,4|0,3:2|0:0,0:0:0:0:
256,97,192336,1,0,1:2:0:0:
166,178,192498,1,8,0:3:0:0:
183,8,192661,1,4,0:3:0:0:
43,98,192823,6,0,L|55:298,1,192,4|0,3:2|1:2,0:0:0:0:
166,364,193309,2,0,P|219:366|259:329,1,96,2|0,3:1|1:2,0:0:0:0:
308,291,193552,1,0,1:2:0:0:
324,277,193633,2,0,P|381:268|425:300,1,96,2|0,3:1|1:2,0:0:0:0:
208,247,193958,2,0,P|190:202|215:143,1,96,2|0,3:1|1:2,0:0:0:0:
291,57,194282,6,0,B|323:37|362:54|356:83|397:100|431:88,1,144,2|0,3:1|1:2,0:0:0:0:
472,35,194606,1,2,3:1:0:0:
497,167,194769,1,0,1:2:0:0:
494,184,194850,1,0,1:2:0:0:
490,203,194931,2,0,P|454:178|383:177,1,96,2|0,3:1|1:2,0:0:0:0:
319,184,195174,1,0,1:2:0:0:
302,195,195255,2,0,L|308:299,1,96,2|0,3:1|1:2,0:0:0:0:
166,364,195579,6,0,P|107:322|121:244,1,144,2|0,3:1|1:2,0:0:0:0:
173,208,195904,1,2,3:1:0:0:
71,120,196066,1,0,1:2:0:0:
71,120,196147,1,0,1:2:0:0:
71,120,196228,2,0,P|23:144|16:190,1,96,2|0,3:1|1:2,0:0:0:0:
1,257,196471,1,0,1:2:0:0:
15,268,196552,2,0,L|117:255,1,96,2|0,3:1|1:2,0:0:0:0:
202,86,196877,6,0,B|170:66|131:83|137:112|96:129|62:117,1,144,2|0,3:1|1:2,0:0:0:0:
26,58,197201,1,2,3:1:0:0:
173,208,197363,1,0,1:2:0:0:
173,208,197444,1,0,1:2:0:0:
173,208,197525,2,0,P|226:214|265:186,1,96,2|0,3:1|1:2,0:0:0:0:
294,127,197769,1,0,1:2:0:0:
296,108,197850,2,0,L|288:6,1,96,2|0,3:1|1:2,0:0:0:0:
361,180,198174,6,0,P|443:193|488:138,1,144,2|0,3:1|1:2,0:0:0:0:
492,77,198498,1,2,3:1:0:0:
361,180,198661,1,0,1:2:0:0:
361,180,198742,1,0,1:2:0:0:
361,180,198823,2,0,B|348:229|348:229|368:283,1,96,2|0,3:1|1:2,0:0:0:0:
453,379,199147,2,0,B|466:330|466:330|446:276,1,96,2|0,3:1|1:2,0:0:0:0:
378,278,199390,1,0,1:2:0:0:
363,271,199471,6,0,B|327:257|294:278|299:304|259:323|216:306,1,144,2|0,3:1|1:2,0:0:0:0:
167,269,199796,1,2,3:1:0:0:
63,354,199958,1,0,1:2:0:0:
63,354,200039,1,0,1:2:0:0:
63,354,200120,2,0,P|17:317|19:272,1,96,2|0,3:1|1:2,0:0:0:0:
19,207,200363,1,0,1:2:0:0:
26,192,200444,2,0,L|128:202,1,96,2|0,3:1|1:0,0:0:0:0:
191,171,200688,1,0,1:2:0:0:
204,160,200769,6,0,P|227:105|154:66,1,144,2|0,3:1|1:2,0:0:0:0:
102,95,201093,1,2,3:1:0:0:
261,12,201255,1,0,1:2:0:0:
261,12,201336,1,0,1:2:0:0:
261,12,201417,2,0,P|314:12|346:52,1,96,2|0,3:1|1:2,0:0:0:0:
361,114,201661,1,0,1:2:0:0:
377,119,201742,2,0,P|429:118|470:86,1,96,2|0,3:1|1:2,0:0:0:0:
512,159,201985,1,0,1:2:0:0:
505,175,202066,6,0,B|481:242|481:242|510:321,1,144,2|0,3:1|1:2,0:0:0:0:
446,363,202390,2,0,P|403:340|343:346,1,96,2|0,3:1|1:2,0:0:0:0:
285,361,202633,1,0,1:2:0:0:
268,370,202715,2,0,B|251:322|251:322|266:268,1,96,2|0,3:1|1:2,0:0:0:0:
296,211,202958,1,0,1:2:0:0:
296,211,203039,2,0,P|260:247|202:248,1,96,2|0,3:1|1:2,0:0:0:0:
156,204,203282,1,0,1:2:0:0:
156,204,203363,6,0,P|106:191|61:209,1,96,6|0,3:2|0:0,0:0:0:0:
19,262,203850,2,0,L|23:362,2,96,2|0|0,0:0|0:0|0:0,0:0:0:0:
65,205,204661,2,0,P|85:167|68:111,1,96,2|0,0:0|0:0,0:0:0:0:
30,65,205147,2,0,P|66:75|129:81,1,96,2|0,0:0|0:0,0:0:0:0:
176,39,205633,1,2,0:0:0:0:
221,88,205796,5,8,3:2:0:0:
221,88,205958,2,0,P|251:71|318:66,1,96,10|0,3:2|0:0,0:0:0:0:
365,104,206444,2,0,P|392:133|452:135,2,96,2|0|0,0:0|0:0|0:0,0:0:0:0:
308,141,207255,2,0,L|316:249,1,96,2|0,0:0|0:0,0:0:0:0:
299,302,207742,2,0,P|321:276|386:279,1,96,2|2,0:0|0:0,0:0:0:0:
434,312,208228,1,2,0:0:0:0:
247,368,208552,5,6,3:2:0:0:
193,327,208715,1,2,0:0:0:0:
125,323,208877,1,2,0:0:0:0:
67,356,209039,2,0,L|61:254,1,96,2|2,0:0|0:0,0:0:0:0:
38,197,209525,1,2,0:0:0:0:
76,141,209688,1,2,0:0:0:0:
36,86,209850,2,0,B|62:95|84:86|83:68|109:54|143:62,1,96,2|2,0:0|0:0,0:0:0:0:
183,92,210336,1,8,0:3:0:0:
183,92,210417,1,8,0:3:0:0:
183,92,210498,5,8,0:3:0:0:
232,46,210661,1,4,0:3:0:0:
292,78,210823,2,0,P|330:81|372:54,1,72,4|0,0:3|0:0,0:0:0:0:
360,67,211147,6,0,P|410:54|473:137,1,153.6,4|2,3:2|0:1,0:0:0:0:
469,213,211633,1,0,3:2:0:0:
385,252,211796,2,0,P|373:213|390:171,1,76.8,2|0,1:1|3:2,0:0:0:0:
463,305,212120,1,2,0:1:0:0:
385,354,212282,6,0,B|330:348|330:348|293:364|293:364|220:359,1,153.6,0|0,3:2|0:0,0:0:0:0:
172,291,212769,1,2,0:1:0:0:
235,360,212931,1,0,3:2:0:0:
108,338,213093,2,0,P|90:298|101:260,1,76.8,2|0,1:1|3:2,0:0:0:0:
172,214,213417,2,0,L|171:301,1,76.8,2|0,1:1|0:0,0:0:0:0:
62,202,213742,6,0,P|23:159|59:76,1,153.6,4|2,3:2|0:1,0:0:0:0:
128,22,214228,1,0,3:2:0:0:
206,69,214390,2,0,P|256:74|282:54,1,76.8,2|0,1:1|1:2,0:0:0:0:
357,15,214715,1,2,3:1:0:0:
441,135,214877,6,0,P|394:108|310:167,1,153.6,4|0,3:2|3:2,0:0:0:0:
277,236,215363,1,2,1:1:0:0:
390,310,215525,1,0,3:2:0:0:
488,217,215688,5,2,3:2:0:0:
469,212,215769,1,2,0:0:0:0:
449,213,215850,2,0,P|416:219|399:233,1,38.4,10|2,0:0|0:0,0:0:0:0:
390,310,216012,5,10,0:0:0:0:
409,315,216093,1,2,0:0:0:0:
429,314,216174,2,0,P|462:308|479:294,1,38.4,2|2,0:0|0:0,0:0:0:0:
277,236,216336,5,6,3:2:0:0:
277,236,219579,6,0,L|220:240,1,52.8000016113282,0|8,1:2|0:3,0:0:0:0:
91,366,219742,2,0,L|115:314,1,52.8000016113282,4|4,0:3|0:3,0:0:0:0:
77,145,219904,2,0,L|110:191,1,52.8000016113282,0|0,1:2|1:2,0:0:0:0:
376,274,220066,6,0,B|326:253|270:281|295:322|242:352|189:329,1,211.200006445313,6|0,3:2|3:2,0:0:0:0:
190,330,220715,6,0,P|176:275|193:176,1,144,6|0,3:2|0:0,0:0:0:0:
199,167,221039,1,0,3:2:0:0:
105,70,221201,2,0,P|52:75|30:111,1,96,8|0,1:2|0:0,0:0:0:0:
180,18,221525,6,0,P|211:62|317:54,1,153.6,4|2,3:2|3:0,0:0:0:0:
398,12,222012,1,0,0:0:0:0:
480,80,222174,2,0,P|474:122|485:160,1,76.8,2|0,3:0|0:0,0:0:0:0:
470,261,222498,1,2,3:0:0:0:
402,345,222661,1,2,0:3:0:0:
396,353,222742,1,2,0:3:0:0:
390,362,222823,6,0,B|327:356|327:356|290:364|290:364|226:360,1,153.6,2|2,3:0|3:0,0:0:0:0:
175,272,223309,1,2,0:0:0:0:
95,344,223471,2,0,P|47:343|19:313,1,76.8,2|0,3:0|0:0,0:0:0:0:
16,174,223796,1,2,3:0:0:0:
32,166,223877,1,2,0:3:0:0:
47,158,223958,1,2,0:3:0:0:
60,151,224039,1,2,0:3:0:0:
72,146,224120,6,0,P|90:205|72:276,1,115.2,2|0,3:2|0:0,0:0:0:0:
71,272,224444,1,2,3:0:0:0:
165,190,224606,1,0,0:0:0:0:
122,86,224769,2,0,P|72:68|45:78,1,76.8,2|0,3:0|0:0,0:0:0:0:
228,129,225093,1,2,3:0:0:0:
300,49,225255,1,8,0:0:0:0:
348,144,225417,6,0,L|345:200,3,38.4,2|2|2|2,3:2|0:0|0:0|0:0,0:0:0:0:
415,87,225742,2,0,L|418:31,3,38.4,2|2|2|2,3:2|0:0|0:0|0:0,0:0:0:0:
429,173,226066,6,0,L|426:229,3,38.4,2|2|2|2,3:2|0:0|0:0|0:0,0:0:0:0:
496,116,226390,2,0,L|499:60,3,38.4,2|2|10|10,3:2|0:0|0:0|0:0,0:0:0:0:
512,238,226715,6,0,B|469:223|430:241|448:276|406:297|359:281,1,153.6,6|2,3:2|3:1,0:0:0:0:
296,212,227201,1,8,0:3:0:0:
217,285,227363,2,0,P|207:338|216:365,1,76.8,2|0,3:1|0:0,0:0:0:0:
135,229,227688,2,0,P|141:191|131:155,1,76.8,2|0,1:1|0:0,0:0:0:0:
25,135,228012,6,0,P|100:146|134:57,1,153.6,2|2,3:1|3:1,0:0:0:0:
220,17,228498,1,4,0:3:0:0:
303,85,228661,2,0,P|350:80|377:53,1,76.8,2|8,3:1|0:3,0:0:0:0:
469,17,228985,2,0,P|462:71|458:147,1,115.2,2|0,1:1|0:0,0:0:0:0:
465,147,229309,6,0,P|420:140|392:251,1,153.6,2|2,3:1|3:1,0:0:0:0:
452,295,229796,1,8,0:3:0:0:
373,368,229958,2,0,P|329:349|292:350,1,76.8,2|0,3:1|0:0,0:0:0:0:
193,360,230282,1,2,1:1:0:0:
94,316,230444,6,0,P|56:262|94:174,1,153.6,4|0,1:2|0:0,0:0:0:0:
146,97,230931,1,2,1:1:0:0:
63,27,231093,1,4,1:2:0:0:
157,174,231255,2,0,L|255:168,1,76.8,2|0,3:1|0:0,0:0:0:0:
67,111,231579,1,2,1:1:0:0:
144,14,231742,1,8,0:3:0:0:
144,14,231823,1,8,0:3:0:0:
144,14,231904,6,0,B|187:-1|226:17|208:52|250:73|297:57,1,153.6,4|8,3:2|3:2,0:0:0:0:
373,8,232390,1,8,0:3:0:0:
442,90,232552,2,0,P|432:142|447:174,1,76.8,8|4,3:2|0:3,0:0:0:0:
477,264,232877,2,0,P|431:259|398:284,1,76.8,8|4,1:2|0:3,0:0:0:0:
396,282,233120,1,4,0:3:0:0:
388,292,233201,6,0,P|358:330|257:301,1,153.6,8|8,3:2|3:2,0:0:0:0:
204,223,233688,1,4,0:3:0:0:
110,275,233850,2,0,P|103:321|122:357,1,76.8,8|8,3:2|0:3,0:0:0:0:
204,223,234174,2,0,P|211:177|192:141,1,76.8,8|0,1:2|1:2,0:0:0:0:
191,134,234417,1,0,1:2:0:0:
179,121,234498,6,0,P|105:131|28:138,1,144,6|0,3:2|0:0,0:0:0:0:
20,139,234823,5,0,1:2:0:0:
199,31,234985,1,0,1:2:0:0:
121,225,235147,1,0,1:2:0:0:
48,34,235309,1,0,1:2:0:0:
257,138,235471,1,0,1:2:0:0:
63,284,235633,1,0,1:2:0:0:
199,31,235796,5,0,1:2:0:0:
217,277,235958,1,0,1:2:0:0:
0,155,236120,1,0,1:2:0:0:
257,138,236282,1,0,1:2:0:0:
105,151,236444,6,0,L|103:112,6,24,0|0|0|0|0|0|0,1:0|0:0|0:0|0:0|1:0|0:0|0:0,0:0:0:0:
114,53,236769,5,10,0:0:0:0:
139,31,236850,1,10,0:0:0:0:
171,23,236931,1,10,0:0:0:0:
203,29,237012,1,10,0:0:0:0:
238,48,237093,6,0,B|279:70|336:47|306:17|355:-4|409:18,1,172.799994726563,6|0,3:2|0:0,0:0:0:0:
466,55,237417,2,0,L|466:174,1,115.199996484375,8|0,1:2|0:0,0:0:0:0:
327,155,237742,1,8,3:2:0:0:
418,258,237904,1,0,3:2:0:0:
327,155,238066,2,0,P|256:157|235:198,1,115.199996484375,8|0,1:2|0:0,0:0:0:0:
165,308,238390,6,0,P|252:301|344:296,1,172.799994726563,10|0,3:2|0:0,0:0:0:0:
418,258,238715,1,8,1:2:0:0:
498,370,238877,2,0,L|364:379,1,115.199996484375,0|10,0:0|3:2,0:0:0:0:
466,170,239201,1,0,3:2:0:0:
337,296,239363,2,0,P|281:280|259:213,1,115.199996484375,8|0,1:2|0:0,0:0:0:0:
327,5,239688,6,0,L|323:173,1,172.799994726563,6|0,3:2|0:0,0:0:0:0:
322,177,240012,2,0,P|358:131|418:129,1,115.199996484375,8|0,1:2|0:0,0:0:0:0:
418,258,240336,1,8,3:2:0:0:
251,142,240498,1,0,3:2:0:0:
177,259,240661,2,0,P|119:292|74:276,1,115.199996484375,8|0,1:2|0:0,0:0:0:0:
91,16,240985,6,0,P|142:47|117:144,1,172.799994726563,6|0,3:2|0:0,0:0:0:0:
62,193,241309,2,0,P|120:160|165:176,1,115.199996484375,8|0,1:2|0:0,0:0:0:0:
269,261,241633,1,6,3:2:0:0:
317,92,241796,1,0,3:2:0:0:
177,259,241958,2,0,L|182:386,1,115.199996484375,8|0,1:2|0:0,0:0:0:0:
356,334,242282,6,0,P|399:277|340:198,1,172.799994726563,6|0,3:2|0:0,0:0:0:0:
274,173,242606,2,0,P|210:179|190:238,1,115.199996484375,8|0,1:2|0:0,0:0:0:0:
394,129,242931,1,8,3:2:0:0:
276,17,243093,1,0,3:2:0:0:
394,129,243255,2,0,P|460:122|486:63,1,115.199996484375,8|0,1:2|0:0,0:0:0:0:
276,17,243579,6,0,B|235:-1|182:24|214:60|168:85|105:68,1,172.799994726563,10|0,3:2|0:0,0:0:0:0:
58,33,243904,2,0,P|116:68|119:123,1,115.199996484375,8|0,1:2|0:0,0:0:0:0:
53,230,244228,1,10,3:2:0:0:
204,137,244390,1,0,3:2:0:0:
44,115,244552,2,0,L|53:238,1,115.199996484375,8|8,1:2|0:0,0:0:0:0:
17,304,244796,1,8,0:0:0:0:
17,304,244877,6,0,B|77:298|77:298|125:313|125:313|207:306,1,172.799994726563,8|0,3:2|0:0,0:0:0:0:
232,238,245201,1,8,1:2:0:0:
344,318,245363,2,0,P|408:365|461:351,1,115.199996484375,0|8,3:2|0:0,0:0:0:0:
321,195,245688,2,0,P|250:204|232:261,1,115.199996484375,0|8,3:2|1:2,0:0:0:0:
413,270,246012,6,0,P|455:192|401:67,1,230.39999296875,6|0,3:2|1:2,0:0:0:0:
275,17,246498,5,10,0:0:0:0:
256,38,246579,1,2,0:0:0:0:
230,52,246661,2,0,P|194:67|165:66,1,57.5999982421876,2|2,0:0|0:0,0:0:0:0:
42,98,246823,5,2,3:2:0:0:
69,103,246904,1,2,3:2:0:0:
94,119,246985,2,0,P|124:142|138:168,1,57.5999982421876,2|2,3:2|3:2,0:0:0:0:
217,267,247147,5,10,0:0:0:0:
207,241,247228,1,2,0:0:0:0:
209,211,247309,2,0,P|214:172|229:147,1,57.5999982421876,10|10,0:0|0:0,0:0:0:0:
57,200,247471,6,0,P|92:254|48:346,1,172.799994726563,6|0,3:2|0:0,0:0:0:0:
49,344,247796,2,0,L|168:337,1,115.199996484375,8|0,1:2|0:0,0:0:0:0:
10,267,248120,1,8,3:2:0:0:
164,337,248282,1,0,3:2:0:0:
226,155,248444,2,0,P|168:157|146:208,1,115.199996484375,8|0,1:2|0:0,0:0:0:0:
292,285,248769,6,0,B|333:267|386:292|354:328|400:353|463:336,1,172.799994726563,10|0,3:2|0:0,0:0:0:0:
500,275,249093,1,8,1:2:0:0:
412,139,249255,2,0,P|345:157|332:209,1,115.199996484375,0|10,0:0|3:2,0:0:0:0:
500,275,249579,1,0,3:2:0:0:
507,113,249742,2,0,P|523:54|496:2,1,115.199996484375,8|0,1:2|0:0,0:0:0:0:
340,7,250066,6,0,P|303:55|194:35,1,172.799994726563,6|0,3:2|0:0,0:0:0:0:
130,15,250390,2,0,P|161:70|137:124,1,115.199996484375,8|0,1:2|0:0,0:0:0:0:
39,238,250715,1,8,3:2:0:0:
206,178,250877,1,0,3:2:0:0:
30,81,251039,1,8,1:2:0:0:
89,320,251201,6,0,P|177:308|326:302,1,230.39999296875,6|0,3:2|3:2,0:0:0:0:
465,369,251688,1,8,1:2:0:0:
483,147,251850,6,0,B|430:124|362:155|403:201|345:233|264:212,1,230.39999296875,6|0,3:2|3:2,0:0:0:0:
210,70,252336,1,8,0:3:0:0:
99,187,252498,1,4,0:3:0:0:
107,205,252579,1,4,0:3:0:0:
113,221,252661,6,0,P|182:210|275:208,1,153.6,6|8,3:2|0:0,0:0:0:0:
310,110,253147,1,0,3:2:0:0:
219,51,253309,2,0,P|151:42|115:127,1,153.6,8|8,1:2|0:0,0:0:0:0:
25,172,253796,1,0,1:2:0:0:
25,172,253958,6,0,P|15:118|28:96,1,76.8,8|0,3:2|1:2,0:0:0:0:
113,221,254282,2,0,P|123:275|110:297,1,76.8,8|0,3:2|3:2,0:0:0:0:
31,360,254606,2,0,P|100:351|205:352,1,153.6,8|8,1:2|1:2,0:0:0:0:
290,368,255093,1,0,0:0:0:0:
392,336,255255,6,0,P|422:286|390:197,1,153.6,6|8,3:2|0:0,0:0:0:0:
315,126,255742,1,0,3:2:0:0:
218,173,255904,2,0,P|182:193|171:232,1,76.8,8|0,1:2|0:0,0:0:0:0:
233,87,256228,2,0,P|189:69|157:84,1,76.8,8|0,0:0|1:2,0:0:0:0:
292,20,256552,6,0,P|328:51|374:49,1,76.8,8|0,3:2|1:2,0:0:0:0:
453,8,256877,2,0,P|446:70|448:166,1,153.6,8|8,3:2|1:2,0:0:0:0:
495,256,257363,1,0,3:2:0:0:
419,332,257525,2,0,P|376:306|336:309,1,76.8,8|0,1:2|1:2,0:0:0:0:
250,345,257850,6,0,B|207:358|162:343|181:318|137:298|96:322,1,153.6,6|8,3:2|0:0,0:0:0:0:
12,361,258336,1,0,3:2:0:0:
2,253,258498,2,0,P|34:236|82:237,1,76.8,8|0,1:2|3:2,0:0:0:0:
181,243,258823,1,8,0:0:0:0:
269,182,258985,1,0,3:2:0:0:
269,182,259066,1,0,3:2:0:0:
269,182,259147,6,0,P|279:139|263:101,1,76.8,8|0,3:2|0:0,0:0:0:0:
257,91,259390,1,0,3:2:0:0:
257,91,259471,2,0,P|224:60|183:55,1,76.8,8|0,3:2|3:2,0:0:0:0:
95,134,259796,2,0,P|54:137|21:116,1,76.8,8|0,1:2|1:2,0:0:0:0:
79,27,260120,1,8,3:2:0:0:
176,62,260282,1,0,1:2:0:0:
176,62,260363,1,0,1:2:0:0:
176,62,260444,6,0,B|223:77|263:55|245:35|279:10|328:31,1,153.6,6|8,3:2|0:0,0:0:0:0:
391,104,260931,1,0,3:2:0:0:
492,69,261093,2,0,P|502:29|488:-2,1,76.8,8|0,1:2|1:2,0:0:0:0:
391,104,261417,2,0,P|381:144|395:175,1,76.8,8|0,3:2|1:2,0:0:0:0:
486,232,261742,6,0,P|414:228|394:305,1,153.6,8|8,0:0|3:2,0:0:0:0:
307,364,262228,1,0,0:0:0:0:
242,278,262390,2,0,P|200:276|172:307,1,76.8,8|0,1:2|1:2,0:0:0:0:
89,363,262715,2,0,P|43:349|26:318,1,76.8,8|0,3:2|1:2,0:0:0:0:
6,177,263039,5,8,1:2:0:0:
42,192,263120,1,0,1:2:0:0:
80,193,263201,1,0,1:2:0:0:
116,178,263282,1,0,1:2:0:0:
143,151,263363,1,8,1:2:0:0:
158,116,263444,1,0,1:2:0:0:
170,84,263525,1,0,1:2:0:0:
189,51,263606,1,0,1:2:0:0:
219,27,263688,5,8,1:2:0:0:
256,16,263769,1,0,1:2:0:0:
294,21,263850,1,0,1:2:0:0:
328,40,263931,1,0,1:2:0:0:
349,69,264012,1,8,1:2:0:0:
354,104,264093,1,0,1:2:0:0:
344,137,264174,1,0,1:2:0:0:
322,164,264255,1,0,1:2:0:0:
291,178,264336,6,0,P|262:183|223:171,3,57.5999982421876,8|0|0|0,1:2|1:2|1:2|1:2,0:0:0:0:
158,116,264661,2,0,P|129:110|90:123,3,57.5999982421876,8|0|0|0,1:2|1:2|1:2|1:2,0:0:0:0:
28,185,264985,6,0,L|32:254,3,57.5999982421876,8|0|0|0,1:2|1:2|1:2|1:2,0:0:0:0:
122,301,265309,2,0,P|109:340|104:367,3,57.5999982421876,8|0|0|0,1:2|1:2|1:2|1:2,0:0:0:0:
217,340,265633,6,0,P|285:331|401:324,1,172.799994726563,6|0,1:2|0:0,0:0:0:0:
464,361,265958,5,0,1:2:0:0:
495,202,266120,1,0,1:2:0:0:
464,361,266282,1,0,1:2:0:0:
371,111,266444,1,0,1:2:0:0:
464,361,266606,1,0,1:2:0:0:
259,179,266769,1,0,1:2:0:0:
452,28,266931,5,8,0:0:0:0:
452,28,268228,6,0,P|429:101|320:91,1,192,6|2,3:2|3:1,0:0:0:0:
240,22,268715,1,4,0:3:0:0:
151,95,268877,2,0,P|144:147|154:191,1,96,2|0,3:1|0:0,0:0:0:0:
255,241,269201,2,0,P|262:189|252:145,1,96,2|4,1:1|0:3,0:0:0:0:
136,283,269525,6,0,P|211:269|337:271,1,192,2|2,3:1|3:1,0:0:0:0:
427,325,270012,1,8,0:3:0:0:
439,336,270093,1,8,0:3:0:0:
451,346,270174,1,2,3:1:0:0:
378,180,270336,1,4,0:3:0:0:
338,362,270498,1,2,1:1:0:0:
474,236,270661,1,4,0:3:0:0:
302,124,270823,5,4,3:2:0:0:
350,269,270985,1,0,0:0:0:0:
374,72,271147,1,2,3:1:0:0:
220,168,271309,1,8,0:3:0:0:
447,118,271471,2,0,P|459:66|437:17,1,96,2|0,3:1|0:0,0:0:0:0:
298,27,271796,2,0,P|286:79|308:128,1,96,2|4,1:1|0:3,0:0:0:0:
385,195,272120,5,4,3:2:0:0:
214,87,272282,1,0,0:0:0:0:
350,269,272444,1,2,3:1:0:0:
302,124,272606,1,0,0:0:0:0:
176,249,272769,2,0,L|298:238,1,96,2|0,3:1|0:0,0:0:0:0:
144,137,273093,2,0,P|92:137|72:180,1,96,2|0,1:1|1:2,0:0:0:0:
66,186,273336,1,0,1:2:0:0:
61,199,273417,6,0,P|128:195|152:78,1,192,4|2,3:2|3:1,0:0:0:0:
82,2,273904,1,8,0:3:0:0:
37,107,274066,2,0,L|44:209,1,96,2|4,3:1|0:3,0:0:0:0:
16,366,274390,2,0,B|-2:319|-2:319|21:271,1,96,2|4,1:1|0:3,0:0:0:0:
26,265,274633,1,4,0:3:0:0:
35,251,274715,6,0,B|83:226|137:257|104:286|170:308|225:279,1,192,4|2,3:2|3:1,0:0:0:0:
301,212,275201,1,8,0:3:0:0:
387,288,275363,2,0,P|448:286|468:248,1,96,2|0,3:1|0:0,0:0:0:0:
478,145,275688,2,0,P|417:147|397:185,1,96,2|0,1:1|0:0,0:0:0:0:
305,238,276012,6,0,P|354:193|298:93,1,192,4|2,3:2|3:1,0:0:0:0:
212,27,276498,1,8,0:3:0:0:
125,103,276661,2,0,P|78:119|32:102,1,96,2|8,0:1|0:3,0:0:0:0:
92,204,276985,2,0,P|106:252|92:299,1,96,2|4,1:1|0:3,0:0:0:0:
10,374,277309,6,0,P|78:346|215:358,1,192,2|2,3:1|3:1,0:0:0:0:
308,376,277796,1,4,0:3:0:0:
407,318,277958,2,0,P|419:263|402:226,1,96,2|8,3:1|0:3,0:0:0:0:
314,155,278282,1,2,1:1:0:0:
274,263,278444,1,4,0:3:0:0:
274,263,278525,1,4,0:3:0:0:
274,263,278606,6,0,L|333:260,2,48,6|0|0,0:0|0:0|0:0,0:0:0:0:
203,216,279093,2,0,L|144:219,2,48,2|0|0,0:0|0:0|0:0,0:0:0:0:
276,183,279579,2,0,P|288:146|284:123,1,48,2|8,0:0|0:0,0:0:0:0:
238,79,279904,6,0,B|180:88|180:88|164:99|164:99|100:112,2,144,8|8|8,3:2|0:0|3:2,0:0:0:0:
333,14,281201,5,6,3:2:0:0:
256,192,281282,12,0,283471,0:0:0:0:
333,14,283796,6,0,P|283:27|266:80,1,105.600003222656,6|0,3:2|0:0,0:0:0:0:
329,182,284120,1,2,3:1:0:0:
438,118,284282,6,0,P|383:83|344:92,1,105.600003222656,0|2,1:2|3:1,0:0:0:0:
247,169,284606,1,4,0:3:0:0:
387,255,284769,1,2,0:1:0:0:
167,346,284931,6,0,P|166:264|163:165,1,172.799994726563,6|0,1:2|0:0,0:0:0:0:
161,158,285255,1,0,1:2:0:0:
257,284,285417,1,0,1:2:0:0:
75,203,285579,1,0,1:2:0:0:
271,102,285742,5,0,1:2:0:0:
167,346,285904,1,0,1:2:0:0:
141,66,286066,1,0,1:2:0:0:
329,182,286228,1,0,1:2:0:0:
257,284,287039,5,6,3:2:0:0:
256,192,287120,12,0,292552,0:0:0:0:
