osu file format v14

[General]
AudioFilename: audio.mp3
AudioLeadIn: 0
PreviewTime: 63745
Countdown: 0
SampleSet: Soft
StackLeniency: 0.7
Mode: 3
LetterboxInBreaks: 0
SpecialStyle: 0
WidescreenStoryboard: 1

[Editor]
DistanceSpacing: 2.2
BeatDivisor: 4
GridSize: 32
TimelineZoom: 1

[Metadata]
Title:Colorful
TitleUnicode:カラフル
Artist:HAG
ArtistUnicode:H△G
Creator:Whats Skill
Version:NM
Source:
Tags:japanese female vocalist jpop j-pop cut edit short version everlasting night of teenage girls colorful colourful Umo-
BeatmapID:2409465
BeatmapSetID:1139483

[Difficulty]
HPDrainRate:6
CircleSize:4
OverallDifficulty:7
ApproachRate:5
SliderMultiplier:1.4
SliderTickRate:1

[Events]
//Background and Video events
0,0,"hatsune-miku-aqua-hair-smiling-dress-cute-anime.jpg",0,0
//Break Periods
//Storyboard Layer 0 (Background)
//Storyboard Layer 1 (Fail)
//Storyboard Layer 2 (Pass)
//Storyboard Layer 3 (Foreground)
//Storyboard Layer 4 (Overlay)
//Storyboard Sound Samples

[TimingPoints]
620,312.5,4,2,0,42,1,0
68120,-100,4,2,0,52,0,1
85620,-100,4,2,0,52,0,0
88120,-100,4,2,0,52,0,1
106870,-100,4,2,0,52,0,0
108120,-100,4,2,0,52,0,1
128120,-100,4,2,0,42,0,0

[Colours]
Combo1 : 0,128,192
Combo2 : 0,255,255

[HitObjects]
320,192,620,5,0,0:0:0:0:
64,192,620,1,0,0:0:0:0:
448,192,932,1,0,0:0:0:0:
192,192,932,1,0,0:0:0:0:
64,192,1088,1,0,0:0:0:0:
192,192,1166,1,0,0:0:0:0:
320,192,1245,1,0,0:0:0:0:
448,192,1401,1,0,0:0:0:0:
192,192,1557,1,0,0:0:0:0:
64,192,1713,1,0,0:0:0:0:
320,192,1870,1,0,0:0:0:0:
448,192,2026,1,0,0:0:0:0:
192,192,2182,1,0,0:0:0:0:
320,192,2338,1,0,0:0:0:0:
448,192,2495,128,0,3120:0:0:0:0:
64,192,2651,1,0,0:0:0:0:
192,192,2807,1,0,0:0:0:0:
192,192,3120,1,0,0:0:0:0:
320,192,3120,1,0,0:0:0:0:
320,192,3276,1,0,0:0:0:0:
64,192,3432,1,0,0:0:0:0:
64,192,4057,1,0,0:0:0:0:
64,192,4682,1,0,0:0:0:0:
64,192,5307,1,0,0:0:0:0:
320,192,5620,1,0,0:0:0:0:
192,192,5620,1,0,0:0:0:0:
192,192,5776,1,0,0:0:0:0:
448,192,5932,1,0,0:0:0:0:
448,192,6557,1,0,0:0:0:0:
448,192,7182,1,0,0:0:0:0:
448,192,7807,1,0,0:0:0:0:
192,192,8120,1,0,0:0:0:0:
320,192,8120,1,0,0:0:0:0:
320,192,8276,1,0,0:0:0:0:
64,192,8432,1,0,0:0:0:0:
64,192,9057,1,0,0:0:0:0:
64,192,9682,1,0,0:0:0:0:
64,192,10307,1,0,0:0:0:0:
448,192,10620,1,0,0:0:0:0:
192,192,10620,1,0,0:0:0:0:
64,192,10776,128,0,10932:0:0:0:0:
192,192,10932,1,0,0:0:0:0:
192,192,11088,1,0,0:0:0:0:
320,192,11088,1,0,0:0:0:0:
448,192,11245,128,0,11401:0:0:0:0:
320,192,11401,1,0,0:0:0:0:
64,192,11557,1,0,0:0:0:0:
320,192,11557,1,0,0:0:0:0:
192,192,11713,128,0,11870:0:0:0:0:
320,192,11870,1,0,0:0:0:0:
192,192,12026,1,0,0:0:0:0:
448,192,12026,1,0,0:0:0:0:
320,192,12182,1,0,0:0:0:0:
64,192,12338,1,0,0:0:0:0:
448,192,12495,1,0,0:0:0:0:
320,192,12573,1,0,0:0:0:0:
64,192,12651,1,0,0:0:0:0:
192,192,12729,1,0,0:0:0:0:
448,192,12807,1,0,0:0:0:0:
448,192,13120,1,0,0:0:0:0:
64,192,13120,1,0,0:0:0:0:
320,192,13276,1,0,0:0:0:0:
192,192,13432,1,0,0:0:0:0:
448,192,13432,1,0,0:0:0:0:
192,192,13588,1,0,0:0:0:0:
64,192,13745,1,0,0:0:0:0:
320,192,13745,1,0,0:0:0:0:
320,192,13901,1,0,0:0:0:0:
64,192,14057,1,0,0:0:0:0:
192,192,14057,1,0,0:0:0:0:
192,192,14213,1,0,0:0:0:0:
448,192,14370,1,0,0:0:0:0:
320,192,14370,1,0,0:0:0:0:
320,192,14526,1,0,0:0:0:0:
192,192,14682,1,0,0:0:0:0:
448,192,14682,1,0,0:0:0:0:
64,192,14838,1,0,0:0:0:0:
192,192,14995,1,0,0:0:0:0:
320,192,14995,1,0,0:0:0:0:
448,192,15151,1,0,0:0:0:0:
64,192,15307,1,0,0:0:0:0:
192,192,15307,1,0,0:0:0:0:
320,192,15463,1,0,0:0:0:0:
64,192,15620,1,0,0:0:0:0:
448,192,15620,128,0,15932:0:0:0:0:
192,192,15932,1,0,0:0:0:0:
320,192,15932,1,0,0:0:0:0:
320,192,16088,1,0,0:0:0:0:
192,192,16245,1,0,0:0:0:0:
64,192,16245,1,0,0:0:0:0:
64,192,16401,1,0,0:0:0:0:
320,192,16557,1,0,0:0:0:0:
448,192,16557,1,0,0:0:0:0:
448,192,16713,1,0,0:0:0:0:
64,192,16870,1,0,0:0:0:0:
320,192,16870,1,0,0:0:0:0:
192,192,17026,1,0,0:0:0:0:
448,192,17182,1,0,0:0:0:0:
192,192,17182,1,0,0:0:0:0:
320,192,17338,1,0,0:0:0:0:
64,192,17495,1,0,0:0:0:0:
192,192,17495,1,0,0:0:0:0:
320,192,17651,1,0,0:0:0:0:
448,192,17807,1,0,0:0:0:0:
320,192,17807,1,0,0:0:0:0:
192,192,17963,1,0,0:0:0:0:
448,192,18120,1,0,0:0:0:0:
64,192,18120,128,0,18432:0:0:0:0:
448,192,18432,1,0,0:0:0:0:
192,192,18432,1,0,0:0:0:0:
192,192,18588,1,0,0:0:0:0:
64,192,18745,1,0,0:0:0:0:
320,192,18745,1,0,0:0:0:0:
320,192,18901,1,0,0:0:0:0:
64,192,19057,1,0,0:0:0:0:
192,192,19057,1,0,0:0:0:0:
448,192,19213,1,0,0:0:0:0:
448,192,19370,1,0,0:0:0:0:
320,192,19370,1,0,0:0:0:0:
64,192,19526,1,0,0:0:0:0:
192,192,19682,1,0,0:0:0:0:
320,192,19682,1,0,0:0:0:0:
320,192,19838,1,0,0:0:0:0:
192,192,19995,1,0,0:0:0:0:
448,192,19995,1,0,0:0:0:0:
320,192,20151,1,0,0:0:0:0:
64,192,20307,1,0,0:0:0:0:
192,192,20307,1,0,0:0:0:0:
192,192,20463,1,0,0:0:0:0:
448,192,20620,1,0,0:0:0:0:
64,192,20620,128,0,20932:0:0:0:0:
192,192,20932,1,0,0:0:0:0:
448,192,20932,1,0,0:0:0:0:
320,192,21088,1,0,0:0:0:0:
64,192,21245,1,0,0:0:0:0:
320,192,21245,1,0,0:0:0:0:
192,192,21401,1,0,0:0:0:0:
448,192,21557,1,0,0:0:0:0:
320,192,21557,1,0,0:0:0:0:
64,192,21713,1,0,0:0:0:0:
448,192,21713,128,0,22026:0:0:0:0:
192,192,22026,1,0,0:0:0:0:
448,192,22182,1,0,0:0:0:0:
320,192,22182,1,0,0:0:0:0:
64,192,22338,1,0,0:0:0:0:
192,192,22495,1,0,0:0:0:0:
320,192,22495,1,0,0:0:0:0:
320,192,22729,1,0,0:0:0:0:
448,192,22807,1,0,0:0:0:0:
192,192,22963,1,0,0:0:0:0:
64,192,23120,1,0,0:0:0:0:
448,192,23120,128,0,23432:0:0:0:0:
320,192,23432,1,0,0:0:0:0:
192,192,23588,128,0,23901:0:0:0:0:
320,192,23745,1,0,0:0:0:0:
448,192,23901,1,0,0:0:0:0:
64,192,24057,1,0,0:0:0:0:
320,192,24213,128,0,24526:0:0:0:0:
192,192,24370,1,0,0:0:0:0:
64,192,24526,1,0,0:0:0:0:
192,192,24682,1,0,0:0:0:0:
448,192,24682,1,0,0:0:0:0:
192,192,24838,1,0,0:0:0:0:
448,192,24995,1,0,0:0:0:0:
320,192,25151,1,0,0:0:0:0:
448,192,25307,1,0,0:0:0:0:
192,192,25307,1,0,0:0:0:0:
64,192,25463,1,0,0:0:0:0:
448,192,25620,128,0,25932:0:0:0:0:
320,192,25776,1,0,0:0:0:0:
192,192,25932,1,0,0:0:0:0:
320,192,26088,128,0,26401:0:0:0:0:
192,192,26245,1,0,0:0:0:0:
64,192,26401,1,0,0:0:0:0:
448,192,26557,1,0,0:0:0:0:
192,192,26713,128,0,27026:0:0:0:0:
320,192,26870,1,0,0:0:0:0:
448,192,27026,1,0,0:0:0:0:
320,192,27182,1,0,0:0:0:0:
64,192,27182,1,0,0:0:0:0:
192,192,27338,1,0,0:0:0:0:
448,192,27495,1,0,0:0:0:0:
320,192,27651,1,0,0:0:0:0:
64,192,27807,1,0,0:0:0:0:
448,192,27807,1,0,0:0:0:0:
320,192,28120,128,0,28432:0:0:0:0:
192,192,28276,1,0,0:0:0:0:
64,192,28432,1,0,0:0:0:0:
192,192,28588,128,0,28901:0:0:0:0:
320,192,28745,1,0,0:0:0:0:
448,192,28901,1,0,0:0:0:0:
64,192,29057,1,0,0:0:0:0:
448,192,29213,128,0,29526:0:0:0:0:
320,192,29370,1,0,0:0:0:0:
192,192,29526,1,0,0:0:0:0:
320,192,29682,1,0,0:0:0:0:
64,192,29682,1,0,0:0:0:0:
448,192,29838,1,0,0:0:0:0:
192,192,29995,1,0,0:0:0:0:
320,192,30151,1,0,0:0:0:0:
64,192,30307,1,0,0:0:0:0:
448,192,30307,1,0,0:0:0:0:
64,192,30620,128,0,30932:0:0:0:0:
320,192,30776,1,0,0:0:0:0:
192,192,30932,1,0,0:0:0:0:
320,192,31088,1,0,0:0:0:0:
192,192,31245,128,0,31401:0:0:0:0:
448,192,31401,1,0,0:0:0:0:
320,192,31557,1,0,0:0:0:0:
320,192,31713,128,0,31870:0:0:0:0:
64,192,31870,128,0,32026:0:0:0:0:
320,192,32026,128,0,32182:0:0:0:0:
192,192,32182,128,0,32338:0:0:0:0:
448,192,32338,128,0,32495:0:0:0:0:
320,192,32495,128,0,32651:0:0:0:0:
64,192,32651,128,0,32807:0:0:0:0:
192,192,32807,128,0,32963:0:0:0:0:
320,192,32963,128,0,33120:0:0:0:0:
448,192,33120,128,0,33432:0:0:0:0:
64,192,33120,1,0,0:0:0:0:
64,192,33432,1,0,0:0:0:0:
192,192,33588,128,0,33901:0:0:0:0:
320,192,33745,1,0,0:0:0:0:
448,192,33901,1,0,0:0:0:0:
64,192,34057,1,0,0:0:0:0:
320,192,34057,1,0,0:0:0:0:
448,192,34213,128,0,34526:0:0:0:0:
192,192,34526,1,0,0:0:0:0:
64,192,34682,1,0,0:0:0:0:
448,192,34682,1,0,0:0:0:0:
320,192,34838,1,0,0:0:0:0:
64,192,34995,1,0,0:0:0:0:
448,192,35151,1,0,0:0:0:0:
192,192,35307,1,0,0:0:0:0:
320,192,35307,1,0,0:0:0:0:
320,192,35463,1,0,0:0:0:0:
64,192,35620,128,0,35932:0:0:0:0:
320,192,35932,1,0,0:0:0:0:
192,192,36088,128,0,36401:0:0:0:0:
320,192,36245,1,0,0:0:0:0:
448,192,36401,1,0,0:0:0:0:
64,192,36557,1,0,0:0:0:0:
320,192,36557,1,0,0:0:0:0:
448,192,36713,128,0,37026:0:0:0:0:
320,192,36870,1,0,0:0:0:0:
192,192,37026,1,0,0:0:0:0:
64,192,37182,1,0,0:0:0:0:
448,192,37182,1,0,0:0:0:0:
320,192,37338,1,0,0:0:0:0:
192,192,37495,1,0,0:0:0:0:
64,192,37651,1,0,0:0:0:0:
448,192,37807,1,0,0:0:0:0:
192,192,37807,1,0,0:0:0:0:
320,192,38120,128,0,38432:0:0:0:0:
64,192,38432,1,0,0:0:0:0:
192,192,38588,128,0,38901:0:0:0:0:
320,192,38745,1,0,0:0:0:0:
448,192,38901,1,0,0:0:0:0:
64,192,39057,1,0,0:0:0:0:
320,192,39057,1,0,0:0:0:0:
448,192,39213,128,0,39682:0:0:0:0:
320,192,39370,1,0,0:0:0:0:
192,192,39526,1,0,0:0:0:0:
64,192,39682,1,0,0:0:0:0:
320,192,39838,1,0,0:0:0:0:
64,192,39995,128,0,40307:0:0:0:0:
192,192,40151,1,0,0:0:0:0:
320,192,40307,1,0,0:0:0:0:
192,192,40620,128,0,40932:0:0:0:0:
448,192,40620,1,0,0:0:0:0:
320,192,40932,1,0,0:0:0:0:
64,192,41088,1,0,0:0:0:0:
448,192,41245,1,0,0:0:0:0:
192,192,41401,1,0,0:0:0:0:
320,192,41557,1,0,0:0:0:0:
448,192,41713,1,0,0:0:0:0:
64,192,41713,1,0,0:0:0:0:
192,192,41870,1,0,0:0:0:0:
320,192,42026,5,0,0:0:0:0:
192,192,42182,1,0,0:0:0:0:
64,192,42182,128,0,42495:0:0:0:0:
320,192,42495,1,0,0:0:0:0:
448,192,42807,1,0,0:0:0:0:
192,192,42963,1,0,0:0:0:0:
320,192,43120,128,0,43432:0:0:0:0:
448,192,43120,1,0,0:0:0:0:
64,192,43432,1,0,0:0:0:0:
192,192,43588,1,0,0:0:0:0:
320,192,43745,1,0,0:0:0:0:
448,192,43745,128,0,44057:0:0:0:0:
64,192,44057,1,0,0:0:0:0:
192,192,44213,1,0,0:0:0:0:
320,192,44370,128,0,44682:0:0:0:0:
64,192,44682,1,0,0:0:0:0:
192,192,44995,128,0,45307:0:0:0:0:
320,192,44995,1,0,0:0:0:0:
448,192,45307,1,0,0:0:0:0:
64,192,45463,1,0,0:0:0:0:
320,192,45620,128,0,45932:0:0:0:0:
192,192,45932,1,0,0:0:0:0:
192,192,46245,128,0,46557:0:0:0:0:
448,192,46245,1,0,0:0:0:0:
320,192,46557,1,0,0:0:0:0:
448,192,46713,1,0,0:0:0:0:
320,192,46870,128,0,47182:0:0:0:0:
192,192,47182,1,0,0:0:0:0:
64,192,47495,128,0,47807:0:0:0:0:
448,192,47495,1,0,0:0:0:0:
320,192,47807,1,0,0:0:0:0:
192,192,47963,1,0,0:0:0:0:
64,192,48120,1,0,0:0:0:0:
448,192,48120,128,0,48432:0:0:0:0:
320,192,48432,1,0,0:0:0:0:
320,192,48745,128,0,49057:0:0:0:0:
192,192,48745,1,0,0:0:0:0:
64,192,49057,1,0,0:0:0:0:
192,192,49213,1,0,0:0:0:0:
448,192,49370,128,0,49682:0:0:0:0:
320,192,49370,1,0,0:0:0:0:
192,192,49682,1,0,0:0:0:0:
192,192,49995,128,0,50307:0:0:0:0:
64,192,49995,1,0,0:0:0:0:
320,192,50151,1,0,0:0:0:0:
448,192,50307,1,0,0:0:0:0:
320,192,50463,1,0,0:0:0:0:
448,192,50620,128,0,52182:0:0:0:0:
192,192,50620,1,0,0:0:0:0:
64,192,50932,1,0,0:0:0:0:
320,192,50932,1,0,0:0:0:0:
320,192,51245,1,0,0:0:0:0:
64,192,51401,1,0,0:0:0:0:
320,192,51557,1,0,0:0:0:0:
192,192,51557,1,0,0:0:0:0:
64,192,51713,1,0,0:0:0:0:
320,192,51713,1,0,0:0:0:0:
192,192,52026,1,0,0:0:0:0:
320,192,52182,1,0,0:0:0:0:
192,192,52182,1,0,0:0:0:0:
448,192,52495,1,0,0:0:0:0:
320,192,52651,1,0,0:0:0:0:
64,192,52807,1,0,0:0:0:0:
192,192,52807,1,0,0:0:0:0:
192,192,53120,128,0,53432:0:0:0:0:
320,192,53120,1,0,0:0:0:0:
64,192,53432,1,0,0:0:0:0:
448,192,53432,1,0,0:0:0:0:
64,192,53745,128,0,54057:0:0:0:0:
448,192,53745,1,0,0:0:0:0:
192,192,53901,1,0,0:0:0:0:
320,192,54057,128,0,54370:0:0:0:0:
448,192,54057,1,0,0:0:0:0:
192,192,54213,1,0,0:0:0:0:
448,192,54370,128,0,54682:0:0:0:0:
320,192,54682,128,0,54995:0:0:0:0:
64,192,54682,1,0,0:0:0:0:
192,192,54838,1,0,0:0:0:0:
192,192,54995,128,0,55307:0:0:0:0:
320,192,55151,1,0,0:0:0:0:
448,192,55307,128,0,55620:0:0:0:0:
64,192,55463,1,0,0:0:0:0:
320,192,55620,128,0,55932:0:0:0:0:
192,192,55620,1,0,0:0:0:0:
192,192,55932,128,0,56245:0:0:0:0:
64,192,56245,128,0,56557:0:0:0:0:
320,192,56401,1,0,0:0:0:0:
320,192,56557,128,0,56870:0:0:0:0:
192,192,56870,128,0,57338:0:0:0:0:
448,192,56870,1,0,0:0:0:0:
64,192,57182,1,0,0:0:0:0:
320,192,57495,1,0,0:0:0:0:
448,192,57651,1,0,0:0:0:0:
192,192,57807,128,0,57963:0:0:0:0:
320,192,57807,1,0,0:0:0:0:
448,192,57963,1,0,0:0:0:0:
448,192,58120,128,0,58432:0:0:0:0:
320,192,58120,1,0,0:0:0:0:
320,192,58432,128,0,58588:0:0:0:0:
192,192,58588,128,0,58901:0:0:0:0:
448,192,58745,1,0,0:0:0:0:
64,192,58901,128,0,59213:0:0:0:0:
320,192,58901,1,0,0:0:0:0:
448,192,59057,1,0,0:0:0:0:
320,192,59213,128,0,59838:0:0:0:0:
192,192,59526,1,0,0:0:0:0:
64,192,59682,1,0,0:0:0:0:
448,192,59682,1,0,0:0:0:0:
192,192,59995,1,0,0:0:0:0:
64,192,60151,1,0,0:0:0:0:
192,192,60307,128,0,60463:0:0:0:0:
320,192,60307,1,0,0:0:0:0:
448,192,60620,128,0,60932:0:0:0:0:
320,192,60620,1,0,0:0:0:0:
320,192,60932,128,0,61401:0:0:0:0:
192,192,60932,1,0,0:0:0:0:
448,192,61245,1,0,0:0:0:0:
192,192,61401,128,0,61713:0:0:0:0:
64,192,61557,1,0,0:0:0:0:
448,192,61713,128,0,63120:0:0:0:0:
64,192,61870,1,0,0:0:0:0:
320,192,62026,1,0,0:0:0:0:
64,192,62182,1,0,0:0:0:0:
320,192,62338,1,0,0:0:0:0:
192,192,62495,1,0,0:0:0:0:
320,192,62651,1,0,0:0:0:0:
64,192,62807,1,0,0:0:0:0:
320,192,62963,1,0,0:0:0:0:
192,192,63120,5,0,0:0:0:0:
64,192,63120,1,0,0:0:0:0:
64,192,63276,1,0,0:0:0:0:
320,192,63276,1,0,0:0:0:0:
448,192,63432,1,0,0:0:0:0:
192,192,63432,1,0,0:0:0:0:
448,192,63588,1,0,0:0:0:0:
320,192,63588,1,0,0:0:0:0:
320,192,63745,128,0,64213:0:0:0:0:
192,192,64370,128,0,64995:0:0:0:0:
64,192,64995,128,0,65620:0:0:0:0:
320,192,65073,1,0,0:0:0:0:
448,192,65151,1,0,0:0:0:0:
192,192,65307,1,0,0:0:0:0:
448,192,65620,1,0,0:0:0:0:
320,192,65620,1,0,0:0:0:0:
192,192,65776,1,0,0:0:0:0:
448,192,65776,1,0,0:0:0:0:
320,192,65932,1,0,0:0:0:0:
64,192,65932,1,0,0:0:0:0:
64,192,66088,1,0,0:0:0:0:
192,192,66088,1,0,0:0:0:0:
448,192,66245,128,0,66870:0:0:0:0:
320,192,66870,128,0,67495:0:0:0:0:
192,192,67495,128,0,68120:0:0:0:0:
448,192,68120,1,0,0:0:0:0:
64,192,68120,128,0,68745:0:0:0:0:
320,192,68432,1,0,0:0:0:0:
192,192,68745,1,0,0:0:0:0:
320,192,68901,1,0,0:0:0:0:
64,192,69057,1,0,0:0:0:0:
448,192,69057,128,0,69370:0:0:0:0:
192,192,69370,128,0,69682:0:0:0:0:
320,192,69682,128,0,69995:0:0:0:0:
448,192,69682,1,0,0:0:0:0:
192,192,69995,128,0,70307:0:0:0:0:
448,192,70151,1,0,0:0:0:0:
64,192,70307,1,0,0:0:0:0:
320,192,70307,1,0,0:0:0:0:
64,192,70620,128,0,71245:0:0:0:0:
448,192,70932,1,0,0:0:0:0:
192,192,71245,1,0,0:0:0:0:
320,192,71401,1,0,0:0:0:0:
448,192,71557,1,0,0:0:0:0:
64,192,71557,1,0,0:0:0:0:
320,192,71870,128,0,72182:0:0:0:0:
64,192,72182,128,0,72495:0:0:0:0:
192,192,72182,1,0,0:0:0:0:
320,192,72495,128,0,72807:0:0:0:0:
448,192,72651,1,0,0:0:0:0:
192,192,72807,128,0,73120:0:0:0:0:
64,192,72807,1,0,0:0:0:0:
448,192,73120,128,0,73745:0:0:0:0:
320,192,73432,1,0,0:0:0:0:
64,192,73745,1,0,0:0:0:0:
320,192,73901,1,0,0:0:0:0:
192,192,74057,1,0,0:0:0:0:
64,192,74057,1,0,0:0:0:0:
448,192,74213,1,0,0:0:0:0:
320,192,74370,128,0,74995:0:0:0:0:
64,192,74682,1,0,0:0:0:0:
448,192,74995,1,0,0:0:0:0:
64,192,75151,1,0,0:0:0:0:
192,192,75307,128,0,75620:0:0:0:0:
320,192,75307,1,0,0:0:0:0:
64,192,75620,128,0,76088:0:0:0:0:
448,192,75932,1,0,0:0:0:0:
192,192,76245,128,0,76713:0:0:0:0:
320,192,76401,1,0,0:0:0:0:
448,192,76557,1,0,0:0:0:0:
320,192,76870,128,0,77338:0:0:0:0:
64,192,77182,1,0,0:0:0:0:
448,192,77495,128,0,77963:0:0:0:0:
192,192,77651,1,0,0:0:0:0:
64,192,77807,1,0,0:0:0:0:
192,192,77885,1,0,0:0:0:0:
320,192,77963,1,0,0:0:0:0:
192,192,78041,1,0,0:0:0:0:
448,192,78120,1,0,0:0:0:0:
64,192,78120,128,0,78432:0:0:0:0:
320,192,78432,1,0,0:0:0:0:
192,192,78745,1,0,0:0:0:0:
448,192,78901,1,0,0:0:0:0:
192,192,79057,128,0,79370:0:0:0:0:
320,192,79057,1,0,0:0:0:0:
448,192,79370,128,0,79682:0:0:0:0:
320,192,79682,128,0,79995:0:0:0:0:
64,192,79682,1,0,0:0:0:0:
192,192,79838,1,0,0:0:0:0:
64,192,79995,128,0,80307:0:0:0:0:
192,192,80151,1,0,0:0:0:0:
320,192,80307,1,0,0:0:0:0:
448,192,80463,1,0,0:0:0:0:
192,192,80463,1,0,0:0:0:0:
320,192,80620,128,0,81245:0:0:0:0:
192,192,80932,1,0,0:0:0:0:
64,192,81245,1,0,0:0:0:0:
448,192,81401,1,0,0:0:0:0:
192,192,81557,128,0,81870:0:0:0:0:
320,192,81557,1,0,0:0:0:0:
320,192,81870,128,0,82182:0:0:0:0:
192,192,82182,128,0,82495:0:0:0:0:
64,192,82182,1,0,0:0:0:0:
448,192,82495,128,0,82807:0:0:0:0:
320,192,82651,1,0,0:0:0:0:
192,192,82807,1,0,0:0:0:0:
64,192,83120,128,0,83745:0:0:0:0:
320,192,83120,1,0,0:0:0:0:
448,192,83120,1,0,0:0:0:0:
192,192,83432,1,0,0:0:0:0:
320,192,83745,1,0,0:0:0:0:
192,192,83901,1,0,0:0:0:0:
448,192,84057,1,0,0:0:0:0:
320,192,84057,1,0,0:0:0:0:
320,192,84370,128,0,84995:0:0:0:0:
192,192,84370,1,0,0:0:0:0:
64,192,84370,1,0,0:0:0:0:
448,192,84682,1,0,0:0:0:0:
192,192,84838,1,0,0:0:0:0:
64,192,84995,1,0,0:0:0:0:
192,192,85151,1,0,0:0:0:0:
192,192,85307,128,0,85620:0:0:0:0:
448,192,85307,1,0,0:0:0:0:
448,192,85620,128,0,86245:0:0:0:0:
192,192,86088,1,0,0:0:0:0:
320,192,86245,128,0,86870:0:0:0:0:
64,192,86557,1,0,0:0:0:0:
192,192,86870,128,0,87182:0:0:0:0:
448,192,87026,1,0,0:0:0:0:
64,192,87182,128,0,87495:0:0:0:0:
320,192,87338,1,0,0:0:0:0:
192,192,87495,128,0,87807:0:0:0:0:
448,192,87807,128,0,88120:0:0:0:0:
320,192,87963,1,0,0:0:0:0:
64,192,88120,5,0,0:0:0:0:
448,192,88432,1,0,0:0:0:0:
320,192,88432,1,0,0:0:0:0:
320,192,88588,1,0,0:0:0:0:
192,192,88745,1,0,0:0:0:0:
64,192,88745,1,0,0:0:0:0:
192,192,88901,1,0,0:0:0:0:
320,192,89057,1,0,0:0:0:0:
64,192,89057,1,0,0:0:0:0:
448,192,89213,1,0,0:0:0:0:
192,192,89370,1,0,0:0:0:0:
448,192,89370,1,0,0:0:0:0:
64,192,89526,1,0,0:0:0:0:
64,192,89682,1,0,0:0:0:0:
320,192,89682,1,0,0:0:0:0:
448,192,89838,1,0,0:0:0:0:
320,192,89995,1,0,0:0:0:0:
448,192,89995,1,0,0:0:0:0:
320,192,90151,1,0,0:0:0:0:
64,192,90307,1,0,0:0:0:0:
192,192,90307,1,0,0:0:0:0:
192,192,90463,1,0,0:0:0:0:
64,192,90620,1,0,0:0:0:0:
448,192,90620,128,0,90932:0:0:0:0:
64,192,90932,1,0,0:0:0:0:
320,192,90932,1,0,0:0:0:0:
320,192,91088,1,0,0:0:0:0:
448,192,91245,1,0,0:0:0:0:
192,192,91245,1,0,0:0:0:0:
192,192,91401,1,0,0:0:0:0:
448,192,91557,1,0,0:0:0:0:
320,192,91557,1,0,0:0:0:0:
320,192,91713,1,0,0:0:0:0:
64,192,91870,1,0,0:0:0:0:
192,192,91870,1,0,0:0:0:0:
192,192,92026,1,0,0:0:0:0:
64,192,92182,1,0,0:0:0:0:
320,192,92182,1,0,0:0:0:0:
320,192,92338,1,0,0:0:0:0:
448,192,92495,1,0,0:0:0:0:
192,192,92495,1,0,0:0:0:0:
320,192,92651,1,0,0:0:0:0:
64,192,92807,1,0,0:0:0:0:
192,192,92807,1,0,0:0:0:0:
320,192,92963,1,0,0:0:0:0:
448,192,93120,1,0,0:0:0:0:
64,192,93120,128,0,93432:0:0:0:0:
192,192,93432,1,0,0:0:0:0:
448,192,93432,1,0,0:0:0:0:
192,192,93588,1,0,0:0:0:0:
64,192,93745,1,0,0:0:0:0:
320,192,93745,1,0,0:0:0:0:
320,192,93901,1,0,0:0:0:0:
64,192,94057,1,0,0:0:0:0:
192,192,94057,1,0,0:0:0:0:
192,192,94213,1,0,0:0:0:0:
448,192,94370,1,0,0:0:0:0:
320,192,94370,1,0,0:0:0:0:
320,192,94526,1,0,0:0:0:0:
192,192,94682,1,0,0:0:0:0:
448,192,94682,1,0,0:0:0:0:
64,192,94838,1,0,0:0:0:0:
192,192,94995,1,0,0:0:0:0:
320,192,94995,1,0,0:0:0:0:
448,192,95151,1,0,0:0:0:0:
64,192,95307,1,0,0:0:0:0:
192,192,95307,1,0,0:0:0:0:
320,192,95463,1,0,0:0:0:0:
64,192,95620,1,0,0:0:0:0:
448,192,95620,128,0,95932:0:0:0:0:
192,192,95932,1,0,0:0:0:0:
320,192,95932,1,0,0:0:0:0:
320,192,96088,1,0,0:0:0:0:
192,192,96245,1,0,0:0:0:0:
64,192,96245,1,0,0:0:0:0:
64,192,96401,1,0,0:0:0:0:
320,192,96557,1,0,0:0:0:0:
448,192,96557,1,0,0:0:0:0:
448,192,96713,1,0,0:0:0:0:
64,192,96870,1,0,0:0:0:0:
320,192,96870,1,0,0:0:0:0:
192,192,97026,1,0,0:0:0:0:
448,192,97182,1,0,0:0:0:0:
192,192,97182,1,0,0:0:0:0:
320,192,97338,1,0,0:0:0:0:
64,192,97495,1,0,0:0:0:0:
192,192,97495,1,0,0:0:0:0:
64,192,97651,1,0,0:0:0:0:
192,192,97729,1,0,0:0:0:0:
448,192,97807,1,0,0:0:0:0:
320,192,97807,1,0,0:0:0:0:
192,192,97963,1,0,0:0:0:0:
320,192,97963,1,0,0:0:0:0:
448,192,98120,1,0,0:0:0:0:
64,192,98120,128,0,98432:0:0:0:0:
448,192,98432,1,0,0:0:0:0:
192,192,98432,1,0,0:0:0:0:
192,192,98588,1,0,0:0:0:0:
64,192,98745,1,0,0:0:0:0:
320,192,98745,1,0,0:0:0:0:
320,192,98901,1,0,0:0:0:0:
64,192,99057,1,0,0:0:0:0:
192,192,99057,1,0,0:0:0:0:
448,192,99213,1,0,0:0:0:0:
448,192,99370,1,0,0:0:0:0:
320,192,99370,1,0,0:0:0:0:
64,192,99526,1,0,0:0:0:0:
192,192,99682,1,0,0:0:0:0:
320,192,99682,1,0,0:0:0:0:
320,192,99838,1,0,0:0:0:0:
192,192,99995,1,0,0:0:0:0:
448,192,99995,1,0,0:0:0:0:
320,192,100151,1,0,0:0:0:0:
64,192,100307,1,0,0:0:0:0:
192,192,100307,1,0,0:0:0:0:
192,192,100463,1,0,0:0:0:0:
64,192,100620,1,0,0:0:0:0:
448,192,100620,128,0,100932:0:0:0:0:
64,192,100932,1,0,0:0:0:0:
320,192,100932,1,0,0:0:0:0:
320,192,101088,1,0,0:0:0:0:
192,192,101245,1,0,0:0:0:0:
448,192,101245,1,0,0:0:0:0:
192,192,101401,1,0,0:0:0:0:
320,192,101557,1,0,0:0:0:0:
448,192,101557,1,0,0:0:0:0:
320,192,101713,1,0,0:0:0:0:
192,192,101870,1,0,0:0:0:0:
64,192,101870,1,0,0:0:0:0:
192,192,102026,1,0,0:0:0:0:
64,192,102182,1,0,0:0:0:0:
320,192,102182,1,0,0:0:0:0:
448,192,102338,1,0,0:0:0:0:
192,192,102495,1,0,0:0:0:0:
320,192,102495,1,0,0:0:0:0:
64,192,102651,1,0,0:0:0:0:
320,192,102807,1,0,0:0:0:0:
448,192,102807,1,0,0:0:0:0:
192,192,102963,1,0,0:0:0:0:
64,192,103120,128,0,103432:0:0:0:0:
448,192,103120,1,0,0:0:0:0:
192,192,103432,1,0,0:0:0:0:
320,192,103432,1,0,0:0:0:0:
192,192,103588,1,0,0:0:0:0:
448,192,103745,1,0,0:0:0:0:
320,192,103745,1,0,0:0:0:0:
448,192,103901,1,0,0:0:0:0:
64,192,104057,1,0,0:0:0:0:
192,192,104057,1,0,0:0:0:0:
64,192,104213,1,0,0:0:0:0:
192,192,104370,1,0,0:0:0:0:
448,192,104370,1,0,0:0:0:0:
320,192,104526,1,0,0:0:0:0:
320,192,104682,1,0,0:0:0:0:
64,192,104682,1,0,0:0:0:0:
192,192,104838,1,0,0:0:0:0:
320,192,104995,1,0,0:0:0:0:
448,192,104995,1,0,0:0:0:0:
192,192,105151,1,0,0:0:0:0:
192,192,105307,1,0,0:0:0:0:
64,192,105307,1,0,0:0:0:0:
320,192,105463,1,0,0:0:0:0:
448,192,105620,128,0,105932:0:0:0:0:
64,192,105620,1,0,0:0:0:0:
320,192,105932,1,0,0:0:0:0:
64,192,105932,1,0,0:0:0:0:
320,192,106088,1,0,0:0:0:0:
192,192,106245,1,0,0:0:0:0:
448,192,106245,1,0,0:0:0:0:
192,192,106401,1,0,0:0:0:0:
320,192,106557,1,0,0:0:0:0:
448,192,106557,1,0,0:0:0:0:
64,192,106713,1,0,0:0:0:0:
192,192,106870,1,0,0:0:0:0:
64,192,106870,1,0,0:0:0:0:
448,192,107026,1,0,0:0:0:0:
320,192,107104,1,0,0:0:0:0:
192,192,107182,1,0,0:0:0:0:
64,192,107182,1,0,0:0:0:0:
320,192,107338,1,0,0:0:0:0:
448,192,107338,1,0,0:0:0:0:
64,192,107495,1,0,0:0:0:0:
448,192,107651,1,0,0:0:0:0:
320,192,107729,1,0,0:0:0:0:
64,192,107807,1,0,0:0:0:0:
192,192,107885,1,0,0:0:0:0:
320,192,107963,1,0,0:0:0:0:
64,192,108120,1,0,0:0:0:0:
448,192,108120,128,0,108432:0:0:0:0:
64,192,108432,1,0,0:0:0:0:
192,192,108432,1,0,0:0:0:0:
192,192,108588,1,0,0:0:0:0:
320,192,108745,1,0,0:0:0:0:
448,192,108745,1,0,0:0:0:0:
320,192,108901,1,0,0:0:0:0:
192,192,109057,1,0,0:0:0:0:
448,192,109057,1,0,0:0:0:0:
64,192,109213,1,0,0:0:0:0:
320,192,109370,1,0,0:0:0:0:
64,192,109370,1,0,0:0:0:0:
448,192,109526,1,0,0:0:0:0:
448,192,109682,1,0,0:0:0:0:
192,192,109682,1,0,0:0:0:0:
64,192,109838,1,0,0:0:0:0:
192,192,109995,1,0,0:0:0:0:
64,192,109995,1,0,0:0:0:0:
192,192,110151,1,0,0:0:0:0:
448,192,110307,1,0,0:0:0:0:
320,192,110307,1,0,0:0:0:0:
320,192,110463,1,0,0:0:0:0:
448,192,110620,1,0,0:0:0:0:
64,192,110620,128,0,110932:0:0:0:0:
448,192,110932,1,0,0:0:0:0:
192,192,110932,1,0,0:0:0:0:
192,192,111088,1,0,0:0:0:0:
64,192,111245,1,0,0:0:0:0:
320,192,111245,1,0,0:0:0:0:
320,192,111401,1,0,0:0:0:0:
64,192,111557,1,0,0:0:0:0:
192,192,111557,1,0,0:0:0:0:
192,192,111713,1,0,0:0:0:0:
448,192,111870,1,0,0:0:0:0:
320,192,111870,1,0,0:0:0:0:
320,192,112026,1,0,0:0:0:0:
448,192,112182,1,0,0:0:0:0:
192,192,112182,1,0,0:0:0:0:
192,192,112338,1,0,0:0:0:0:
64,192,112495,1,0,0:0:0:0:
320,192,112495,1,0,0:0:0:0:
192,192,112651,1,0,0:0:0:0:
448,192,112807,1,0,0:0:0:0:
320,192,112807,1,0,0:0:0:0:
192,192,112963,1,0,0:0:0:0:
64,192,113120,1,0,0:0:0:0:
448,192,113120,128,0,113432:0:0:0:0:
320,192,113432,1,0,0:0:0:0:
64,192,113432,1,0,0:0:0:0:
320,192,113588,1,0,0:0:0:0:
448,192,113745,1,0,0:0:0:0:
192,192,113745,1,0,0:0:0:0:
192,192,113901,1,0,0:0:0:0:
448,192,114057,1,0,0:0:0:0:
320,192,114057,1,0,0:0:0:0:
320,192,114213,1,0,0:0:0:0:
64,192,114370,1,0,0:0:0:0:
192,192,114370,1,0,0:0:0:0:
192,192,114526,1,0,0:0:0:0:
320,192,114682,1,0,0:0:0:0:
64,192,114682,1,0,0:0:0:0:
448,192,114838,1,0,0:0:0:0:
320,192,114995,1,0,0:0:0:0:
192,192,114995,1,0,0:0:0:0:
64,192,115151,1,0,0:0:0:0:
448,192,115307,1,0,0:0:0:0:
320,192,115307,1,0,0:0:0:0:
192,192,115463,1,0,0:0:0:0:
448,192,115620,1,0,0:0:0:0:
64,192,115620,128,0,115932:0:0:0:0:
320,192,115932,1,0,0:0:0:0:
192,192,115932,1,0,0:0:0:0:
192,192,116088,1,0,0:0:0:0:
320,192,116245,1,0,0:0:0:0:
448,192,116245,1,0,0:0:0:0:
448,192,116401,1,0,0:0:0:0:
192,192,116557,1,0,0:0:0:0:
64,192,116557,1,0,0:0:0:0:
64,192,116713,1,0,0:0:0:0:
448,192,116870,1,0,0:0:0:0:
192,192,116870,1,0,0:0:0:0:
320,192,117104,1,0,0:0:0:0:
64,192,117182,1,0,0:0:0:0:
192,192,117182,1,0,0:0:0:0:
192,192,117338,1,0,0:0:0:0:
320,192,117338,1,0,0:0:0:0:
448,192,117495,1,0,0:0:0:0:
320,192,117495,1,0,0:0:0:0:
320,192,117729,1,0,0:0:0:0:
64,192,117807,1,0,0:0:0:0:
192,192,117807,1,0,0:0:0:0:
320,192,117963,1,0,0:0:0:0:
64,192,118120,1,0,0:0:0:0:
448,192,118120,128,0,118432:0:0:0:0:
64,192,118432,1,0,0:0:0:0:
320,192,118432,1,0,0:0:0:0:
320,192,118588,1,0,0:0:0:0:
448,192,118745,1,0,0:0:0:0:
192,192,118745,1,0,0:0:0:0:
192,192,118901,1,0,0:0:0:0:
448,192,119057,1,0,0:0:0:0:
320,192,119057,1,0,0:0:0:0:
64,192,119213,1,0,0:0:0:0:
64,192,119370,1,0,0:0:0:0:
192,192,119370,1,0,0:0:0:0:
448,192,119526,1,0,0:0:0:0:
320,192,119682,1,0,0:0:0:0:
192,192,119682,1,0,0:0:0:0:
192,192,119838,1,0,0:0:0:0:
320,192,119995,1,0,0:0:0:0:
64,192,119995,1,0,0:0:0:0:
192,192,120151,1,0,0:0:0:0:
448,192,120307,1,0,0:0:0:0:
320,192,120307,1,0,0:0:0:0:
320,192,120463,1,0,0:0:0:0:
448,192,120620,1,0,0:0:0:0:
64,192,120620,128,0,120932:0:0:0:0:
448,192,120932,1,0,0:0:0:0:
192,192,120932,1,0,0:0:0:0:
192,192,121088,1,0,0:0:0:0:
320,192,121245,1,0,0:0:0:0:
64,192,121245,1,0,0:0:0:0:
320,192,121401,1,0,0:0:0:0:
192,192,121557,1,0,0:0:0:0:
64,192,121557,1,0,0:0:0:0:
192,192,121713,1,0,0:0:0:0:
320,192,121870,1,0,0:0:0:0:
448,192,121870,1,0,0:0:0:0:
320,192,122026,1,0,0:0:0:0:
448,192,122182,1,0,0:0:0:0:
192,192,122182,1,0,0:0:0:0:
64,192,122338,1,0,0:0:0:0:
320,192,122495,1,0,0:0:0:0:
192,192,122495,1,0,0:0:0:0:
448,192,122651,1,0,0:0:0:0:
192,192,122807,1,0,0:0:0:0:
64,192,122807,1,0,0:0:0:0:
320,192,122963,1,0,0:0:0:0:
448,192,123120,128,0,123432:0:0:0:0:
64,192,123120,1,0,0:0:0:0:
320,192,123432,1,0,0:0:0:0:
192,192,123432,1,0,0:0:0:0:
320,192,123588,1,0,0:0:0:0:
64,192,123745,1,0,0:0:0:0:
192,192,123745,1,0,0:0:0:0:
64,192,123901,1,0,0:0:0:0:
448,192,124057,1,0,0:0:0:0:
320,192,124057,1,0,0:0:0:0:
448,192,124213,1,0,0:0:0:0:
320,192,124370,1,0,0:0:0:0:
64,192,124370,1,0,0:0:0:0:
192,192,124526,1,0,0:0:0:0:
192,192,124682,1,0,0:0:0:0:
448,192,124682,1,0,0:0:0:0:
320,192,124838,1,0,0:0:0:0:
192,192,124995,1,0,0:0:0:0:
64,192,124995,1,0,0:0:0:0:
320,192,125151,1,0,0:0:0:0:
320,192,125307,1,0,0:0:0:0:
448,192,125307,1,0,0:0:0:0:
192,192,125463,1,0,0:0:0:0:
64,192,125620,128,0,125932:0:0:0:0:
448,192,125620,1,0,0:0:0:0:
192,192,125932,1,0,0:0:0:0:
448,192,125932,1,0,0:0:0:0:
192,192,126088,1,0,0:0:0:0:
320,192,126245,1,0,0:0:0:0:
64,192,126245,1,0,0:0:0:0:
320,192,126401,1,0,0:0:0:0:
192,192,126557,1,0,0:0:0:0:
64,192,126557,1,0,0:0:0:0:
448,192,126713,1,0,0:0:0:0:
320,192,126870,1,0,0:0:0:0:
448,192,126870,1,0,0:0:0:0:
192,192,127104,1,0,0:0:0:0:
320,192,127182,1,0,0:0:0:0:
448,192,127182,1,0,0:0:0:0:
320,192,127338,1,0,0:0:0:0:
448,192,127495,1,0,0:0:0:0:
64,192,127651,1,0,0:0:0:0:
192,192,127729,1,0,0:0:0:0:
448,192,127807,1,0,0:0:0:0:
320,192,127963,1,0,0:0:0:0:
64,192,128120,128,0,129838:0:0:0:0:
448,192,128120,128,0,135620:0:0:0:0:
