osu file format v14

[General]
AudioFilename: audio.mp3
AudioLeadIn: 0
PreviewTime: 63745
Countdown: 0
SampleSet: Soft
StackLeniency: 0.7
Mode: 3
LetterboxInBreaks: 0
SpecialStyle: 0
WidescreenStoryboard: 1

[Editor]
DistanceSpacing: 2.2
BeatDivisor: 2
GridSize: 32
TimelineZoom: 1.1

[Metadata]
Title:Colorful
TitleUnicode:カラフル
Artist:HAG
ArtistUnicode:H△G
Creator:Whats Skill
Version:EZ
Source:
Tags:japanese female vocalist jpop j-pop cut edit short version everlasting night of teenage girls colorful colourful Umo-
BeatmapID:2404971
BeatmapSetID:1139483

[Difficulty]
HPDrainRate:6
CircleSize:4
OverallDifficulty:7
ApproachRate:5
SliderMultiplier:1.4
SliderTickRate:1

[Events]
//Background and Video events
0,0,"hatsune-miku-aqua-hair-smiling-dress-cute-anime.jpg",0,0
//Break Periods
//Storyboard Layer 0 (Background)
//Storyboard Layer 1 (Fail)
//Storyboard Layer 2 (Pass)
//Storyboard Layer 3 (Foreground)
//Storyboard Layer 4 (Overlay)
//Storyboard Sound Samples

[TimingPoints]
620,312.5,4,2,0,42,1,0
68120,-100,4,2,0,52,0,1
85620,-100,4,2,0,52,0,0
88120,-100,4,2,0,52,0,1
106870,-100,4,2,0,52,0,0
108120,-100,4,2,0,52,0,1
128120,-100,4,2,0,42,0,0

[Colours]
Combo1 : 0,128,192
Combo2 : 0,255,255

[HitObjects]
64,192,620,5,0,0:0:0:0:
192,192,620,1,0,0:0:0:0:
320,192,932,1,0,0:0:0:0:
448,192,1245,1,0,0:0:0:0:
192,192,1401,1,0,0:0:0:0:
448,192,1713,1,0,0:0:0:0:
64,192,2026,1,0,0:0:0:0:
192,192,2182,1,0,0:0:0:0:
320,192,2338,1,0,0:0:0:0:
64,192,2495,1,0,0:0:0:0:
192,192,3120,1,0,0:0:0:0:
320,192,3120,1,0,0:0:0:0:
64,192,3276,1,0,0:0:0:0:
64,192,4057,1,0,0:0:0:0:
64,192,4682,1,0,0:0:0:0:
64,192,5307,1,0,0:0:0:0:
192,192,5620,1,0,0:0:0:0:
320,192,5620,1,0,0:0:0:0:
448,192,5776,1,0,0:0:0:0:
448,192,6557,1,0,0:0:0:0:
448,192,7182,1,0,0:0:0:0:
448,192,7807,1,0,0:0:0:0:
192,192,8120,1,0,0:0:0:0:
320,192,8120,1,0,0:0:0:0:
64,192,8276,1,0,0:0:0:0:
64,192,9057,1,0,0:0:0:0:
64,192,9682,1,0,0:0:0:0:
64,192,10307,1,0,0:0:0:0:
192,192,10620,1,0,0:0:0:0:
320,192,10620,1,0,0:0:0:0:
448,192,10776,1,0,0:0:0:0:
64,192,11088,1,0,0:0:0:0:
192,192,11557,1,0,0:0:0:0:
320,192,12026,1,0,0:0:0:0:
448,192,12495,1,0,0:0:0:0:
448,192,13120,1,0,0:0:0:0:
64,192,13120,1,0,0:0:0:0:
448,192,13432,1,0,0:0:0:0:
320,192,13745,1,0,0:0:0:0:
448,192,13745,1,0,0:0:0:0:
192,192,14057,1,0,0:0:0:0:
192,192,14370,1,0,0:0:0:0:
448,192,14370,1,0,0:0:0:0:
320,192,14682,1,0,0:0:0:0:
64,192,14995,1,0,0:0:0:0:
320,192,14995,1,0,0:0:0:0:
448,192,15307,1,0,0:0:0:0:
64,192,15620,1,0,0:0:0:0:
448,192,15620,1,0,0:0:0:0:
192,192,15932,1,0,0:0:0:0:
64,192,16245,1,0,0:0:0:0:
192,192,16245,1,0,0:0:0:0:
320,192,16557,1,0,0:0:0:0:
64,192,16870,1,0,0:0:0:0:
320,192,16870,1,0,0:0:0:0:
192,192,17182,1,0,0:0:0:0:
192,192,17495,1,0,0:0:0:0:
448,192,17495,1,0,0:0:0:0:
64,192,17807,1,0,0:0:0:0:
448,192,18120,1,0,0:0:0:0:
64,192,18120,1,0,0:0:0:0:
320,192,18432,1,0,0:0:0:0:
448,192,18745,1,0,0:0:0:0:
320,192,18745,1,0,0:0:0:0:
192,192,19057,1,0,0:0:0:0:
320,192,19370,1,0,0:0:0:0:
192,192,19370,1,0,0:0:0:0:
64,192,19682,1,0,0:0:0:0:
192,192,19995,1,0,0:0:0:0:
64,192,19995,1,0,0:0:0:0:
448,192,20307,1,0,0:0:0:0:
448,192,20620,1,0,0:0:0:0:
64,192,20620,1,0,0:0:0:0:
320,192,20932,1,0,0:0:0:0:
192,192,21245,1,0,0:0:0:0:
320,192,21245,1,0,0:0:0:0:
320,192,21557,1,0,0:0:0:0:
64,192,21713,1,0,0:0:0:0:
448,192,21713,1,0,0:0:0:0:
192,192,22182,1,0,0:0:0:0:
64,192,22495,1,0,0:0:0:0:
320,192,22807,1,0,0:0:0:0:
448,192,23120,1,0,0:0:0:0:
320,192,23432,1,0,0:0:0:0:
192,192,23588,1,0,0:0:0:0:
320,192,23901,1,0,0:0:0:0:
448,192,24213,128,0,24838:0:0:0:0:
192,192,25307,1,0,0:0:0:0:
64,192,25620,1,0,0:0:0:0:
192,192,25932,1,0,0:0:0:0:
320,192,26088,1,0,0:0:0:0:
448,192,26401,1,0,0:0:0:0:
64,192,26713,128,0,27338:0:0:0:0:
64,192,27807,1,0,0:0:0:0:
192,192,28120,1,0,0:0:0:0:
448,192,28432,1,0,0:0:0:0:
320,192,28588,1,0,0:0:0:0:
192,192,28901,1,0,0:0:0:0:
448,192,29213,128,0,29682:0:0:0:0:
192,192,29682,1,0,0:0:0:0:
320,192,29995,1,0,0:0:0:0:
192,192,30307,1,0,0:0:0:0:
448,192,30620,1,0,0:0:0:0:
320,192,30932,1,0,0:0:0:0:
192,192,31245,1,0,0:0:0:0:
64,192,31401,1,0,0:0:0:0:
320,192,31713,1,0,0:0:0:0:
192,192,31870,128,0,32182:0:0:0:0:
448,192,32495,128,0,32807:0:0:0:0:
64,192,33120,1,0,0:0:0:0:
320,192,33432,1,0,0:0:0:0:
448,192,33588,1,0,0:0:0:0:
320,192,33901,1,0,0:0:0:0:
64,192,34213,128,0,34838:0:0:0:0:
192,192,35307,1,0,0:0:0:0:
448,192,35620,1,0,0:0:0:0:
192,192,35932,1,0,0:0:0:0:
64,192,36088,1,0,0:0:0:0:
320,192,36401,1,0,0:0:0:0:
448,192,36713,128,0,37338:0:0:0:0:
320,192,37807,1,0,0:0:0:0:
192,192,38120,1,0,0:0:0:0:
320,192,38588,1,0,0:0:0:0:
448,192,38901,1,0,0:0:0:0:
192,192,39213,128,0,39682:0:0:0:0:
448,192,39682,1,0,0:0:0:0:
320,192,39995,1,0,0:0:0:0:
448,192,40307,1,0,0:0:0:0:
320,192,40620,128,0,41245:0:0:0:0:
192,192,41713,1,0,0:0:0:0:
320,192,41713,1,0,0:0:0:0:
320,192,42182,1,0,0:0:0:0:
448,192,42495,1,0,0:0:0:0:
192,192,42807,1,0,0:0:0:0:
320,192,43120,1,0,0:0:0:0:
64,192,43432,1,0,0:0:0:0:
192,192,43745,1,0,0:0:0:0:
320,192,44057,1,0,0:0:0:0:
448,192,44370,1,0,0:0:0:0:
320,192,44682,1,0,0:0:0:0:
320,192,44995,1,0,0:0:0:0:
192,192,45307,1,0,0:0:0:0:
64,192,45620,1,0,0:0:0:0:
192,192,45932,1,0,0:0:0:0:
448,192,46245,1,0,0:0:0:0:
320,192,46557,1,0,0:0:0:0:
320,192,46870,128,0,47495:0:0:0:0:
192,192,47807,1,0,0:0:0:0:
64,192,48120,1,0,0:0:0:0:
192,192,48432,1,0,0:0:0:0:
448,192,48745,1,0,0:0:0:0:
448,192,49057,1,0,0:0:0:0:
192,192,49370,1,0,0:0:0:0:
320,192,49682,1,0,0:0:0:0:
320,192,49995,1,0,0:0:0:0:
448,192,50307,1,0,0:0:0:0:
448,192,50620,128,0,51245:0:0:0:0:
320,192,50620,1,0,0:0:0:0:
192,192,51245,1,0,0:0:0:0:
192,192,51713,1,0,0:0:0:0:
320,192,51713,1,0,0:0:0:0:
320,192,52182,1,0,0:0:0:0:
192,192,52495,1,0,0:0:0:0:
320,192,52807,1,0,0:0:0:0:
448,192,53120,1,0,0:0:0:0:
64,192,53432,1,0,0:0:0:0:
192,192,53745,1,0,0:0:0:0:
320,192,54057,1,0,0:0:0:0:
448,192,54370,1,0,0:0:0:0:
320,192,54682,1,0,0:0:0:0:
320,192,54995,1,0,0:0:0:0:
448,192,55307,1,0,0:0:0:0:
448,192,55620,1,0,0:0:0:0:
64,192,55932,1,0,0:0:0:0:
192,192,56245,1,0,0:0:0:0:
64,192,56557,1,0,0:0:0:0:
320,192,56870,128,0,57495:0:0:0:0:
64,192,57807,1,0,0:0:0:0:
320,192,58120,1,0,0:0:0:0:
320,192,58432,1,0,0:0:0:0:
192,192,58588,1,0,0:0:0:0:
64,192,58901,1,0,0:0:0:0:
448,192,59213,1,0,0:0:0:0:
448,192,59682,1,0,0:0:0:0:
320,192,59995,1,0,0:0:0:0:
192,192,60307,1,0,0:0:0:0:
448,192,60620,1,0,0:0:0:0:
192,192,60932,1,0,0:0:0:0:
320,192,61245,1,0,0:0:0:0:
192,192,61401,1,0,0:0:0:0:
448,192,61713,1,0,0:0:0:0:
320,192,61870,1,0,0:0:0:0:
448,192,62182,1,0,0:0:0:0:
192,192,62495,1,0,0:0:0:0:
320,192,62807,1,0,0:0:0:0:
192,192,63120,1,0,0:0:0:0:
320,192,63120,1,0,0:0:0:0:
320,192,63432,1,0,0:0:0:0:
320,192,63745,1,0,0:0:0:0:
192,192,64370,1,0,0:0:0:0:
64,192,64995,1,0,0:0:0:0:
448,192,65620,1,0,0:0:0:0:
320,192,65620,1,0,0:0:0:0:
448,192,65932,1,0,0:0:0:0:
448,192,66245,1,0,0:0:0:0:
320,192,66870,1,0,0:0:0:0:
192,192,67495,1,0,0:0:0:0:
448,192,68120,128,0,68745:0:0:0:0:
64,192,68120,1,0,0:0:0:0:
192,192,69057,1,0,0:0:0:0:
320,192,69370,1,0,0:0:0:0:
448,192,69682,1,0,0:0:0:0:
192,192,69995,1,0,0:0:0:0:
64,192,70307,1,0,0:0:0:0:
320,192,70620,128,0,71245:0:0:0:0:
448,192,71557,1,0,0:0:0:0:
64,192,71870,1,0,0:0:0:0:
192,192,72182,1,0,0:0:0:0:
320,192,72495,1,0,0:0:0:0:
192,192,72807,1,0,0:0:0:0:
448,192,73120,128,0,73745:0:0:0:0:
192,192,74057,1,0,0:0:0:0:
320,192,74370,128,0,74995:0:0:0:0:
192,192,75307,1,0,0:0:0:0:
64,192,75620,1,0,0:0:0:0:
320,192,75932,1,0,0:0:0:0:
192,192,76245,1,0,0:0:0:0:
448,192,76557,1,0,0:0:0:0:
320,192,76870,1,0,0:0:0:0:
192,192,77182,1,0,0:0:0:0:
448,192,77495,1,0,0:0:0:0:
320,192,77807,1,0,0:0:0:0:
64,192,78120,128,0,78745:0:0:0:0:
192,192,79057,1,0,0:0:0:0:
448,192,79370,1,0,0:0:0:0:
320,192,79682,1,0,0:0:0:0:
192,192,79995,1,0,0:0:0:0:
320,192,80307,1,0,0:0:0:0:
448,192,80620,128,0,81245:0:0:0:0:
192,192,81557,1,0,0:0:0:0:
64,192,81870,1,0,0:0:0:0:
192,192,82182,1,0,0:0:0:0:
320,192,82495,1,0,0:0:0:0:
448,192,82807,1,0,0:0:0:0:
192,192,83120,128,0,83745:0:0:0:0:
320,192,84057,1,0,0:0:0:0:
448,192,84370,128,0,84995:0:0:0:0:
192,192,85307,1,0,0:0:0:0:
320,192,85620,128,0,86245:0:0:0:0:
192,192,86557,1,0,0:0:0:0:
64,192,86870,128,0,87182:0:0:0:0:
320,192,87495,1,0,0:0:0:0:
192,192,87807,1,0,0:0:0:0:
448,192,88120,1,0,0:0:0:0:
64,192,88120,1,0,0:0:0:0:
64,192,88432,1,0,0:0:0:0:
64,192,88745,1,0,0:0:0:0:
192,192,88745,1,0,0:0:0:0:
320,192,89057,1,0,0:0:0:0:
64,192,89370,1,0,0:0:0:0:
320,192,89370,1,0,0:0:0:0:
192,192,89682,1,0,0:0:0:0:
192,192,89995,1,0,0:0:0:0:
448,192,89995,1,0,0:0:0:0:
448,192,90307,1,0,0:0:0:0:
64,192,90620,1,0,0:0:0:0:
448,192,90620,1,0,0:0:0:0:
320,192,90932,1,0,0:0:0:0:
320,192,91245,1,0,0:0:0:0:
448,192,91245,1,0,0:0:0:0:
192,192,91557,1,0,0:0:0:0:
192,192,91870,1,0,0:0:0:0:
448,192,91870,1,0,0:0:0:0:
320,192,92182,1,0,0:0:0:0:
64,192,92495,1,0,0:0:0:0:
320,192,92495,1,0,0:0:0:0:
448,192,92807,1,0,0:0:0:0:
448,192,93120,1,0,0:0:0:0:
64,192,93120,1,0,0:0:0:0:
192,192,93432,1,0,0:0:0:0:
192,192,93745,1,0,0:0:0:0:
64,192,93745,1,0,0:0:0:0:
320,192,94057,1,0,0:0:0:0:
320,192,94370,1,0,0:0:0:0:
192,192,94370,1,0,0:0:0:0:
448,192,94682,1,0,0:0:0:0:
448,192,94995,1,0,0:0:0:0:
320,192,94995,1,0,0:0:0:0:
64,192,95307,1,0,0:0:0:0:
448,192,95620,1,0,0:0:0:0:
64,192,95620,1,0,0:0:0:0:
192,192,95932,1,0,0:0:0:0:
192,192,96245,1,0,0:0:0:0:
320,192,96245,1,0,0:0:0:0:
448,192,96557,1,0,0:0:0:0:
64,192,96870,1,0,0:0:0:0:
448,192,96870,1,0,0:0:0:0:
320,192,97182,1,0,0:0:0:0:
192,192,97495,1,0,0:0:0:0:
320,192,97495,1,0,0:0:0:0:
448,192,97807,1,0,0:0:0:0:
64,192,98120,1,0,0:0:0:0:
448,192,98120,1,0,0:0:0:0:
320,192,98432,1,0,0:0:0:0:
320,192,98745,1,0,0:0:0:0:
64,192,98745,1,0,0:0:0:0:
192,192,99057,1,0,0:0:0:0:
192,192,99370,1,0,0:0:0:0:
448,192,99370,1,0,0:0:0:0:
64,192,99682,1,0,0:0:0:0:
320,192,99995,1,0,0:0:0:0:
64,192,99995,1,0,0:0:0:0:
192,192,100307,1,0,0:0:0:0:
448,192,100620,1,0,0:0:0:0:
64,192,100620,1,0,0:0:0:0:
320,192,100932,1,0,0:0:0:0:
320,192,101245,1,0,0:0:0:0:
192,192,101245,1,0,0:0:0:0:
64,192,101557,1,0,0:0:0:0:
192,192,101870,1,0,0:0:0:0:
64,192,101870,1,0,0:0:0:0:
320,192,102182,1,0,0:0:0:0:
320,192,102495,1,0,0:0:0:0:
448,192,102495,1,0,0:0:0:0:
64,192,102807,1,0,0:0:0:0:
64,192,103120,1,0,0:0:0:0:
448,192,103120,1,0,0:0:0:0:
192,192,103432,1,0,0:0:0:0:
64,192,103745,1,0,0:0:0:0:
192,192,103745,1,0,0:0:0:0:
320,192,104057,1,0,0:0:0:0:
192,192,104370,1,0,0:0:0:0:
320,192,104370,1,0,0:0:0:0:
448,192,104682,1,0,0:0:0:0:
320,192,104995,1,0,0:0:0:0:
448,192,104995,1,0,0:0:0:0:
64,192,105307,1,0,0:0:0:0:
64,192,105620,1,0,0:0:0:0:
448,192,105620,1,0,0:0:0:0:
320,192,105932,1,0,0:0:0:0:
320,192,106245,1,0,0:0:0:0:
192,192,106245,1,0,0:0:0:0:
448,192,106557,1,0,0:0:0:0:
448,192,106870,1,0,0:0:0:0:
64,192,106870,1,0,0:0:0:0:
192,192,107182,1,0,0:0:0:0:
64,192,107495,1,0,0:0:0:0:
192,192,107495,1,0,0:0:0:0:
448,192,107807,1,0,0:0:0:0:
448,192,108120,1,0,0:0:0:0:
64,192,108120,1,0,0:0:0:0:
320,192,108432,1,0,0:0:0:0:
320,192,108745,1,0,0:0:0:0:
448,192,108745,1,0,0:0:0:0:
192,192,109057,1,0,0:0:0:0:
192,192,109370,1,0,0:0:0:0:
448,192,109370,1,0,0:0:0:0:
320,192,109682,1,0,0:0:0:0:
64,192,109995,1,0,0:0:0:0:
320,192,109995,1,0,0:0:0:0:
448,192,110307,1,0,0:0:0:0:
64,192,110620,1,0,0:0:0:0:
448,192,110620,1,0,0:0:0:0:
192,192,110932,1,0,0:0:0:0:
64,192,111245,1,0,0:0:0:0:
192,192,111245,1,0,0:0:0:0:
320,192,111557,1,0,0:0:0:0:
64,192,111870,1,0,0:0:0:0:
320,192,111870,1,0,0:0:0:0:
192,192,112182,1,0,0:0:0:0:
192,192,112495,1,0,0:0:0:0:
448,192,112495,1,0,0:0:0:0:
64,192,112807,1,0,0:0:0:0:
448,192,113120,1,0,0:0:0:0:
64,192,113120,1,0,0:0:0:0:
320,192,113432,1,0,0:0:0:0:
448,192,113745,1,0,0:0:0:0:
320,192,113745,1,0,0:0:0:0:
192,192,114057,1,0,0:0:0:0:
320,192,114370,1,0,0:0:0:0:
192,192,114370,1,0,0:0:0:0:
64,192,114682,1,0,0:0:0:0:
192,192,114995,1,0,0:0:0:0:
64,192,114995,1,0,0:0:0:0:
320,192,115307,1,0,0:0:0:0:
448,192,115620,1,0,0:0:0:0:
64,192,115620,1,0,0:0:0:0:
192,192,115932,1,0,0:0:0:0:
192,192,116245,1,0,0:0:0:0:
320,192,116245,1,0,0:0:0:0:
64,192,116557,1,0,0:0:0:0:
64,192,116870,1,0,0:0:0:0:
448,192,116870,1,0,0:0:0:0:
320,192,117182,1,0,0:0:0:0:
320,192,117495,1,0,0:0:0:0:
448,192,117495,1,0,0:0:0:0:
64,192,117807,1,0,0:0:0:0:
448,192,118120,1,0,0:0:0:0:
64,192,118120,1,0,0:0:0:0:
192,192,118432,1,0,0:0:0:0:
64,192,118745,1,0,0:0:0:0:
192,192,118745,1,0,0:0:0:0:
320,192,119057,1,0,0:0:0:0:
64,192,119370,1,0,0:0:0:0:
320,192,119370,1,0,0:0:0:0:
448,192,119682,1,0,0:0:0:0:
192,192,119995,1,0,0:0:0:0:
448,192,119995,1,0,0:0:0:0:
320,192,120307,1,0,0:0:0:0:
64,192,120620,1,0,0:0:0:0:
448,192,120620,1,0,0:0:0:0:
320,192,120932,1,0,0:0:0:0:
320,192,121245,1,0,0:0:0:0:
448,192,121245,1,0,0:0:0:0:
192,192,121557,1,0,0:0:0:0:
192,192,121870,1,0,0:0:0:0:
448,192,121870,1,0,0:0:0:0:
320,192,122182,1,0,0:0:0:0:
64,192,122495,1,0,0:0:0:0:
320,192,122495,1,0,0:0:0:0:
448,192,122807,1,0,0:0:0:0:
448,192,123120,1,0,0:0:0:0:
64,192,123120,1,0,0:0:0:0:
192,192,123432,1,0,0:0:0:0:
192,192,123745,1,0,0:0:0:0:
64,192,123745,1,0,0:0:0:0:
320,192,124057,1,0,0:0:0:0:
320,192,124370,1,0,0:0:0:0:
192,192,124370,1,0,0:0:0:0:
448,192,124682,1,0,0:0:0:0:
448,192,124995,1,0,0:0:0:0:
320,192,124995,1,0,0:0:0:0:
192,192,125307,1,0,0:0:0:0:
448,192,125620,1,0,0:0:0:0:
64,192,125620,1,0,0:0:0:0:
192,192,125932,1,0,0:0:0:0:
192,192,126245,1,0,0:0:0:0:
320,192,126245,1,0,0:0:0:0:
64,192,126557,1,0,0:0:0:0:
64,192,126870,1,0,0:0:0:0:
448,192,126870,1,0,0:0:0:0:
192,192,127182,1,0,0:0:0:0:
192,192,127495,1,0,0:0:0:0:
320,192,127495,1,0,0:0:0:0:
320,192,127807,1,0,0:0:0:0:
448,192,128120,128,0,129838:0:0:0:0:
