osu file format v14

[General]
AudioFilename: audio.mp3
AudioLeadIn: 0
PreviewTime: 65575
Countdown: 0
SampleSet: Soft
StackLeniency: 0.7
Mode: 0
LetterboxInBreaks: 0
WidescreenStoryboard: 0

[Editor]
DistanceSpacing: 0.9
BeatDivisor: 4
GridSize: 4
TimelineZoom: 2.5

[Metadata]
Title:Colorful
TitleUnicode:カラフル
Artist:HAG
ArtistUnicode:H△G
Creator:Sotarks
Version:brotarks' Extreme
Source:
Tags:akitoshi fieryrage corinn -laura- nikakis snownino_ miraclee nevo reform kujinn armin a_r_m_i_n smokelind onlybiscuit brotarks lami taeyang kroytz japanese female vocalist jpop j-pop cut edit short version everlasting night of teenage girls ayyri eiri- colourful
BeatmapID:1947084
BeatmapSetID:931452

[Difficulty]
HPDrainRate:5.2
CircleSize:4
OverallDifficulty:9.4
ApproachRate:9.4
SliderMultiplier:1.92
SliderTickRate:1

[Events]
//Background and Video events
0,0,"bg.jpg",0,0
//Break Periods
2,3476,5080
2,5976,7580
//Storyboard Layer 0 (Background)
//Storyboard Layer 1 (Fail)
//Storyboard Layer 2 (Pass)
//Storyboard Layer 3 (Foreground)
//Storyboard Sound Samples

[TimingPoints]
620,312.5,4,2,22,42,1,0
620,-108.695652173913,4,2,22,42,0,0
3120,-108.695652173913,4,2,22,52,0,0
8432,-108.695652173913,4,2,22,42,0,0
10620,-108.695652173913,4,2,22,52,0,0
13120,-98.0392156862745,4,2,22,72,0,0
23120,-108.695652173913,4,2,22,62,0,0
43120,-121.951219512195,4,2,22,62,0,0
50620,-108.695652173913,4,2,22,62,0,0
63120,-108.695652173913,4,2,22,72,0,0
63823,-108.695652173913,4,2,22,42,0,0
64995,-108.695652173913,4,2,22,62,0,0
65620,-108.695652173913,4,2,22,72,0,0
66870,-121.951219512195,4,2,22,52,0,0
68120,-98.0392156862745,4,2,22,72,0,0
85541,-98.0392156862745,4,2,22,5,0,0
85620,-108.695652173913,4,2,22,62,0,0
88120,-98.0392156862745,4,2,22,72,0,0
128120,-833.333333333333,4,2,22,62,0,0
128198,-833.333333333333,4,2,22,52,0,0
130620,-833.333333333333,4,2,22,42,0,0
131870,-833.333333333333,4,2,22,32,0,0
134370,-833.333333333333,4,2,22,22,0,0
135620,-833.333333333333,4,2,22,12,0,0

[Colours]
Combo1 : 70,163,255
Combo2 : 94,255,163
Combo3 : 255,132,211
Combo4 : 231,255,60

[HitObjects]
389,72,620,5,0,1:0:0:0:
168,250,932,2,0,P|153:183|140:151,1,88.3199970351563,8|0,0:0|1:0,0:0:0:0:
112,144,1166,1,0,1:0:0:0:
112,144,1245,1,8,0:0:0:0:
236,42,1401,2,0,P|285:24|321:24,1,88.3199970351563,8|0,3:3|3:0,0:0:0:0:
326,173,1713,2,0,P|282:171|241:154,1,88.3199970351563,0|0,1:0|3:0,0:0:0:0:
423,85,2026,5,8,0:0:0:0:
366,295,2182,1,8,0:0:0:0:
301,93,2338,1,8,3:0:0:0:
459,250,2495,5,8,0:0:0:0:
314,196,2651,1,4,0:3:0:0:
416,121,2807,1,8,0:3:0:0:
229,354,3120,5,14,0:2:0:0:
146,164,3276,1,8,0:0:0:0:
422,57,5620,5,6,0:2:0:0:
339,247,5776,1,4,0:0:0:0:
131,266,8120,5,14,0:2:0:0:
48,76,8276,1,8,0:0:0:0:
59,65,9057,1,0,1:0:0:0:
74,53,9682,1,0,1:0:0:0:
89,40,10307,1,0,1:0:0:0:
356,176,10620,6,0,P|340:119|337:82,1,88.3199970351563,10|0,0:2|1:2,0:0:0:0:
262,255,10932,1,0,1:2:0:0:
214,73,11088,2,0,P|208:116|195:158,1,88.3199970351563,10|0,0:2|1:2,0:0:0:0:
117,330,11401,1,0,1:2:0:0:
26,168,11557,1,10,0:2:0:0:
26,168,11713,2,0,P|81:158|116:184,1,88.3199970351563,0|0,1:2|1:2,0:0:0:0:
226,325,12026,6,0,P|171:335|136:309,1,88.3199970351563,10|0,0:2|1:2,0:0:0:0:
252,162,12338,1,8,0:3:0:0:
391,337,12495,1,10,0:0:0:0:
405,326,12573,1,0,1:0:0:0:
416,312,12651,1,0,1:0:0:0:
422,295,12729,1,0,1:0:0:0:
419,277,12807,2,0,P|391:226|395:188,1,88.3199970351563,6|0,1:2|0:0,0:0:0:0:
464,28,13120,6,0,P|405:59|365:66,1,97.9200005976563,14|0,1:2|0:2,0:0:0:0:
183,35,13432,2,0,P|230:47|272:72,1,97.9200005976563,8|0,0:2|0:2,0:0:0:0:
117,293,13745,5,8,0:2:0:0:
47,32,13901,1,0,1:2:0:0:
209,306,14057,5,8,0:2:0:0:
272,72,14213,1,0,1:2:0:0:
419,277,14370,6,0,P|466:264|508:239,1,97.9200005976563,10|0,0:2|1:2,0:0:0:0:
246,156,14682,2,0,P|204:131|156:118,1,97.9200005976563,8|0,0:2|1:2,0:0:0:0:
427,186,14995,6,0,P|446:141|452:92,1,97.9200005976563,10|0,0:2|1:2,0:0:0:0:
177,207,15307,2,0,P|183:255|202:300,1,97.9200005976563,10|0,0:2|1:2,0:0:0:0:
182,35,15620,6,0,P|119:17|65:18,1,97.9200005976563,12|0,1:2|0:2,0:0:0:0:
356,111,15932,2,0,P|404:107|451:91,1,97.9200005976563,8|0,0:2|0:2,0:0:0:0:
71,126,16245,5,8,0:2:0:0:
314,23,16401,1,0,1:2:0:0:
109,233,16557,5,8,0:2:0:0:
291,44,16713,1,0,1:2:0:0:
268,276,16870,6,0,P|277:329|293:376,1,97.9200005976563,8|0,0:2|1:2,0:0:0:0:
94,211,17182,2,0,P|85:264|69:311,1,97.9200005976563,8|0,0:2|1:2,0:0:0:0:
267,61,17495,5,8,0:2:0:0:
360,290,17651,1,0,1:2:0:0:
154,34,17807,5,8,0:2:0:0:
71,305,17963,1,0,1:2:0:0:
295,61,18120,6,0,P|352:70|389:95,1,97.9200005976563,14|0,1:2|0:2,0:0:0:0:
267,276,18432,2,0,P|210:267|173:242,1,97.9200005976563,8|0,0:2|0:2,0:0:0:0:
456,199,18745,5,8,0:2:0:0:
196,122,18901,1,0,1:2:0:0:
466,292,19057,5,8,0:2:0:0:
179,366,19213,1,0,1:2:0:0:
390,132,19370,6,0,P|417:69|425:24,1,97.9200005976563,10|0,0:2|1:2,0:0:0:0:
187,125,19682,2,0,P|160:62|152:17,1,97.9200005976563,8|0,0:2|1:2,0:0:0:0:
285,285,19995,6,0,P|312:222|320:177,1,97.9200005976563,10|0,0:2|1:2,0:0:0:0:
82,278,20307,2,0,P|55:215|47:170,1,97.9200005976563,10|0,0:2|1:2,0:0:0:0:
339,59,20620,6,0,P|447:69|476:148,1,195.840001195313,12|8,1:2|0:0,0:0:0:0:
372,345,21088,1,0,1:0:0:0:
180,57,21245,5,8,0:0:0:0:
112,312,21401,1,0,1:0:0:0:
274,100,21557,5,8,0:0:0:0:
389,364,21713,2,0,P|398:260|413:155,1,195.840001195313,4|0,1:2|1:0,0:0:0:0:
180,57,22182,6,0,P|201:111|208:159,1,97.9200005976563,8|0,0:0|0:0,0:0:0:0:
368,97,22495,2,0,P|376:48|395:3,1,97.9200005976563,8|0,0:3|1:0,0:0:0:0:
283,220,22807,1,10,0:0:0:0:
151,34,22963,1,8,0:0:0:0:
28,209,23120,6,0,B|38:302|76:279|66:389,1,176.639994070313,6|10,1:2|0:2,0:0:0:0:
176,195,23588,2,0,P|156:247|147:287,1,88.3199970351563,2|0,0:2|1:2,0:0:0:0:
245,353,23901,1,2,1:2:0:0:
299,186,24057,1,8,0:2:0:0:
405,300,24213,6,0,P|331:279|220:269,1,176.639994070313,2|0,0:2|1:0,0:0:0:0:
303,96,24682,2,0,P|358:120|381:155,1,88.3199970351563,8|0,0:2|1:2,0:0:0:0:
386,193,24916,1,8,0:2:0:0:
386,193,24995,2,0,P|335:185|290:187,1,88.3199970351563,0|0,1:2|1:2,0:0:0:0:
266,20,25307,2,0,P|309:13|350:28,1,88.3199970351563,10|0,0:2|0:2,0:0:0:0:
167,189,25620,6,0,P|86:199|35:118,1,176.639994070313,2|10,1:2|0:2,0:0:0:0:
148,25,26088,2,0,P|126:73|116:118,1,88.3199970351563,2|0,1:2|1:2,0:0:0:0:
175,273,26401,1,2,1:2:0:0:
212,78,26557,1,8,0:2:0:0:
49,211,26713,6,0,P|68:283|81:389,1,176.639994070313,2|0,0:2|0:0,0:0:0:0:
275,265,27182,2,0,P|230:233|190:229,1,88.3199970351563,8|0,0:2|1:2,0:0:0:0:
179,245,27416,1,8,0:2:0:0:
179,245,27495,2,0,P|166:290|158:357,1,88.3199970351563,0|0,1:2|1:2,0:0:0:0:
343,209,27807,2,0,P|355:254|363:321,1,88.3199970351563,10|0,0:2|0:2,0:0:0:0:
190,61,28120,6,0,B|307:61|219:104|359:105,1,176.639994070313,2|10,1:2|0:2,0:0:0:0:
195,148,28588,2,0,P|146:164|112:191,1,88.3199970351563,2|0,1:2|1:2,0:0:0:0:
159,330,28901,1,2,1:2:0:0:
275,168,29057,1,8,0:2:0:0:
390,321,29213,6,0,P|403:226|408:144,1,176.639994070313,2|0,0:2|1:0,0:0:0:0:
275,295,29682,2,0,P|256:245|250:206,1,88.3199970351563,10|0,0:2|1:2,0:0:0:0:
275,168,29916,1,8,0:2:0:0:
275,168,29995,2,0,P|294:118|300:79,1,88.3199970351563,2|0,1:2|1:2,0:0:0:0:
89,7,30307,2,0,P|97:50|113:91,1,88.3199970351563,10|2,0:2|0:2,0:0:0:0:
163,249,30620,6,0,P|129:186|29:168,2,176.639994070313,0|8|0,1:2|0:2|1:2,0:0:0:0:
63,374,31401,2,0,P|53:331|49:288,1,88.3199970351563,8|0,3:2|0:2,0:0:0:0:
242,332,31713,2,0,B|370:320|279:278|411:273,1,176.639994070313,2|0,1:2|1:2,0:0:0:0:
262,122,32182,2,0,P|250:170|246:213,1,88.3199970351563,8|0,0:2|1:2,0:0:0:0:
431,120,32495,2,0,P|426:76|415:33,1,88.3199970351563,0|0,1:2|1:2,0:0:0:0:
328,296,32807,1,12,0:2:0:0:
197,60,33120,6,0,P|113:70|-8:79,1,176.639994070313,6|10,1:2|0:2,0:0:0:0:
262,122,33588,2,0,P|291:70|287:34,1,88.3199970351563,2|0,0:2|1:2,0:0:0:0:
185,171,33901,1,2,1:2:0:0:
69,0,34057,1,8,0:2:0:0:
26,237,34213,6,0,P|7:165|7:147,1,88.3199970351563,2|0,0:2|1:2,0:0:0:0:
123,50,34526,1,0,1:2:0:0:
250,235,34682,2,0,P|269:163|269:145,1,88.3199970351563,8|0,0:2|1:2,0:0:0:0:
144,69,34995,1,0,1:2:0:0:
166,267,35151,1,0,1:2:0:0:
302,79,35307,2,0,P|355:62|389:61,1,88.3199970351563,10|2,0:2|0:2,0:0:0:0:
413,282,35620,6,0,B|292:279|379:230|242:235,1,176.639994070313,2|10,1:2|0:2,0:0:0:0:
442,119,36088,2,0,P|421:173|414:216,1,88.3199970351563,2|0,0:2|1:2,0:0:0:0:
319,350,36401,1,2,1:2:0:0:
185,171,36557,1,8,0:2:0:0:
87,342,36713,6,0,P|68:262|41:161,1,176.639994070313,2|0,0:2|1:2,0:0:0:0:
167,11,37182,2,0,P|155:54|147:120,1,88.3199970351563,8|0,0:2|0:2,0:0:0:0:
197,207,37495,1,0,1:2:0:0:
274,17,37651,1,0,1:2:0:0:
415,202,37807,2,0,P|408:158|396:115,1,88.3199970351563,10|0,0:2|0:2,0:0:0:0:
364,309,38120,6,0,P|428:326|515:255,1,176.639994070313,2|10,1:2|0:2,0:0:0:0:
317,230,38588,2,0,P|282:263|268:317,1,88.3199970351563,2|0,0:2|1:2,0:0:0:0:
415,202,38901,1,2,1:2:0:0:
233,132,39057,1,8,0:2:0:0:
461,51,39213,6,0,P|379:42|285:29,1,176.639994070313,2|0,0:2|1:0,0:0:0:0:
145,142,39682,2,0,P|188:136|232:131,1,88.3199970351563,10|0,0:2|0:2,0:0:0:0:
103,19,39995,2,0,P|60:13|16:8,1,88.3199970351563,2|0,1:2|1:2,0:0:0:0:
117,228,40307,1,10,0:2:0:0:
175,66,40463,1,2,0:2:0:0:
275,237,40620,6,0,P|294:280|304:326,1,88.3199970351563,0|0,1:2|0:2,0:0:0:0:
102,217,40932,2,0,P|83:260|73:306,1,88.3199970351563,8|0,0:2|0:2,0:0:0:0:
232,130,41245,1,2,1:2:0:0:
42,107,41401,1,2,1:2:0:0:
158,294,41557,1,8,0:2:0:0:
267,57,41713,6,0,P|328:39|395:122,1,176.639994070313,6|0,1:2|1:2,0:0:0:0:
264,206,42182,2,0,P|301:180|352:169,1,88.3199970351563,10|0,0:2|0:2,0:0:0:0:
419,292,42495,2,0,P|382:267|340:255,1,88.3199970351563,6|4,0:3|0:3,0:0:0:0:
263,377,42807,2,0,P|299:352|341:340,1,88.3199970351563,6|4,0:3|0:3,0:0:0:0:
218,285,43120,6,0,P|174:263|132:257,1,78.7200012011719,6|0,1:2|0:2,0:0:0:0:
73,370,43432,2,0,P|111:361|145:342,1,78.7200012011719,2|0,1:2|0:2,0:0:0:0:
80,203,43745,2,0,P|65:245|57:292,1,78.7200012011719,10|0,0:2|0:2,0:0:0:0:
171,110,44057,2,0,P|186:152|194:199,1,78.7200012011719,2|8,1:2|0:2,0:0:0:0:
107,32,44370,6,0,P|66:18|26:14,1,78.7200012011719,2|0,1:2|0:2,0:0:0:0:
171,110,44682,2,0,P|130:124|90:128,1,78.7200012011719,2|0,1:2|0:2,0:0:0:0:
305,33,44995,2,0,P|343:37|381:50,1,78.7200012011719,10|0,0:2|0:2,0:0:0:0:
241,146,45307,2,0,P|279:141|317:128,1,78.7200012011719,2|8,1:2|0:2,0:0:0:0:
439,34,45620,6,0,P|425:67|410:121,1,78.7200012011719,2|0,1:2|0:2,0:0:0:0:
343,202,45932,2,0,P|331:164|316:127,1,78.7200012011719,2|0,1:2|0:2,0:0:0:0:
495,186,46245,2,0,P|481:219|466:273,1,78.7200012011719,10|0,0:2|0:2,0:0:0:0:
399,354,46557,2,0,P|387:316|372:279,1,78.7200012011719,2|8,1:2|0:2,0:0:0:0:
212,374,46870,6,0,P|223:336|238:299,1,78.7200012011719,2|0,1:2|0:2,0:0:0:0:
102,281,47182,2,0,P|90:243|75:206,1,78.7200012011719,0|0,1:2|0:2,0:0:0:0:
236,112,47495,2,0,P|224:149|209:186,1,78.7200012011719,8|0,0:2|0:2,0:0:0:0:
94,63,47807,1,0,1:2:0:0:
313,38,47963,1,8,0:2:0:0:
209,186,48120,6,0,P|163:180|126:162,1,78.7200012011719,6|0,1:2|0:2,0:0:0:0:
274,269,48432,2,0,P|237:284|198:288,1,78.7200012011719,0|0,1:0|0:0,0:0:0:0:
338,154,48745,2,0,P|374:138|413:134,1,78.7200012011719,10|0,0:2|0:2,0:0:0:0:
403,236,49057,2,0,P|442:240|478:255,1,78.7200012011719,2|8,1:2|0:2,0:0:0:0:
299,342,49370,6,0,P|278:292|272:257,1,78.7200012011719,2|0,1:2|0:2,0:0:0:0:
403,236,49682,2,0,P|393:274|377:309,1,78.7200012011719,2|0,1:2|0:2,0:0:0:0:
209,186,49995,2,0,P|188:136|182:101,1,78.7200012011719,10|0,0:2|1:2,0:0:0:0:
313,80,50307,2,0,P|303:118|287:153,1,78.7200012011719,10|0,0:2|1:2,0:0:0:0:
90,115,50620,6,0,P|120:56|230:36,2,176.639994070313,6|8|0,1:2|0:2|1:2,0:0:0:0:
196,214,51401,1,0,1:2:0:0:
321,46,51557,1,8,0:2:0:0:
447,206,51713,6,0,B|324:203|411:153|278:153,1,176.639994070313,4|0,1:2|1:2,0:0:0:0:
454,44,52182,2,0,P|431:98|424:132,1,88.3199970351563,8|0,0:2|0:2,0:0:0:0:
314,235,52495,1,0,1:2:0:0:
302,68,52651,1,0,1:2:0:0:
409,292,52807,1,8,0:2:0:0:
164,118,53120,6,0,P|118:92|76:86,1,88.3199970351563,6|0,1:2|0:2,0:0:0:0:
212,303,53432,2,0,P|249:325|292:334,1,88.3199970351563,10|0,0:2|0:2,0:0:0:0:
90,177,53745,2,0,P|46:186|9:208,1,88.3199970351563,2|0,1:2|1:2,0:0:0:0:
281,245,54057,2,0,P|324:235|361:213,1,88.3199970351563,10|0,0:2|0:2,0:0:0:0:
132,33,54370,6,0,P|150:78|160:122,1,88.3199970351563,2|0,1:2|0:2,0:0:0:0:
354,55,54682,2,0,P|337:95|326:138,1,88.3199970351563,10|0,0:2|0:2,0:0:0:0:
103,206,54995,2,0,P|121:251|131:295,1,88.3199970351563,2|0,1:2|1:2,0:0:0:0:
325,228,55307,2,0,P|308:268|297:311,1,88.3199970351563,10|0,0:2|0:2,0:0:0:0:
273,88,55620,6,0,P|338:57|373:53,1,88.3199970351563,6|0,1:2|0:2,0:0:0:0:
325,228,55932,2,0,P|390:259|425:263,1,88.3199970351563,10|8,0:2|0:2,0:0:0:0:
100,185,56245,2,0,P|165:154|200:150,1,88.3199970351563,2|0,1:2|1:2,0:0:0:0:
152,325,56557,2,0,P|217:356|252:360,1,88.3199970351563,10|0,0:2|0:2,0:0:0:0:
438,190,56870,6,0,P|446:105|463:10,2,176.639994070313,6|8|0,1:2|0:2|1:2,0:0:0:0:
358,303,57651,1,0,1:2:0:0:
289,114,57807,2,0,P|305:159|315:206,1,88.3199970351563,10|2,0:2|0:2,0:0:0:0:
106,81,58120,6,0,P|90:126|80:173,1,88.3199970351563,2|0,1:2|0:2,0:0:0:0:
152,325,58432,1,10,0:2:0:0:
260,129,58588,2,0,P|276:174|286:221,1,88.3199970351563,2|8,0:2|0:2,0:0:0:0:
176,182,58901,1,10,0:2:0:0:
335,85,59057,1,8,0:2:0:0:
165,302,59213,6,0,B|50:308|129:255|-1:261,1,176.639994070313,6|0,1:2|1:2,0:0:0:0:
177,209,59682,2,0,P|227:187|276:182,1,88.3199970351563,8|0,0:2|0:2,0:0:0:0:
381,324,59995,1,0,1:2:0:0:
243,272,60151,1,0,1:2:0:0:
399,207,60307,2,0,P|442:214|482:233,1,88.3199970351563,10|0,0:2|0:2,0:0:0:0:
266,27,60620,6,0,P|282:100|298:214,1,176.639994070313,6|10,1:2|0:2,0:0:0:0:
217,374,61088,1,2,1:2:0:0:
87,153,61245,5,8,0:2:0:0:
42,354,61401,1,2,1:2:0:0:
186,142,61557,5,8,0:2:0:0:
231,343,61713,1,2,1:2:0:0:
371,169,61870,6,0,P|421:140|461:129,1,88.3199970351563,8|0,0:2|1:2,0:0:0:0:
212,257,62182,2,0,P|170:242|133:219,1,88.3199970351563,8|0,0:2|1:2,0:0:0:0:
380,58,62495,5,8,0:2:0:0:
425,259,62651,1,0,1:2:0:0:
281,47,62807,5,8,0:2:0:0:
236,248,62963,1,0,1:2:0:0:
64,43,63120,5,10,0:2:0:0:
346,143,63276,1,10,0:2:0:0:
77,289,63432,1,10,0:2:0:0:
179,0,63588,1,10,0:2:0:0:
435,285,64995,6,0,L|444:230,1,44.1599985175782,8|8,0:0|0:0,0:0:0:0:
331,238,65151,2,0,L|338:281,1,44.1599985175782,0|0,1:0|1:0,0:0:0:0:
382,168,65307,2,0,P|328:152|257:190,1,132.479995552735,12|0,0:2|0:0,0:0:0:0:
234,263,65620,5,10,0:0:0:0:
148,62,65776,1,10,0:0:0:0:
104,346,65932,1,10,0:0:0:0:
257,58,66088,1,14,0:0:0:0:
377,349,66870,6,0,P|404:357|436:376,2,52.4800008007813,2|2|2,0:0|0:0|0:0,0:0:0:0:
275,295,67182,2,0,P|248:303|216:322,2,52.4800008007813,2|2|2,0:0|0:0|0:0,0:0:0:0:
361,230,67495,1,2,0:0:0:0:
325,198,67599,1,2,0:0:0:0:
278,187,67703,1,2,0:0:0:0:
233,201,67807,1,10,0:0:0:0:
53,50,68120,6,0,B|181:54|107:97|246:107,2,195.840001195313,6|8|0,1:2|0:2|1:2,0:0:0:0:
153,215,68901,1,0,1:2:0:0:
295,29,69057,2,0,P|315:80|325:124,1,97.9200005976563,10|0,0:2|0:2,0:0:0:0:
432,255,69370,2,0,P|443:207|461:162,1,97.9200005976563,2|0,1:2|0:2,0:0:0:0:
274,24,69682,2,0,P|294:75|304:119,1,97.9200005976563,10|0,0:2|0:2,0:0:0:0:
447,267,69995,2,0,P|458:219|476:174,1,97.9200005976563,2|0,1:2|1:2,0:0:0:0:
222,107,70307,1,10,0:2:0:0:
415,45,70463,1,2,0:2:0:0:
189,234,70620,2,0,P|100:217|61:121,2,195.840001195313,0|8|0,1:2|0:2|1:2,0:0:0:0:
358,186,71401,1,0,1:2:0:0:
225,332,71557,2,0,P|167:354|121:357,1,97.9200005976563,10|0,0:2|0:2,0:0:0:0:
342,167,71870,6,0,P|400:145|446:142,1,97.9200005976563,2|0,1:2|0:2,0:0:0:0:
189,234,72182,2,0,P|140:227|95:208,1,97.9200005976563,10|0,0:2|0:2,0:0:0:0:
358,263,72495,2,0,P|406:269|451:288,1,97.9200005976563,2|0,1:2|1:2,0:0:0:0:
171,148,72807,2,0,P|151:97|147:47,1,97.9200005976563,10|0,0:2|0:2,0:0:0:0:
358,263,73120,6,0,P|318:324|203:342,2,195.840001195313,6|8|0,1:2|0:2|1:2,0:0:0:0:
319,66,73901,1,2,1:2:0:0:
256,270,74057,1,10,0:2:0:0:
421,149,74213,1,2,0:2:0:0:
173,77,74370,2,0,P|78:82|18:156,2,195.840001195313,2|8|0,1:2|0:2|1:2,0:0:0:0:
320,209,75151,1,0,1:2:0:0:
109,279,75307,2,0,P|39:259|18:229,1,97.9200005976563,10|0,0:2|0:2,0:0:0:0:
269,96,75620,6,0,P|283:174|293:294,1,195.840001195313,6|8,1:2|0:2,0:0:0:0:
173,189,76088,1,0,0:2:0:0:
359,88,76245,2,0,P|415:71|465:69,1,97.9200005976563,2|0,1:2|1:2,0:0:0:0:
387,309,76557,2,0,P|338:304|291:289,1,97.9200005976563,8|0,0:2|0:2,0:0:0:0:
154,91,76870,6,0,P|69:75|1:154,1,195.840001195313,6|8,1:2|0:2,0:0:0:0:
72,317,77338,1,0,0:2:0:0:
200,165,77495,2,0,P|208:186|217:219,3,48.9600002988281,2|0|0|0,1:2|1:2|1:2|1:2,0:0:0:0:
154,91,77807,2,0,P|136:106|117:138,1,48.9600002988281,8|8,0:2|0:2,0:0:0:0:
278,130,77963,2,0,P|264:109|245:94,1,48.9600002988281,8|8,0:2|0:2,0:0:0:0:
330,350,78120,6,0,B|475:356|375:304|517:303,2,195.840001195313,6|8|0,1:2|0:2|1:2,0:0:0:0:
215,211,78901,1,0,1:2:0:0:
70,380,79057,2,0,P|60:331|41:287,1,97.9200005976563,10|0,0:2|0:2,0:0:0:0:
219,178,79370,2,0,P|199:222|190:270,1,97.9200005976563,2|0,1:2|0:2,0:0:0:0:
53,384,79682,2,0,P|43:335|24:291,1,97.9200005976563,10|0,0:2|0:2,0:0:0:0:
236,184,79995,2,0,P|216:228|207:276,1,97.9200005976563,2|0,1:2|0:2,0:0:0:0:
48,158,80307,1,10,0:2:0:0:
209,67,80463,1,2,0:2:0:0:
133,293,80620,6,0,P|131:213|114:97,2,195.840001195313,2|8|0,1:2|0:2|1:2,0:0:0:0:
24,179,81401,1,0,1:2:0:0:
219,93,81557,2,0,P|291:75|338:75,1,97.9200005976563,10|0,0:2|0:2,0:0:0:0:
457,204,81870,2,0,P|410:218|361:223,1,97.9200005976563,2|0,1:2|0:2,0:0:0:0:
288,0,82182,2,0,P|336:4|383:19,1,97.9200005976563,10|0,0:2|0:2,0:0:0:0:
236,184,82495,2,0,P|187:179|140:164,1,97.9200005976563,2|0,1:2|1:2,0:0:0:0:
425,111,82807,1,10,0:2:0:0:
294,272,82963,1,0,0:2:0:0:
192,86,83120,6,0,P|139:48|13:65,2,195.840001195313,6|8|0,1:2|0:2|1:2,0:0:0:0:
283,250,83901,1,2,1:2:0:0:
90,138,84057,1,10,0:2:0:0:
267,46,84213,1,2,0:2:0:0:
176,255,84370,2,0,P|123:293|-3:276,2,195.840001195313,6|8|8,1:2|0:2|0:2,0:0:0:0:
264,78,85151,1,0,1:2:0:0:
410,258,85307,2,0,P|425:205|434:112,1,146.880000896484,14|0,0:2|0:2,0:0:0:0:
432,35,85620,6,0,B|321:44|407:91|261:101,1,176.639994070313,6|0,1:2|0:0,0:0:0:0:
98,13,86088,2,0,P|117:78|132:195,1,176.639994070313,8|0,0:0|0:0,0:0:0:0:
219,338,86557,2,0,P|235:283|250:250,1,88.3199970351563,8|0,0:0|0:0,0:0:0:0:
410,258,86870,2,0,P|432:269|458:293,2,44.1599985175782,10|8|8,0:0|0:0|0:0,0:0:0:0:
272,172,87182,2,0,P|226:173|177:191,1,88.3199970351563,10|0,0:0|1:0,0:0:0:0:
130,351,87495,2,0,P|176:350|225:332,1,88.3199970351563,10|8,0:0|0:3,0:0:0:0:
53,176,87807,1,10,0:3:0:0:
17,311,87963,1,10,0:3:0:0:
203,127,88120,6,0,P|228:69|233:34,1,97.9200005976563,14|0,1:2|0:2,0:0:0:0:
38,195,88432,2,0,P|16:150|8:102,1,97.9200005976563,8|0,0:2|0:2,0:0:0:0:
171,294,88745,5,8,0:2:0:0:
102,31,88901,1,0,1:2:0:0:
292,278,89057,5,8,0:2:0:0:
357,32,89213,1,0,1:2:0:0:
488,316,89370,6,0,P|441:299|391:293,1,97.9200005976563,10|0,0:2|1:2,0:0:0:0:
218,216,89682,2,0,P|265:199|315:193,1,97.9200005976563,8|0,0:2|1:2,0:0:0:0:
512,120,89995,6,0,P|465:103|415:97,1,97.9200005976563,10|0,0:2|1:2,0:0:0:0:
233,28,90307,2,0,P|280:11|330:5,1,97.9200005976563,10|0,0:2|1:2,0:0:0:0:
185,219,90620,6,0,P|125:196|100:165,1,97.9200005976563,12|0,1:2|0:2,0:0:0:0:
315,98,90932,2,0,P|375:121|400:152,1,97.9200005976563,8|0,0:2|0:2,0:0:0:0:
176,305,91245,5,8,0:2:0:0:
113,34,91401,1,0,1:2:0:0:
345,285,91557,5,8,0:2:0:0:
411,28,91713,1,0,1:2:0:0:
211,228,91870,6,0,P|185:177|179:136,1,97.9200005976563,8|0,0:2|1:2,0:0:0:0:
375,287,92182,2,0,P|401:236|407:195,1,97.9200005976563,8|0,0:2|1:2,0:0:0:0:
137,53,92495,5,8,0:2:0:0:
368,13,92651,1,0,1:2:0:0:
59,150,92807,5,8,0:2:0:0:
313,192,92963,1,0,1:2:0:0:
44,331,93120,6,0,P|26:280|19:235,1,97.9200005976563,14|0,1:2|0:2,0:0:0:0:
235,133,93432,2,0,P|226:181|210:227,1,97.9200005976563,8|0,0:2|0:2,0:0:0:0:
61,29,93745,5,8,0:2:0:0:
15,308,93901,1,0,1:2:0:0:
193,34,94057,5,8,0:2:0:0:
247,288,94213,1,0,1:2:0:0:
349,13,94370,6,0,P|332:59|323:107,1,97.9200005976563,10|0,0:2|1:2,0:0:0:0:
470,266,94682,2,0,P|453:219|444:171,1,97.9200005976563,8|0,0:2|1:2,0:0:0:0:
236,131,94995,6,0,P|219:177|210:225,1,97.9200005976563,10|0,0:2|1:2,0:0:0:0:
357,384,95307,2,0,P|340:337|331:289,1,97.9200005976563,10|0,0:2|1:2,0:0:0:0:
217,104,95620,6,0,P|164:78|121:74,1,97.9200005976563,14|0,1:2|0:2,0:0:0:0:
322,275,95932,2,0,P|370:267|413:244,1,97.9200005976563,8|0,0:2|0:2,0:0:0:0:
132,192,96245,5,8,0:2:0:0:
416,86,96401,1,0,1:2:0:0:
217,327,96557,5,8,0:2:0:0:
113,50,96713,1,0,1:2:0:0:
322,275,96870,6,0,P|348:228|362:185,1,97.9200005976563,12|0,1:2|0:0,0:0:0:0:
174,341,97182,2,0,P|149:298|134:252,1,97.9200005976563,8|0,0:0|0:1,0:0:0:0:
335,99,97495,2,0,P|277:123|231:117,1,97.9200005976563,0|0,1:0|1:0,0:0:0:0:
208,103,97729,1,8,0:0:0:0:
208,103,97807,1,8,0:0:0:0:
406,24,97963,1,8,0:0:0:0:
226,216,98120,6,0,P|161:189|138:155,1,97.9200005976563,14|0,1:2|0:2,0:0:0:0:
400,161,98432,2,0,P|465:188|488:222,1,97.9200005976563,8|0,0:2|0:2,0:0:0:0:
272,305,98745,5,8,0:2:0:0:
310,36,98901,1,0,1:2:0:0:
473,290,99057,5,8,0:2:0:0:
406,24,99213,1,0,1:2:0:0:
246,331,99370,6,0,P|191:358|144:363,1,97.9200005976563,10|0,0:2|1:2,0:0:0:0:
54,136,99682,2,0,P|101:144|144:168,1,97.9200005976563,8|0,0:2|1:2,0:0:0:0:
77,351,99995,2,0,P|53:294|46:255,1,97.9200005976563,10|0,0:2|1:2,0:0:0:0:
235,147,100307,2,0,P|224:194|204:239,1,97.9200005976563,10|0,0:2|1:2,0:0:0:0:
57,51,100620,6,0,P|110:28|159:21,1,97.9200005976563,12|0,1:2|0:2,0:0:0:0:
373,98,100932,2,0,P|320:75|271:68,1,97.9200005976563,8|0,0:2|0:2,0:0:0:0:
106,221,101245,5,8,0:2:0:0:
345,290,101401,1,0,1:2:0:0:
58,136,101557,5,8,0:2:0:0:
280,68,101713,1,0,1:2:0:0:
97,249,101870,6,0,P|79:302|68:346,1,97.9200005976563,8|0,0:2|1:2,0:0:0:0:
255,186,102182,2,0,P|273:239|284:283,1,97.9200005976563,8|0,0:2|1:2,0:0:0:0:
451,71,102495,5,8,0:2:0:0:
512,342,102651,1,0,1:2:0:0:
324,62,102807,5,8,0:2:0:0:
273,318,102963,1,0,1:2:0:0:
151,79,103120,6,0,P|97:49|53:41,1,97.9200005976563,14|0,1:2|0:2,0:0:0:0:
338,150,103432,2,0,P|385:138|426:112,1,97.9200005976563,8|0,0:2|0:2,0:0:0:0:
97,249,103745,5,8,0:2:0:0:
197,1,103901,1,0,1:2:0:0:
370,293,104057,5,8,0:2:0:0:
301,48,104213,1,0,1:2:0:0:
183,287,104370,6,0,P|141:312|94:324,1,97.9200005976563,10|0,0:2|1:2,0:0:0:0:
338,150,104682,2,0,P|379:124|426:112,1,97.9200005976563,8|0,0:2|1:2,0:0:0:0:
114,226,104995,2,0,P|66:214|25:188,1,97.9200005976563,10|0,0:2|1:2,0:0:0:0:
339,274,105307,2,0,P|386:285|427:311,1,97.9200005976563,10|0,0:2|1:2,0:0:0:0:
151,140,105620,6,0,P|132:83|125:37,1,97.9200005976563,14|0,1:2|0:2,0:0:0:0:
364,179,105932,2,0,P|355:227|338:273,1,97.9200005976563,8|0,0:2|0:2,0:0:0:0:
232,45,106245,5,8,0:2:0:0:
178,338,106401,1,0,1:2:0:0:
401,36,106557,5,8,0:2:0:0:
465,317,106713,1,0,1:2:0:0:
208,76,106870,6,0,P|161:87|120:113,1,97.9200005976563,4|0,1:2|1:0,0:0:0:0:
117,151,107104,1,8,0:0:0:0:
117,151,107182,1,8,0:0:0:0:
226,326,107338,1,8,0:0:0:0:
409,167,107495,2,0,P|434:153|456:145,1,48.9600002988281,8|8,1:2|0:0,0:0:0:0:
361,292,107651,2,0,P|386:306|408:314,1,48.9600002988281,8|8,0:0|0:0,0:0:0:0:
276,123,107807,2,0,P|288:144|298:171,1,48.9600002988281,8|8,0:0|0:0,0:0:0:0:
221,309,107963,2,0,P|233:287|241:264,1,48.9600002988281,8|8,0:0|0:0,0:0:0:0:
170,66,108120,6,0,P|126:37|74:28,1,97.9200005976563,14|0,1:2|0:2,0:0:0:0:
365,183,108432,2,0,P|412:172|452:144,1,97.9200005976563,8|0,0:2|0:2,0:0:0:0:
150,284,108745,5,8,0:2:0:0:
206,23,108901,1,0,1:2:0:0:
404,313,109057,5,8,0:2:0:0:
342,36,109213,1,0,1:2:0:0:
133,288,109370,6,0,P|85:277|45:249,1,97.9200005976563,10|0,0:2|1:2,0:0:0:0:
277,144,109682,2,0,P|324:154|364:182,1,97.9200005976563,8|0,0:2|1:2,0:0:0:0:
92,133,109995,5,10,0:2:0:0:
367,45,110151,1,0,1:2:0:0:
52,227,110307,5,10,0:2:0:0:
327,315,110463,1,0,1:2:0:0:
165,63,110620,6,0,P|185:117|195:167,1,97.9200005976563,12|0,1:2|0:2,0:0:0:0:
339,347,110932,2,0,P|349:299|367:253,1,97.9200005976563,8|0,0:2|0:2,0:0:0:0:
436,29,111245,5,8,0:2:0:0:
500,292,111401,1,0,1:2:0:0:
276,37,111557,5,8,0:2:0:0:
213,306,111713,1,0,1:2:0:0:
127,72,111870,6,0,P|74:46|20:40,1,97.9200005976563,8|0,0:2|1:2,0:0:0:0:
308,195,112182,2,0,P|351:217|399:227,1,97.9200005976563,8|0,0:2|1:2,0:0:0:0:
108,152,112495,6,0,P|60:161|16:184,1,97.9200005976563,8|0,0:2|1:2,0:0:0:0:
333,113,112807,2,0,P|380:103|424:80,1,97.9200005976563,8|0,0:2|1:2,0:0:0:0:
113,246,113120,6,0,P|94:304|88:348,1,97.9200005976563,14|0,1:2|0:2,0:0:0:0:
308,195,113432,2,0,P|327:253|333:297,1,97.9200005976563,8|0,0:2|0:2,0:0:0:0:
140,27,113745,5,8,0:2:0:0:
198,310,113901,1,0,1:2:0:0:
392,28,114057,5,8,0:2:0:0:
332,289,114213,1,0,1:2:0:0:
140,125,114370,6,0,P|84:99|31:93,1,97.9200005976563,10|0,0:2|1:2,0:0:0:0:
308,195,114682,2,0,P|355:184|399:162,1,97.9200005976563,8|0,0:2|1:2,0:0:0:0:
105,231,114995,6,0,P|88:282|79:332,1,97.9200005976563,10|0,0:2|1:2,0:0:0:0:
299,172,115307,2,0,P|289:123|273:77,1,97.9200005976563,10|0,0:2|1:2,0:0:0:0:
380,327,115620,6,0,P|423:348|471:359,1,97.9200005976563,14|0,1:2|0:2,0:0:0:0:
196,198,115932,2,0,P|148:208|104:230,1,97.9200005976563,8|0,0:2|0:2,0:0:0:0:
468,141,116245,5,8,0:2:0:0:
203,70,116401,1,0,1:2:0:0:
472,227,116557,5,8,0:2:0:0:
207,298,116713,1,0,1:2:0:0:
433,140,116870,6,0,P|452:92|461:40,1,97.9200005976563,6|0,1:2|1:0,0:0:0:0:
433,17,117104,1,8,0:0:0:0:
433,17,117182,1,8,0:0:0:0:
320,218,117338,1,8,0:0:0:0:
192,29,117495,2,0,P|211:77|220:129,1,97.9200005976563,6|0,1:2|1:0,0:0:0:0:
200,155,117729,1,8,0:0:0:0:
200,155,117807,1,8,0:0:0:0:
59,27,117963,1,8,0:0:0:0:
58,252,118120,6,0,P|22:192|17:160,1,97.9200005976563,14|0,1:2|0:2,0:0:0:0:
236,31,118432,5,8,0:2:0:0:
152,300,118588,1,0,0:2:0:0:
321,35,118745,5,8,0:2:0:0:
319,330,118901,1,0,1:2:0:0:
422,34,119057,5,8,0:2:0:0:
500,322,119213,1,0,1:2:0:0:
222,137,119370,6,0,P|171:106|119:98,1,97.9200005976563,10|0,0:2|1:2,0:0:0:0:
394,273,119682,2,0,P|441:261|481:234,1,97.9200005976563,8|0,0:2|1:2,0:0:0:0:
144,222,119995,5,10,0:2:0:0:
450,125,120151,1,0,1:2:0:0:
127,23,120307,5,10,0:2:0:0:
426,118,120463,1,0,1:2:0:0:
169,309,120620,6,0,P|113:337|75:345,1,97.9200005976563,12|0,1:2|0:2,0:0:0:0:
308,35,120932,5,8,0:2:0:0:
393,292,121088,1,0,0:2:0:0:
216,41,121245,5,8,0:2:0:0:
226,322,121401,1,0,1:2:0:0:
122,38,121557,5,8,0:2:0:0:
45,314,121713,1,0,1:2:0:0:
342,156,121870,6,0,P|389:168|429:196,1,97.9200005976563,8|0,0:2|1:2,0:0:0:0:
144,222,122182,2,0,P|96:209|57:182,1,97.9200005976563,8|0,0:2|1:2,0:0:0:0:
384,67,122495,5,8,0:2:0:0:
105,17,122651,1,0,1:2:0:0:
429,196,122807,5,8,0:2:0:0:
150,246,122963,1,0,1:2:0:0:
466,34,123120,6,0,P|488:90|498:134,1,97.9200005976563,14|0,1:2|0:2,0:0:0:0:
259,323,123432,5,8,0:2:0:0:
166,58,123588,1,0,0:2:0:0:
426,232,123745,5,8,0:2:0:0:
130,345,123901,1,0,1:2:0:0:
304,63,124057,5,8,0:2:0:0:
407,344,124213,1,0,1:2:0:0:
170,128,124370,6,0,P|117:104|61:97,1,97.9200005976563,10|0,0:2|1:2,0:0:0:0:
334,262,124682,2,0,P|381:252|425:231,1,97.9200005976563,8|0,0:2|1:2,0:0:0:0:
91,276,124995,5,10,0:2:0:0:
185,15,125151,1,0,1:2:0:0:
400,325,125307,5,10,0:2:0:0:
310,54,125463,1,0,1:2:0:0:
165,320,125620,6,0,P|109:353|63:358,1,97.9200005976563,14|0,1:2|0:2,0:0:0:0:
276,112,125932,2,0,P|323:122|363:150,1,97.9200005976563,8|0,0:2|0:2,0:0:0:0:
98,271,126245,5,8,0:2:0:0:
22,15,126401,1,0,1:2:0:0:
244,264,126557,5,8,0:2:0:0:
299,13,126713,1,0,1:2:0:0:
486,230,126870,6,0,P|438:260|392:266,1,97.9200005976563,6|0,1:2|1:0,0:0:0:0:
360,250,127104,1,8,0:0:0:0:
360,250,127182,1,8,0:0:0:0:
509,80,127338,1,8,0:0:0:0:
457,332,127495,1,6,0:3:0:0:
401,155,127651,1,4,0:3:0:0:
330,310,127807,1,4,0:3:0:0:
246,210,127963,1,4,0:3:0:0:
41,347,128120,6,0,B|399:279|109:154|508:103,1,552.9600135,6|0,0:0|0:0,0:0:0:0:
