osu file format v14

[General]
AudioFilename: audio.mp3
AudioLeadIn: 0
PreviewTime: 65575
Countdown: 0
SampleSet: Soft
StackLeniency: 0.5
Mode: 0
LetterboxInBreaks: 0
WidescreenStoryboard: 1

[Editor]
Bookmarks: 620,3120,10620,13120,23120,33120,43120,53120,61245,61870,63745,65620,68120,78120,88120,100620,108120,128120,135620
DistanceSpacing: 1.2
BeatDivisor: 4
GridSize: 8
TimelineZoom: 2.1

[Metadata]
Title:Colorful
TitleUnicode:カラフル
Artist:HAG
ArtistUnicode:H△G
Creator:Sotarks
Version:Taeyang's Extreme
Source:
Tags:akitoshi fieryrage corinn -laura- nikakis snownino_ miraclee nevo reform kujinn armin a_r_m_i_n smokelind onlybiscuit brotarks lami taeyang kroytz japanese female vocalist jpop j-pop cut edit short version everlasting night of teenage girls ayyri eiri- colourful
BeatmapID:1948378
BeatmapSetID:931452

[Difficulty]
HPDrainRate:5.2
CircleSize:4
OverallDifficulty:9.4
ApproachRate:9.4
SliderMultiplier:2.47999990463257
SliderTickRate:1

[Events]
//Background and Video events
0,0,"bg.jpg",0,0
//Break Periods
//Storyboard Layer 0 (Background)
//Storyboard Layer 1 (Fail)
//Storyboard Layer 2 (Pass)
//Storyboard Layer 3 (Foreground)
//Storyboard Sound Samples

[TimingPoints]
620,312.5,4,2,22,50,1,0
620,-250,4,2,22,50,0,0
854,-250,4,2,22,5,0,0
932,-133.333333333333,4,2,22,50,0,0
3120,-111.111111111111,4,2,22,60,0,0
8745,-200,4,2,22,60,0,0
10620,-100,4,2,22,60,0,0
23120,-111.111111111111,4,2,22,50,0,0
42416,-111.111111111111,4,2,22,5,0,0
42495,-111.111111111111,4,2,22,50,0,0
42729,-111.111111111111,4,2,22,5,0,0
42807,-111.111111111111,4,2,22,50,0,0
43120,-133.333333333333,4,2,22,55,0,0
50620,-111.111111111111,4,2,22,60,0,0
50854,-111.111111111111,4,2,22,5,0,0
50932,-111.111111111111,4,2,22,60,0,0
65541,-111.111111111111,4,2,22,5,0,0
65620,-111.111111111111,4,2,22,70,0,0
66870,-125,4,2,22,55,0,0
67182,-111.111111111111,4,2,22,65,0,0
67495,-100,4,2,22,75,0,0
68120,-90.9090909090909,4,2,22,85,0,1
87182,-83.3333333333333,4,2,22,85,0,1
88120,-90.9090909090909,4,2,22,85,0,1
128198,-90.9090909090909,4,2,22,50,0,0
135620,-666.666666666667,4,2,22,5,0,0

[Colours]
Combo1 : 70,163,255
Combo2 : 94,255,163
Combo3 : 255,132,211
Combo4 : 231,255,60

[HitObjects]
89,232,620,6,0,P|124:224|159:235,1,74.3999971389771,0|0,1:0|0:0,0:0:0:0:
174,247,932,6,0,L|181:154,1,92.9999999713898,8|0,0:0|1:0,0:0:0:0:
229,91,1166,1,0,1:0:0:0:
229,91,1245,1,8,0:0:0:0:
426,136,1401,2,0,P|440:179|426:223,1,92.9999999713898,8|0,3:3|3:0,0:0:0:0:
252,309,1713,2,0,L|259:216,1,92.9999999713898,0|0,1:0|3:0,0:0:0:0:
276,25,2026,5,8,0:0:0:0:
361,180,2182,1,8,0:0:0:0:
174,247,2338,1,8,3:0:0:0:
254,125,2495,2,0,B|251:163|251:163|260:184|260:184|259:216,1,92.9999999713898,8|4,0:0|0:3,0:0:0:0:
249,336,2807,1,8,0:3:0:0:
276,25,3120,5,14,0:2:0:0:
276,25,3276,1,8,0:0:0:0:
276,25,5620,5,6,0:2:0:0:
258,254,5776,1,4,0:0:0:0:
249,336,8120,5,14,0:2:0:0:
249,336,8276,1,8,0:0:0:0:
83,367,8432,1,0,1:0:0:0:
84,119,9057,5,0,1:0:0:0:
231,27,9682,1,0,1:0:0:0:
363,138,10307,1,0,1:0:0:0:
199,241,10620,6,0,P|237:288|298:297,1,123.999995231629,10|0,0:2|1:2,0:0:0:0:
363,138,10932,1,0,1:2:0:0:
279,214,11088,2,0,P|336:192|363:138,1,123.999995231629,10|0,0:2|1:2,0:0:0:0:
231,27,11400,1,0,1:2:0:0:
278,129,11557,2,0,P|274:69|231:27,1,123.999995231629,10|0,0:2|1:2,0:0:0:0:
84,118,11870,5,0,1:2:0:0:
195,104,12026,2,0,P|137:89|84:119,1,123.999995231629,10|0,0:2|1:2,0:0:0:0:
298,297,12338,1,8,0:3:0:0:
512,220,12495,1,10,0:0:0:0:
512,220,12573,1,0,1:0:0:0:
512,220,12651,1,0,1:0:0:0:
512,220,12729,1,0,1:0:0:0:
512,220,12807,2,0,L|326:205,1,185.999992847443,6|0,1:2|0:0,0:0:0:0:
247,199,13120,6,0,L|238:75,1,123.999995231629,14|0,1:2|0:2,0:0:0:0:
438,103,13432,2,0,L|429:226,1,123.999995231629,8|0,0:2|0:2,0:0:0:0:
167,242,13745,2,0,L|158:118,1,123.999995231629,8|0,0:2|1:2,0:0:0:0:
358,60,14057,2,0,L|349:183,1,123.999995231629,8|0,0:2|1:2,0:0:0:0:
218,344,14370,5,10,0:2:0:0:
158,118,14526,1,0,1:2:0:0:
218,344,14682,1,8,0:2:0:0:
266,78,14838,1,0,1:2:0:0:
218,344,14995,5,10,0:2:0:0:
155,106,15151,1,0,1:2:0:0:
218,344,15307,1,10,0:2:0:0:
268,64,15463,1,0,1:2:0:0:
217,343,15620,6,0,P|160:362|103:341,1,123.999995231629,12|0,1:2|0:2,0:0:0:0:
316,122,15932,2,0,P|341:177|325:235,1,123.999995231629,8|0,0:2|0:2,0:0:0:0:
162,280,16245,2,0,P|116:240|106:180,1,123.999995231629,8|0,0:2|1:2,0:0:0:0:
409,255,16557,2,0,P|374:304|315:320,1,123.999995231629,8|0,0:2|1:2,0:0:0:0:
113,166,16870,5,8,0:2:0:0:
350,111,17026,1,0,1:2:0:0:
113,166,17182,1,8,0:2:0:0:
366,244,17338,1,0,1:2:0:0:
113,166,17495,5,8,0:2:0:0:
361,108,17651,1,0,1:2:0:0:
113,166,17807,1,8,0:2:0:0:
379,247,17963,1,0,1:2:0:0:
54,226,18120,6,0,P|28:171|47:113,1,123.999995231629,14|0,1:2|0:2,0:0:0:0:
198,11,18432,2,0,L|374:23,1,123.999995231629,8|0,0:2|0:2,0:0:0:0:
299,280,18745,2,0,L|175:288,1,123.999995231629,8|0,0:2|1:2,0:0:0:0:
129,87,19057,2,0,L|252:95,1,123.999995231629,8|0,0:2|1:2,0:0:0:0:
390,238,19370,5,10,0:2:0:0:
126,169,19526,1,0,1:2:0:0:
403,241,19682,1,8,0:2:0:0:
113,166,19838,1,0,1:2:0:0:
406,165,19995,5,10,0:2:0:0:
110,242,20151,1,0,1:2:0:0:
419,162,20307,1,10,0:2:0:0:
97,245,20463,1,0,1:2:0:0:
402,352,20620,6,0,P|426:296|403:241,1,123.999995231629,12|0,1:2|0:0,0:0:0:0:
252,95,20932,2,0,L|129:87,1,123.999995231629,8|0,0:0|1:0,0:0:0:0:
82,344,21245,2,0,L|205:335,1,123.999995231629,8|0,0:0|1:0,0:0:0:0:
26,143,21557,1,8,0:0:0:0:
62,363,21713,6,0,L|309:347,1,247.999990463257,4|0,1:2|1:0,0:0:0:0:
375,104,22182,1,8,0:0:0:0:
497,256,22338,1,0,0:0:0:0:
324,170,22495,2,0,P|293:86|354:23,1,185.999992847443,8|8,0:3|0:0,0:0:0:0:
437,48,22807,2,0,P|458:105|435:161,1,123.999995231629,10|8,0:0|0:0,0:0:0:0:
205,334,23120,6,0,B|42:320|42:320|98:297,1,223.199984605408,6|10,1:2|0:2,0:0:0:0:
263,240,23588,1,2,0:2:0:0:
172,88,23745,2,0,P|154:139|175:190,1,111.599992302704,0|2,1:2|1:2,0:0:0:0:
335,101,24057,2,0,P|280:100|239:136,1,111.599992302704,8|2,0:2|0:2,0:0:0:0:
205,334,24370,5,0,1:2:0:0:
205,334,24526,1,0,1:0:0:0:
411,320,24682,2,0,L|299:326,1,111.599992302704,8|0,0:2|1:2,0:0:0:0:
317,211,24995,5,0,1:2:0:0:
317,211,25151,1,0,1:2:0:0:
111,197,25307,2,0,L|222:203,1,111.599992302704,10|0,0:2|0:2,0:0:0:0:
81,277,25620,6,0,P|26:188|96:113,1,223.199984605408,2|10,1:2|0:2,0:0:0:0:
317,211,26088,1,2,1:2:0:0:
111,197,26245,2,0,L|222:203,1,111.599992302704,0|2,1:2|1:2,0:0:0:0:
429,218,26557,2,0,L|317:211,1,111.599992302704,8|2,0:2|0:2,0:0:0:0:
111,197,26870,5,0,1:2:0:0:
111,197,27026,1,0,0:0:0:0:
280,144,27182,2,0,P|230:120|177:133,1,111.599992302704,8|0,0:2|1:2,0:0:0:0:
221,381,27495,5,0,1:2:0:0:
221,381,27651,1,0,1:2:0:0:
222,203,27807,2,0,P|184:242|180:297,1,111.599992302704,10|0,0:2|0:2,0:0:0:0:
469,306,28120,6,0,B|370:255|370:255|260:277,1,223.199984605408,2|10,1:2|0:2,0:0:0:0:
61,325,28588,1,2,1:2:0:0:
113,119,28745,2,0,P|164:99|216:115,1,111.599992302704,0|2,1:2|1:2,0:0:0:0:
363,273,29057,2,0,P|312:293|259:276,1,111.599992302704,8|2,0:2|0:2,0:0:0:0:
320,76,29370,5,0,1:2:0:0:
320,76,29526,1,0,1:0:0:0:
310,211,29682,2,0,L|320:76,1,111.599992302704,10|0,0:2|1:2,0:0:0:0:
238,41,29995,5,2,1:2:0:0:
238,41,30151,1,0,1:2:0:0:
224,239,30307,2,0,L|232:127,1,111.599992302704,10|2,0:2|0:2,0:0:0:0:
306,254,30620,6,0,P|230:324|145:266,1,223.199984605408,0|8,1:2|0:2,0:0:0:0:
152,68,31088,1,0,1:2:0:0:
224,239,31245,1,0,1:2:0:0:
232,127,31401,2,0,L|224:239,1,111.599992302704,8|0,3:2|0:2,0:0:0:0:
62,302,31713,1,2,1:2:0:0:
313,210,31870,5,0,0:0:0:0:
313,210,32026,1,0,1:2:0:0:
152,68,32182,2,0,L|143:179,1,111.599992302704,8|0,0:2|1:2,0:0:0:0:
274,28,32495,5,0,1:2:0:0:
274,28,32651,1,0,1:2:0:0:
65,95,32807,2,0,L|57:207,1,111.599992302704,12|0,0:2|0:0,0:0:0:0:
152,68,33120,6,0,L|134:291,1,223.199984605408,6|10,1:2|0:2,0:0:0:0:
65,95,33588,1,2,0:2:0:0:
243,198,33745,1,0,1:2:0:0:
50,311,33901,1,2,1:2:0:0:
193,130,34057,2,0,P|246:114|296:135,1,111.599992302704,8|2,0:2|0:2,0:0:0:0:
398,344,34370,5,0,1:2:0:0:
398,344,34526,1,0,1:2:0:0:
164,373,34682,2,0,P|143:322|156:269,1,111.599992302704,8|0,0:2|1:2,0:0:0:0:
339,132,34995,1,0,1:2:0:0:
398,344,35152,5,0,1:2:0:0:
232,130,35308,1,10,0:2:0:0:
226,314,35464,1,2,0:2:0:0:
392,194,35620,6,0,P|411:92|315:52,1,223.199984605408,2|10,1:2|0:2,0:0:0:0:
124,125,36088,1,2,0:2:0:0:
226,314,36245,1,0,1:2:0:0:
339,132,36401,1,2,1:2:0:0:
66,71,36557,2,0,L|69:182,1,111.599992302704,8|2,0:2|0:2,0:0:0:0:
77,353,36870,5,0,1:2:0:0:
77,353,37026,1,0,1:2:0:0:
293,362,37182,2,0,P|309:309|288:259,1,111.599992302704,8|0,0:2|0:2,0:0:0:0:
124,125,37495,1,0,1:2:0:0:
349,203,37651,5,0,1:2:0:0:
74,266,37807,1,10,0:2:0:0:
366,200,37963,1,0,0:2:0:0:
176,48,38120,6,0,B|168:135|168:135|192:175|192:175|184:263,1,223.199984605408,2|10,1:2|0:2,0:0:0:0:
54,173,38588,1,2,0:2:0:0:
270,120,38744,1,0,1:2:0:0:
40,176,38900,1,2,1:2:0:0:
245,318,39057,2,0,P|266:267|251:214,1,111.599992302704,8|2,0:2|0:2,0:0:0:0:
82,61,39370,5,0,1:2:0:0:
82,61,39526,1,0,1:0:0:0:
0,270,39682,2,0,L|111:275,1,111.599992302704,10|0,0:2|0:2,0:0:0:0:
358,287,39995,1,2,1:2:0:0:
183,98,40151,5,0,1:2:0:0:
258,333,40307,1,10,0:2:0:0:
303,135,40463,1,2,0:2:0:0:
117,46,40620,6,0,P|98:98|117:150,1,111.599992302704,0|0,1:2|0:2,0:0:0:0:
425,254,40932,2,0,P|443:202|424:150,1,111.599992302704,8|0,0:2|0:2,0:0:0:0:
183,98,41245,1,2,1:2:0:0:
137,320,41401,1,2,1:2:0:0:
361,202,41557,1,8,0:2:0:0:
124,159,41713,6,0,B|173:196|227:169|227:169|285:140|333:178,1,223.199984605408,6|0,1:2|1:2,0:0:0:0:
194,92,42182,2,0,P|275:72|355:95,1,167.399988454056,10|0,0:2|0:0,0:0:0:0:
424,150,42495,2,0,B|421:206|421:206|439:242|439:242|434:313,1,167.399988454056,6|0,0:3|0:0,0:0:0:0:
361,363,42807,1,6,0:3:0:0:
187,215,42963,1,4,0:3:0:0:
342,101,43120,5,6,1:2:0:0:
342,101,43432,2,0,L|330:286,1,185.99999994278,2|10,1:2|0:2,0:0:0:0:
329,286,44057,1,2,1:2:0:0:
171,77,44213,1,8,0:2:0:0:
433,41,44370,6,0,L|421:226,1,185.99999994278,2|2,1:2|1:2,0:0:0:0:
147,384,44995,2,0,L|159:199,1,185.99999994278,10|2,0:2|1:2,0:0:0:0:
339,279,45463,1,8,0:2:0:0:
140,305,45620,6,0,L|146:212,1,92.9999999713898,2|0,1:2|0:2,0:0:0:0:
15,120,45932,2,0,P|60:117|99:141,1,92.9999999713898,2|0,1:2|0:2,0:0:0:0:
289,140,46245,2,0,P|244:130|202:149,1,92.9999999713898,10|0,0:2|0:2,0:0:0:0:
140,305,46557,1,2,1:2:0:0:
158,65,46713,1,8,0:2:0:0:
332,69,46870,6,0,P|371:148|317:218,2,185.99999994278,2|0|8,1:2|1:2|0:2,0:0:0:0:
158,65,47651,1,0,0:2:0:0:
146,212,47807,2,0,L|140:305,1,92.9999999713898,0|8,1:2|0:2,0:0:0:0:
67,158,48120,5,6,1:2:0:0:
67,158,48432,2,0,L|52:346,1,185.99999994278,0|10,1:0|0:2,0:0:0:0:
52,343,49057,1,2,1:2:0:0:
154,118,49213,1,8,0:2:0:0:
140,304,49370,6,0,L|154:118,1,185.99999994278,2|2,1:2|1:2,0:0:0:0:
154,118,49995,1,10,0:2:0:0:
343,96,50151,1,0,1:2:0:0:
297,275,50307,1,10,0:2:0:0:
234,161,50463,1,0,1:2:0:0:
272,49,50620,6,0,P|343:10|413:50,1,167.399988454056,6|0,1:2|0:0,0:0:0:0:
433,132,50932,2,0,L|420:254,1,111.599992302704,8|0,0:2|0:0,0:0:0:0:
221,242,51245,1,0,1:2:0:0:
343,96,51401,1,0,1:2:0:0:
408,357,51557,1,8,0:2:0:0:
177,313,51713,6,0,P|140:215|226:157,1,223.199984605408,4|0,1:2|1:2,0:0:0:0:
445,124,52182,2,0,P|468:75|454:20,1,111.599992302704,8|0,0:2|0:2,0:0:0:0:
213,13,52495,1,0,1:2:0:0:
332,231,52651,1,0,1:2:0:0:
384,67,52807,2,0,B|331:51|331:51|276:65,1,111.599992302704,8|0,0:2|0:0,0:0:0:0:
79,129,53120,6,0,L|86:241,1,111.599992302704,6|0,1:2|0:2,0:0:0:0:
234,319,53432,2,0,L|241:207,1,111.599992302704,10|0,0:2|0:2,0:0:0:0:
98,384,53745,1,2,1:2:0:0:
232,338,53901,1,0,1:2:0:0:
86,241,54057,2,0,L|79:129,1,111.599992302704,10|0,0:2|0:2,0:0:0:0:
330,82,54370,6,0,L|323:194,1,111.599992302704,2|0,1:2|0:2,0:0:0:0:
165,154,54682,2,0,L|158:42,1,111.599992302704,10|0,0:2|0:2,0:0:0:0:
432,136,54995,1,2,1:2:0:0:
240,207,55151,1,0,1:2:0:0:
273,20,55307,2,0,P|324:-1|376:13,1,111.599992302704,10|0,0:2|0:2,0:0:0:0:
287,275,55620,6,0,P|234:290|183:268,1,111.599992302704,6|0,1:2|0:2,0:0:0:0:
432,136,55932,2,0,L|425:248,1,111.599992302704,10|8,0:2|0:2,0:0:0:0:
330,82,56245,1,2,1:2:0:0:
351,335,56401,1,0,1:2:0:0:
330,82,56557,2,0,L|337:194,1,111.599992302704,10|0,0:2|0:2,0:0:0:0:
166,370,56870,6,0,L|173:258,1,111.599992302704,6|0,1:2|0:0,0:0:0:0:
342,94,57182,2,0,L|349:206,1,111.599992302704,8|0,0:2|0:0,0:0:0:0:
188,49,57495,1,0,1:2:0:0:
174,246,57651,1,0,1:2:0:0:
289,29,57807,2,0,P|341:9|392:28,1,111.599992302704,10|2,0:2|0:2,0:0:0:0:
482,201,58120,6,0,B|471:361|471:361|443:304,1,223.199984605408,2|10,1:2|0:2,0:0:0:0:
342,94,58588,1,2,0:2:0:0:
174,246,58745,1,8,0:2:0:0:
400,212,58901,1,10,0:2:0:0:
400,212,58979,1,0,0:0:0:0:
400,212,59057,1,8,0:2:0:0:
107,81,59213,6,0,B|66:120|66:120|88:285,1,223.199984605408,6|0,1:2|1:2,0:0:0:0:
343,373,59682,2,0,P|367:324|350:272,1,111.599992302704,8|0,0:2|0:2,0:0:0:0:
99,169,59995,1,0,1:2:0:0:
199,384,60151,1,0,1:2:0:0:
399,207,60307,2,0,P|351:189|284:224,1,111.599992302704,10|0,0:2|0:2,0:0:0:0:
447,139,60620,6,0,P|343:106|241:145,1,223.199984605408,6|10,1:2|0:2,0:0:0:0:
7,286,61088,1,2,1:2:0:0:
46,67,61245,5,8,0:2:0:0:
19,275,61401,1,2,1:2:0:0:
128,86,61557,5,8,0:2:0:0:
111,309,61713,1,2,1:2:0:0:
213,96,61870,5,8,0:2:0:0:
207,322,62026,1,0,1:2:0:0:
298,96,62182,5,8,0:2:0:0:
303,322,62338,1,0,1:2:0:0:
381,86,62495,5,8,0:2:0:0:
400,309,62651,1,0,1:2:0:0:
460,67,62807,5,8,0:2:0:0:
488,275,62963,1,0,1:2:0:0:
343,61,63120,5,10,0:2:0:0:
347,341,63276,1,10,0:2:0:0:
239,43,63432,1,10,0:2:0:0:
195,350,63588,1,10,1:2:0:0:
313,336,64995,6,0,L|318:281,1,55.7999961513521,8|8,0:0|0:0,0:0:0:0:
331,126,65151,2,0,L|327:181,1,55.7999961513521,0|0,1:0|1:0,0:0:0:0:
402,276,65307,2,0,B|361:259|320:281|320:281|290:250|245:256,1,167.399988454056,12|0,0:2|0:0,0:0:0:0:
166,276,65620,5,10,0:0:0:0:
124,70,65776,1,10,0:0:0:0:
185,359,65932,1,10,0:0:0:0:
263,105,66088,1,14,0:0:0:0:
286,186,66870,6,0,P|314:202|347:203,2,66.1333307902019,2|2|2,0:0|0:0|0:0,0:0:0:0:
205,173,67182,6,0,P|206:209|223:242,2,74.3999948684694,2|2|2,0:0|0:0|0:0,0:0:0:0:
174,96,67495,6,0,P|139:118|122:155,2,82.6666634877523,2|2|2,0:0|0:0|0:0,0:0:0:0:
259,103,67807,5,10,0:0:0:0:
259,103,68120,6,0,L|249:239,1,136.399998917389,6|0,1:2|0:0,0:0:0:0:
42,312,68432,2,0,L|32:176,1,136.399998917389,8|0,0:2|0:0,0:0:0:0:
328,255,68745,1,0,1:2:0:0:
122,348,68901,1,0,1:2:0:0:
107,101,69057,2,0,B|171:80|171:80|242:101,1,136.399998917389,10|0,0:2|0:2,0:0:0:0:
393,307,69370,6,0,P|336:339|273:318,1,136.399998917389,2|0,1:2|0:2,0:0:0:0:
456,98,69682,2,0,L|450:234,1,136.399998917389,10|0,0:2|0:2,0:0:0:0:
258,309,69995,1,2,1:2:0:0:
332,111,70151,1,0,1:2:0:0:
393,307,70307,2,0,P|336:339|273:318,1,136.399998917389,10|2,0:2|0:2,0:0:0:0:
107,101,70620,6,0,L|100:237,1,136.399998917389,0|0,1:2|0:0,0:0:0:0:
287,183,70932,2,0,L|280:46,1,136.399998917389,8|0,0:2|0:0,0:0:0:0:
199,214,71245,1,0,1:2:0:0:
397,292,71401,1,0,1:2:0:0:
206,371,71557,2,0,L|199:234,1,136.399998917389,10|0,0:2|0:2,0:0:0:0:
318,76,71870,6,0,P|343:137|315:197,1,136.399998917389,2|0,1:2|0:2,0:0:0:0:
128,141,72182,2,0,B|191:116|191:116|257:133,1,136.399998917389,10|0,0:2|0:2,0:0:0:0:
397,292,72495,1,2,1:2:0:0:
199,214,72651,1,0,1:2:0:0:
318,76,72807,2,0,P|343:137|315:197,1,136.399998917389,10|0,0:2|0:2,0:0:0:0:
69,336,73120,6,0,L|59:199,1,136.399998917389,6|0,1:2|0:0,0:0:0:0:
324,333,73432,2,0,L|314:196,1,136.399998917389,8|0,0:2|0:0,0:0:0:0:
241,376,73745,1,0,1:2:0:0:
414,258,73901,1,2,1:2:0:0:
222,152,74057,2,0,L|231:288,1,136.399998917389,10|2,0:2|0:2,0:0:0:0:
284,95,74370,6,0,P|225:66|162:88,1,136.399998917389,2|0,1:2|0:0,0:0:0:0:
366,187,74682,2,0,L|376:51,1,136.399998917389,8|0,0:2|0:0,0:0:0:0:
222,152,74995,1,0,1:2:0:0:
357,275,75151,1,0,1:2:0:0:
376,51,75307,2,0,L|366:187,1,136.399998917389,10|0,0:2|0:2,0:0:0:0:
146,187,75620,6,0,L|135:51,1,136.399998917389,6|0,1:2|0:0,0:0:0:0:
81,242,75932,2,0,P|140:271|202:249,1,136.399998917389,8|0,0:2|0:2,0:0:0:0:
242,44,76245,1,2,1:2:0:0:
28,180,76401,1,0,1:2:0:0:
239,321,76557,2,0,L|249:185,1,136.399998917389,8|0,0:2|0:2,0:0:0:0:
135,51,76870,6,0,L|146:187,1,136.399998917389,6|0,1:2|0:0,0:0:0:0:
365,260,77182,2,0,L|375:124,1,136.399998917389,8|0,0:2|0:2,0:0:0:0:
249,184,77495,2,0,L|258:263,3,68.1999994586945,2|0|0|0,1:2|1:2|1:2|1:2,0:0:0:0:
306,321,77807,1,8,0:2:0:0:
334,338,77885,1,8,0:2:0:0:
368,343,77963,1,8,0:2:0:0:
401,335,78041,1,8,0:2:0:0:
428,315,78120,6,0,L|438:179,1,136.399998917389,6|0,1:2|0:0,0:0:0:0:
232,31,78432,2,0,P|202:91|227:153,1,136.399998917389,8|0,0:2|0:0,0:0:0:0:
386,241,78745,1,0,1:2:0:0:
191,299,78901,1,0,1:2:0:0:
285,95,79057,2,0,B|351:75|351:75|414:97,1,136.399998917389,10|0,0:2|0:2,0:0:0:0:
226,152,79370,6,0,P|202:91|232:31,1,136.399998917389,2|0,1:2|0:2,0:0:0:0:
291,207,79682,2,0,L|154:198,1,136.399998917389,10|0,0:2|0:2,0:0:0:0:
285,95,79995,1,2,1:2:0:0:
338,315,80151,1,0,0:2:0:0:
486,176,80307,2,0,P|428:141|363:156,1,136.399998917389,10|2,0:2|0:2,0:0:0:0:
230,291,80620,6,0,L|93:282,1,136.399998917389,2|0,1:2|0:0,0:0:0:0:
291,207,80932,2,0,L|154:198,1,136.399998917389,8|0,0:2|0:0,0:0:0:0:
327,302,81245,1,0,1:2:0:0:
259,120,81401,1,0,1:2:0:0:
95,139,81557,2,0,P|71:201|99:261,1,136.399998917389,10|0,0:2|0:2,0:0:0:0:
291,207,81870,6,0,L|154:198,1,136.399998917389,2|0,1:2|0:2,0:0:0:0:
74,353,82182,2,0,L|211:344,1,136.399998917389,10|0,0:2|0:2,0:0:0:0:
432,187,82495,1,2,1:2:0:0:
334,364,82651,1,0,1:2:0:0:
360,144,82807,2,0,P|414:105|479:119,1,136.399998917389,10|0,0:2|0:2,0:0:0:0:
423,323,83120,6,0,L|432:186,1,136.399998917389,6|0,1:2|0:0,0:0:0:0:
238,105,83432,2,0,L|247:242,1,136.399998917389,8|0,0:2|0:0,0:0:0:0:
318,38,83745,1,0,1:2:0:0:
118,122,83901,1,2,1:2:0:0:
189,301,84057,2,0,P|251:324|309:293,1,136.399998917389,10|2,0:2|0:2,0:0:0:0:
238,105,84370,6,0,L|247:242,1,136.399998917389,6|0,1:2|0:2,0:0:0:0:
63,187,84682,2,0,P|33:129|54:66,1,136.399998917389,8|0,0:2|0:2,0:0:0:0:
273,25,84995,1,8,0:2:0:0:
118,122,85151,1,0,1:2:0:0:
247,242,85307,2,0,L|238:105,1,136.399998917389,14|0,0:2|0:0,0:0:0:0:
54,66,85620,6,0,P|33:129|63:187,1,136.399998917389,6|0,1:2|0:0,0:0:0:0:
316,95,85932,1,0,0:0:0:0:
77,21,86088,2,0,P|11:130|94:228,1,272.799997834778,8|0,0:0|0:0,0:0:0:0:
387,131,86557,1,8,0:0:0:0:
387,131,86870,6,0,L|382:215,1,68.1999994586945,10|8,0:0|0:0,0:0:0:0:
378,289,87026,1,8,0:0:0:0:
472,113,87182,6,0,B|466:105|466:105|467:91|467:91|456:82|456:82|452:69|452:69|439:64|439:64|431:52|431:52|417:52|417:52|406:42|406:42|392:46|392:46|379:40|379:40|367:48|367:48|353:46|353:46|344:57|344:57|330:59|330:59|325:73|325:73|314:81,1,223.331190312608,10|0,0:0|0:0,0:0:0:0:
276,155,87495,1,10,0:0:0:0:
230,349,87651,1,8,0:3:0:0:
179,185,87807,1,10,0:3:0:0:
236,368,87963,1,10,0:3:0:0:
378,289,88120,6,0,L|385:153,1,136.399998917389,14|0,1:2|0:2,0:0:0:0:
76,79,88432,2,0,L|69:215,1,136.399998917389,8|0,0:2|0:2,0:0:0:0:
230,349,88745,1,8,0:2:0:0:
276,155,88901,1,0,1:2:0:0:
68,233,89057,1,8,0:2:0:0:
209,353,89213,1,0,1:2:0:0:
366,301,89370,6,0,P|393:240|368:180,1,136.399998917389,10|0,0:2|1:2,0:0:0:0:
144,251,89682,1,8,0:2:0:0:
335,381,89838,1,0,1:2:0:0:
434,134,89995,2,0,P|378:100|315:119,1,136.399998917389,10|0,0:2|1:2,0:0:0:0:
78,297,90307,2,0,P|134:331|197:312,1,136.399998917389,10|0,0:2|1:2,0:0:0:0:
115,62,90620,5,12,1:2:0:0:
144,251,90776,1,0,0:2:0:0:
331,322,90932,5,8,0:2:0:0:
360,133,91088,1,0,0:2:0:0:
154,129,91245,5,8,0:2:0:0:
183,318,91401,1,0,1:2:0:0:
347,238,91557,5,8,0:2:0:0:
376,49,91713,1,0,1:2:0:0:
142,157,91870,5,8,0:2:0:0:
171,346,92026,1,0,1:2:0:0:
324,364,92182,5,8,0:2:0:0:
360,133,92338,1,0,1:2:0:0:
185,15,92495,5,8,0:2:0:0:
214,204,92651,1,0,1:2:0:0:
347,238,92807,5,8,0:2:0:0:
376,49,92963,1,0,1:2:0:0:
403,300,93120,6,0,P|340:321|282:289,1,136.399998917389,14|0,1:2|0:2,0:0:0:0:
187,93,93432,2,0,P|124:72|66:104,1,136.399998917389,8|0,0:2|0:2,0:0:0:0:
34,339,93745,1,8,0:2:0:0:
270,277,93901,1,0,1:2:0:0:
131,156,94057,1,8,0:2:0:0:
161,370,94213,1,0,1:2:0:0:
338,227,94370,6,0,P|281:194|217:210,1,136.399998917389,10|0,0:2|1:2,0:0:0:0:
377,322,94682,1,8,0:2:0:0:
300,102,94838,1,0,1:2:0:0:
131,156,94995,2,0,L|138:292,1,136.399998917389,10|0,0:2|1:2,0:0:0:0:
386,221,95307,2,0,L|393:84,1,136.399998917389,10|0,0:2|1:2,0:0:0:0:
185,15,95620,5,14,1:2:0:0:
214,204,95776,1,0,0:2:0:0:
100,364,95932,5,8,0:2:0:0:
131,156,96088,1,0,0:2:0:0:
274,29,96245,5,8,0:2:0:0:
303,218,96401,1,0,1:2:0:0:
83,280,96557,5,8,0:2:0:0:
114,72,96713,1,0,1:2:0:0:
322,103,96870,5,12,1:2:0:0:
291,311,97026,1,0,0:0:0:0:
162,364,97182,5,8,0:0:0:0:
131,156,97338,1,0,0:1:0:0:
274,29,97495,5,0,1:0:0:0:
302,218,97651,2,0,P|270:226|237:219,1,68.1999994586945,0|8,1:0|0:0,0:0:0:0:
131,156,97807,5,8,0:0:0:0:
345,99,97963,1,8,0:0:0:0:
79,90,98120,6,0,P|47:148|67:211,1,136.399998917389,14|0,1:2|0:2,0:0:0:0:
396,165,98432,2,0,P|428:106|408:43,1,136.399998917389,8|0,0:2|0:2,0:0:0:0:
155,25,98745,1,8,0:2:0:0:
188,249,98901,1,0,1:2:0:0:
345,99,99057,1,8,0:2:0:0:
131,156,99213,1,0,1:2:0:0:
291,315,99370,6,0,L|303:179,1,136.399998917389,10|0,0:2|1:2,0:0:0:0:
417,292,99682,1,8,0:2:0:0:
173,335,99838,1,0,1:2:0:0:
246,122,99995,2,0,P|307:97|366:127,1,136.399998917389,10|0,0:2|1:2,0:0:0:0:
165,246,100307,2,0,L|152:110,1,136.399998917389,10|0,0:2|1:2,0:0:0:0:
303,179,100620,5,12,1:2:0:0:
286,370,100776,1,0,0:2:0:0:
135,301,100932,5,8,0:2:0:0:
152,110,101088,1,0,0:2:0:0:
314,69,101245,5,8,0:2:0:0:
297,260,101401,1,0,1:2:0:0:
129,382,101557,5,8,0:2:0:0:
146,191,101713,1,0,1:2:0:0:
297,260,101870,5,8,0:2:0:0:
59,290,102026,1,0,1:2:0:0:
125,109,102182,5,8,0:2:0:0:
340,136,102338,1,0,1:2:0:0:
425,244,102495,5,8,0:2:0:0:
210,271,102651,1,0,1:2:0:0:
125,109,102807,5,8,0:2:0:0:
319,134,102963,1,0,1:2:0:0:
262,335,103120,6,0,P|200:355|143:322,1,136.399998917389,14|0,1:2|0:2,0:0:0:0:
213,140,103432,2,0,B|232:206|232:206|210:271,1,136.399998917389,8|0,0:2|0:2,0:0:0:0:
125,109,103745,1,8,0:2:0:0:
336,138,103901,1,0,1:2:0:0:
203,285,104057,1,8,0:2:0:0:
195,50,104213,1,0,1:2:0:0:
401,85,104370,6,0,P|419:148|385:205,1,136.399998917389,10|0,0:2|1:2,0:0:0:0:
138,232,104682,2,0,P|119:295|153:352,1,136.399998917389,8|0,0:2|1:2,0:0:0:0:
336,138,104995,1,10,0:2:0:0:
283,380,105151,1,0,1:2:0:0:
205,183,105307,2,0,P|147:149|84:167,1,136.399998917389,10|0,0:2|1:2,0:0:0:0:
203,285,105620,5,14,1:2:0:0:
246,84,105776,1,0,0:2:0:0:
83,167,105932,5,8,0:2:0:0:
126,368,106088,1,0,0:2:0:0:
301,315,106245,5,8,0:2:0:0:
344,114,106401,1,0,1:2:0:0:
160,84,106557,5,8,0:2:0:0:
203,285,106713,1,0,1:2:0:0:
392,181,106870,6,0,P|423:90|348:30,1,204.599998376083,4|8,1:2|0:0,0:0:0:0:
268,51,107182,1,8,0:0:0:0:
203,285,107338,1,8,0:0:0:0:
392,181,107495,6,0,P|360:168|327:171,3,68.1999994586945,8|8|8|8,1:2|0:0|0:0|0:0,0:0:0:0:
254,211,107807,1,8,0:0:0:0:
227,230,107885,1,8,0:0:0:0:
194,238,107963,1,8,0:0:0:0:
160,233,108041,1,8,0:0:0:0:
131,216,108120,6,0,L|120:80,1,136.399998917389,14|0,1:2|0:2,0:0:0:0:
403,46,108432,2,0,L|392:181,1,136.399998917389,8|0,0:2|0:2,0:0:0:0:
223,338,108745,1,8,0:2:0:0:
281,106,108901,1,0,1:2:0:0:
384,289,109057,1,8,0:2:0:0:
142,362,109213,1,0,1:2:0:0:
443,342,109370,6,0,P|464:280|430:223,1,136.399998917389,10|0,0:2|1:2,0:0:0:0:
185,193,109682,1,8,0:2:0:0:
330,382,109838,1,0,1:2:0:0:
492,169,109995,2,0,P|434:139|372:163,1,136.399998917389,10|0,0:2|1:2,0:0:0:0:
121,246,110307,2,0,P|179:276|241:252,1,136.399998917389,10|0,0:2|1:2,0:0:0:0:
325,60,110620,5,12,1:2:0:0:
119,87,110776,1,0,0:2:0:0:
35,225,110932,5,8,0:2:0:0:
241,252,111088,1,0,0:2:0:0:
403,133,111245,5,8,0:2:0:0:
197,106,111401,1,0,1:2:0:0:
115,268,111557,5,8,0:2:0:0:
337,240,111713,1,0,1:2:0:0:
197,106,111870,5,8,0:2:0:0:
214,338,112026,1,0,1:2:0:0:
372,379,112182,5,8,0:2:0:0:
404,155,112338,1,0,1:2:0:0:
268,45,112495,5,8,0:2:0:0:
241,252,112651,1,0,1:2:0:0:
372,379,112807,5,8,0:2:0:0:
324,201,112963,1,0,1:2:0:0:
104,230,113120,6,0,P|77:292|108:354,1,136.399998917389,14|0,1:2|0:2,0:0:0:0:
379,261,113432,2,0,P|405:198|375:137,1,136.399998917389,8|0,0:2|0:2,0:0:0:0:
118,54,113745,1,8,0:2:0:0:
159,290,113901,1,0,1:2:0:0:
359,130,114057,1,8,0:2:0:0:
131,136,114213,1,0,1:2:0:0:
250,327,114370,6,0,L|261:191,1,136.399998917389,10|0,0:2|1:2,0:0:0:0:
374,338,114682,1,8,0:2:0:0:
150,379,114838,1,0,1:2:0:0:
196,138,114995,2,0,P|255:107|317:131,1,136.399998917389,10|0,0:2|1:2,0:0:0:0:
393,353,115307,2,0,L|257:342,1,136.399998917389,10|0,0:2|1:2,0:0:0:0:
377,260,115620,5,14,1:2:0:0:
159,290,115776,1,0,0:2:0:0:
88,132,115932,5,8,0:2:0:0:
306,142,116088,1,0,0:2:0:0:
393,353,116245,5,8,0:2:0:0:
424,126,116401,1,0,1:2:0:0:
209,43,116557,5,8,0:2:0:0:
239,261,116713,1,0,1:2:0:0:
412,222,116870,5,6,1:2:0:0:
438,28,117026,2,0,P|405:21|371:24,1,68.1999994586945,0|8,1:0|0:0,0:0:0:0:
194,42,117182,5,8,0:0:0:0:
225,274,117338,1,8,0:0:0:0:
445,299,117495,6,0,P|491:195|422:138,1,204.599998376083,6|8,1:2|0:0,0:0:0:0:
353,136,117807,1,8,0:0:0:0:
128,236,117963,1,8,0:0:0:0:
209,43,118120,6,0,L|204:202,1,136.399998917389,14|0,1:2|0:2,0:0:0:0:
362,361,118432,2,0,L|357:202,1,136.399998917389,8|0,0:2|0:2,0:0:0:0:
174,336,118745,1,8,0:2:0:0:
284,145,118901,1,0,1:2:0:0:
412,293,119057,1,8,0:2:0:0:
213,259,119213,1,0,1:2:0:0:
459,223,119370,6,0,P|494:279|478:343,1,136.399998917389,10|0,0:2|1:2,0:0:0:0:
213,259,119682,1,8,0:2:0:0:
417,140,119838,1,0,1:2:0:0:
356,361,119995,2,0,L|219:351,1,136.399998917389,10|0,0:2|1:2,0:0:0:0:
130,159,120307,2,0,L|266:149,1,136.399998917389,10|0,0:2|1:2,0:0:0:0:
121,271,120620,5,12,1:2:0:0:
140,59,120776,1,0,0:2:0:0:
273,13,120932,5,8,0:2:0:0:
292,225,121088,1,0,0:2:0:0:
149,371,121245,5,8,0:2:0:0:
130,159,121401,1,0,1:2:0:0:
303,101,121557,5,8,0:2:0:0:
284,313,121713,1,0,1:2:0:0:
130,159,121870,5,8,0:2:0:0:
362,179,122026,1,0,1:2:0:0:
419,303,122182,5,8,0:2:0:0:
207,322,122338,1,0,1:2:0:0:
228,148,122495,5,8,0:2:0:0:
440,129,122651,1,0,1:2:0:0:
328,269,122807,5,8,0:2:0:0:
116,250,122963,1,0,1:2:0:0:
390,213,123120,6,0,P|411:275|381:334,1,136.399998917389,14|0,1:2|0:2,0:0:0:0:
73,322,123432,2,0,L|66:185,1,136.399998917389,8|0,0:2|0:2,0:0:0:0:
238,75,123745,1,8,0:2:0:0:
328,269,123901,1,0,1:2:0:0:
116,250,124057,1,8,0:2:0:0:
288,140,124213,1,0,1:2:0:0:
363,351,124370,6,0,L|226:343,1,136.399998917389,10|0,0:2|1:2,0:0:0:0:
131,145,124682,1,8,0:2:0:0:
328,269,124838,1,0,1:2:0:0:
63,315,124995,2,0,P|33:257|53:193,1,136.399998917389,10|0,0:2|1:2,0:0:0:0:
288,140,125307,2,0,P|318:81|298:17,1,136.399998917389,10|0,0:2|1:2,0:0:0:0:
131,145,125620,5,14,1:2:0:0:
171,344,125776,1,0,0:2:0:0:
345,344,125932,5,8,0:2:0:0:
385,145,126088,1,0,0:2:0:0:
171,42,126245,5,8,0:2:0:0:
131,241,126401,1,0,1:2:0:0:
385,241,126558,5,8,0:2:0:0:
345,42,126714,1,0,1:2:0:0:
131,145,126870,5,6,1:2:0:0:
261,345,127026,2,0,L|268:278,1,68.1999994586945,0|8,1:0|0:0,0:0:0:0:
277,125,127182,5,8,0:0:0:0:
149,341,127338,1,8,0:0:0:0:
181,62,127495,5,6,0:3:0:0:
268,278,127651,1,4,0:3:0:0:
273,22,127807,5,4,0:3:0:0:
189,226,127963,1,4,0:3:0:0:
336,379,128120,1,6,0:0:0:0:
256,192,128198,12,0,135620,0:0:0:0:
