osu file format v14

[General]
AudioFilename: audio.mp3
AudioLeadIn: 0
PreviewTime: 65575
Countdown: 0
SampleSet: Soft
StackLeniency: 0.7
Mode: 0
LetterboxInBreaks: 0
WidescreenStoryboard: 0

[Editor]
DistanceSpacing: 1.7
BeatDivisor: 4
GridSize: 32
TimelineZoom: 1.8

[Metadata]
Title:Colorful
TitleUnicode:カラフル
Artist:HAG
ArtistUnicode:H△G
Creator:Sotarks
Version:SMOKELIND's Extreme
Source:
Tags:akitoshi fieryrage corinn -laura- nikakis snownino_ miraclee nevo reform kujinn armin a_r_m_i_n smokelind onlybiscuit brotarks lami taeyang kroytz japanese female vocalist jpop j-pop cut edit short version everlasting night of teenage girls ayyri eiri- colourful
BeatmapID:1945555
BeatmapSetID:931452

[Difficulty]
HPDrainRate:5.2
CircleSize:3.7
OverallDifficulty:9.2
ApproachRate:9.4
SliderMultiplier:1.97
SliderTickRate:1

[Events]
//Background and Video events
0,0,"bg.jpg",0,0
//Break Periods
//Storyboard Layer 0 (Background)
//Storyboard Layer 1 (Fail)
//Storyboard Layer 2 (Pass)
//Storyboard Layer 3 (Foreground)
//Storyboard Sound Samples

[TimingPoints]
620,312.5,4,2,22,42,1,0
620,-114.942528735633,4,2,22,42,0,0
3120,-100,4,2,22,52,0,0
3276,-370.370370370372,4,2,22,52,0,0
3354,-370.370370370372,4,2,22,12,0,0
5541,-370.370370370372,4,2,22,5,0,0
5620,-370.370370370372,4,2,22,52,0,0
8432,-370.370370370372,4,2,22,42,0,0
10620,-103.092783505155,4,2,22,52,0,0
13120,-103.092783505155,4,2,22,72,0,0
23120,-129.87012987013,4,2,22,62,0,0
43120,-149.253731343283,4,2,22,62,0,0
50620,-114.942528735633,4,2,22,62,0,0
63120,-114.942528735633,4,2,22,72,0,0
63823,-114.942528735633,4,2,22,42,0,0
64995,-114.942528735633,4,2,22,62,0,0
65620,-114.942528735633,4,2,22,72,0,0
66870,-129.87012987013,4,2,22,52,0,0
68120,-103.092783505155,4,2,22,72,0,0
85620,-114.942528735633,4,2,22,62,0,0
88120,-103.092783505155,4,2,22,72,0,0
128120,-714.285714285714,4,2,22,62,0,0
128198,-714.285714285714,4,2,22,52,0,0
130620,-714.285714285714,4,2,22,42,0,0
131870,-714.285714285714,4,2,22,32,0,0
134370,-714.285714285714,4,2,22,22,0,0
135620,-714.285714285714,4,2,22,12,0,0

[Colours]
Combo1 : 70,163,255
Combo2 : 94,255,163
Combo3 : 255,132,211
Combo4 : 231,255,60

[HitObjects]
133,37,620,5,0,1:0:0:0:
360,235,932,2,0,P|388:181|396:130,1,85.6950007191811,8|0,0:0|1:0,0:0:0:0:
387,118,1166,1,0,1:0:0:0:
387,118,1245,1,8,0:0:0:0:
211,229,1401,2,0,P|166:217|125:194,1,85.6950007191811,8|0,3:3|3:0,0:0:0:0:
252,0,1713,6,0,P|275:40|286:85,1,85.6950007191811,0|0,1:0|3:0,0:0:0:0:
165,318,2026,1,8,0:0:0:0:
270,120,2182,1,8,0:0:0:0:
346,366,2338,1,8,3:0:0:0:
187,127,2495,5,8,0:0:0:0:
423,112,2651,1,4,0:3:0:0:
276,301,2807,1,8,0:3:0:0:
132,3,3120,5,14,0:2:0:0:
132,3,3276,2,0,B|374:6|192:181|445:176,1,385.627509414734,8|0,0:0|0:0,0:0:0:0:
466,159,5620,5,6,0:2:0:0:
466,159,5776,1,4,0:0:0:0:
83,288,8120,5,14,0:2:0:0:
83,288,8276,1,8,0:0:0:0:
260,103,9057,5,0,1:0:0:0:
255,122,9682,1,0,1:0:0:0:
250,141,10307,1,0,1:0:0:0:
442,17,10620,6,0,P|427:63|418:118,1,95.5450022597466,10|0,0:2|1:2,0:0:0:0:
271,280,10932,1,0,1:2:0:0:
315,42,11088,2,0,P|330:88|339:143,1,95.5450022597466,10|0,0:2|1:2,0:0:0:0:
233,359,11401,1,0,1:2:0:0:
189,121,11557,2,0,P|174:167|165:222,1,95.5450022597466,10|0,0:2|1:2,0:0:0:0:
113,3,11870,5,0,1:2:0:0:
69,241,12026,2,0,P|54:195|45:140,1,95.5450022597466,10|0,0:2|1:2,0:0:0:0:
215,19,12338,1,8,0:3:0:0:
271,280,12495,1,10,0:0:0:0:
314,290,12573,1,0,1:0:0:0:
357,278,12651,1,0,1:0:0:0:
390,246,12729,1,0,1:0:0:0:
403,204,12807,2,0,P|412:129|433:50,1,143.31750338962,6|0,1:2|0:0,0:0:0:0:
480,6,13120,6,0,P|435:20|384:23,1,95.5450022597466,14|0,1:2|0:2,0:0:0:0:
152,151,13432,2,0,P|197:154|253:172,1,95.5450022597466,8|0,0:2|0:2,0:0:0:0:
477,316,13745,5,8,0:2:0:0:
234,267,13901,1,0,1:2:0:0:
452,102,14057,5,8,0:2:0:0:
312,288,14213,1,0,1:2:0:0:
230,47,14370,6,0,P|190:24|136:24,1,95.5450022597466,10|0,0:2|1:2,0:0:0:0:
22,247,14682,5,8,0:2:0:0:
152,99,14838,1,0,1:2:0:0:
191,329,14995,5,10,0:2:0:0:
252,129,15151,1,0,1:2:0:0:
347,368,15307,5,10,0:2:0:0:
270,165,15463,1,0,1:2:0:0:
79,350,15620,6,0,P|74:302|65:241,1,95.5450022597466,12|0,1:2|0:2,0:0:0:0:
214,23,15932,2,0,P|206:72|201:125,1,95.5450022597466,8|0,0:2|0:2,0:0:0:0:
317,353,16245,5,8,0:2:0:0:
404,113,16401,1,0,1:2:0:0:
450,358,16557,5,8,0:2:0:0:
363,118,16713,1,0,1:2:0:0:
161,316,16870,5,8,0:2:0:0:
363,199,17026,1,0,1:2:0:0:
128,165,17182,5,8,0:2:0:0:
351,232,17338,1,0,1:2:0:0:
96,178,17495,5,8,0:2:0:0:
273,27,17651,1,0,1:2:0:0:
270,305,17807,5,8,0:2:0:0:
206,80,17963,1,0,1:2:0:0:
105,319,18120,6,0,P|59:314|14:291,1,95.5450022597466,14|0,1:2|0:2,0:0:0:0:
220,117,18432,2,0,P|262:95|310:90,1,95.5450022597466,8|0,0:2|0:2,0:0:0:0:
391,350,18745,5,8,0:2:0:0:
448,122,18901,1,0,1:2:0:0:
296,381,19057,5,8,0:2:0:0:
239,153,19213,1,0,1:2:0:0:
426,338,19370,6,0,P|433:288|444:239,1,95.5450022597466,10|0,0:2|1:2,0:0:0:0:
263,50,19682,2,0,P|272:98|279:147,1,95.5450022597466,8|0,0:2|1:2,0:0:0:0:
218,340,19995,5,10,0:2:0:0:
125,130,20151,1,0,1:2:0:0:
52,369,20307,5,10,0:2:0:0:
145,159,20463,1,0,1:2:0:0:
235,373,20620,6,0,P|287:378|338:351,1,95.5450022597466,12|0,1:2|0:0,0:0:0:0:
431,123,20932,5,8,0:0:0:0:
476,353,21088,1,0,1:0:0:0:
279,144,21245,2,0,P|268:94|266:47,1,95.5450022597466,8|0,0:0|1:0,0:0:0:0:
457,227,21557,1,8,0:0:0:0:
190,268,21713,6,0,P|135:240|129:122,1,191.090004519493,4|0,1:2|1:0,0:0:0:0:
394,91,22182,1,8,0:0:0:0:
203,177,22338,1,0,0:0:0:0:
395,336,22495,2,0,P|448:330|486:302,1,95.5450022597466,8|0,0:3|1:0,0:0:0:0:
491,228,22729,1,8,0:0:0:0:
491,228,22807,1,10,0:0:0:0:
281,252,22963,1,8,0:0:0:0:
461,44,23120,6,0,B|371:32|405:97|295:76,1,151.689996991013,6|10,1:2|0:2,0:0:0:0:
121,24,23588,2,0,P|148:59|157:98,1,75.8449984955063,2|0,0:2|1:2,0:0:0:0:
67,233,23901,2,0,P|78:199|105:167,1,75.8449984955063,2|8,1:2|0:2,0:0:0:0:
321,169,24213,6,0,P|347:223|290:316,1,151.689996991013,2|0,0:2|1:0,0:0:0:0:
154,384,24682,2,0,P|139:348|134:311,1,75.8449984955063,8|0,0:2|1:2,0:0:0:0:
182,248,24916,1,8,0:2:0:0:
182,248,24995,2,0,P|196:212|201:175,1,75.8449984955063,0|0,1:2|1:2,0:0:0:0:
342,311,25307,1,10,0:2:0:0:
321,169,25463,1,0,0:2:0:0:
182,248,25620,6,0,P|140:233|98:226,1,75.8449984955063,2|0,1:2|0:0,0:0:0:0:
49,334,25932,1,10,0:2:0:0:
189,367,26088,2,0,P|226:355|268:349,1,75.8449984955063,2|0,1:2|1:2,0:0:0:0:
430,299,26401,2,0,P|388:290|349:278,1,75.8449984955063,2|8,1:2|0:2,0:0:0:0:
232,135,26713,6,0,P|260:182|278:276,1,151.689996991013,2|0,0:2|1:0,0:0:0:0:
379,97,27182,2,0,P|417:103|451:122,1,75.8449984955063,8|0,0:2|1:2,0:0:0:0:
452,201,27416,1,8,0:2:0:0:
452,201,27495,2,0,P|432:234|426:271,1,75.8449984955063,0|0,1:2|1:2,0:0:0:0:
284,127,27807,1,10,0:2:0:0:
353,270,27963,1,0,0:2:0:0:
172,301,28120,6,0,P|116:274|95:216,1,75.8449984955063,2|0,1:2|0:0,0:0:0:0:
68,143,28432,1,10,0:2:0:0:
176,67,28588,2,0,P|192:105|198:153,1,75.8449984955063,2|0,1:2|1:2,0:0:0:0:
285,275,28901,2,0,P|291:239|311:195,1,75.8449984955063,2|8,1:2|0:2,0:0:0:0:
471,89,29213,6,0,P|417:26|318:37,1,151.689996991013,2|0,0:2|0:0,0:0:0:0:
218,159,29682,2,0,P|175:156|121:131,1,75.8449984955063,10|0,0:2|1:2,0:0:0:0:
82,99,29916,1,8,0:2:0:0:
82,99,29995,2,0,P|98:155|101:192,1,75.8449984955063,2|0,1:2|1:2,0:0:0:0:
234,34,30307,1,10,0:2:0:0:
207,191,30463,1,2,0:2:0:0:
366,112,30620,6,0,P|417:182|385:255,1,151.689996991013,0|8,1:2|0:2,0:0:0:0:
260,107,31088,2,0,P|225:90|181:84,1,75.8449984955063,0|0,1:2|1:2,0:0:0:0:
58,202,31401,2,0,P|93:185|137:179,1,75.8449984955063,8|0,3:2|0:2,0:0:0:0:
146,349,31713,6,0,P|129:314|123:270,2,75.8449984955063,2|0|0,1:2|0:0|1:2,0:0:0:0:
253,266,32182,2,0,P|270:231|276:187,1,75.8449984955063,8|0,0:2|1:2,0:0:0:0:
179,48,32495,2,0,P|214:65|252:72,1,75.8449984955063,0|0,1:2|1:2,0:0:0:0:
418,99,32807,2,0,P|379:104|345:122,1,75.8449984955063,12|0,0:2|0:0,0:0:0:0:
347,316,33120,6,0,P|405:277|413:208,1,75.8449984955063,6|0,1:2|0:0,0:0:0:0:
340,144,33432,1,10,0:2:0:0:
224,252,33588,2,0,P|178:234|139:204,1,75.8449984955063,2|0,0:2|1:2,0:0:0:0:
32,134,33901,2,0,P|55:164|69:202,1,75.8449984955063,2|8,1:2|0:2,0:0:0:0:
169,94,34213,6,0,B|249:73|221:122|319:96,1,151.689996991013,2|0,0:2|1:2,0:0:0:0:
447,36,34682,2,0,P|430:69|419:111,1,75.8449984955063,8|0,0:2|1:2,0:0:0:0:
392,247,34995,2,0,P|381:212|361:173,1,75.8449984955063,0|0,1:2|1:2,0:0:0:0:
270,28,35307,1,10,0:2:0:0:
388,141,35463,1,2,0:2:0:0:
176,179,35620,6,0,P|137:170|100:141,1,75.8449984955063,2|0,1:2|0:0,0:0:0:0:
245,68,35932,1,10,0:2:0:0:
300,207,36088,2,0,P|338:198|376:169,1,75.8449984955063,2|0,0:2|1:2,0:0:0:0:
468,48,36401,2,0,P|446:80|438:119,1,75.8449984955063,2|8,1:2|0:2,0:0:0:0:
490,296,36713,6,0,P|418:249|352:293,1,151.689996991013,2|0,0:2|1:2,0:0:0:0:
218,366,37182,2,0,P|182:360|141:343,1,75.8449984955063,8|0,0:2|0:2,0:0:0:0:
263,205,37495,1,0,1:2:0:0:
296,320,37651,1,0,1:2:0:0:
125,264,37807,2,0,P|105:234|90:196,1,75.8449984955063,10|0,0:2|0:2,0:0:0:0:
230,88,38120,6,0,P|186:107|140:111,1,75.8449984955063,2|0,1:2|0:0,0:0:0:0:
313,5,38432,1,10,0:2:0:0:
379,158,38588,2,0,P|362:202|335:237,1,75.8449984955063,2|0,0:2|1:2,0:0:0:0:
178,190,38901,2,0,P|225:167|274:163,1,75.8449984955063,2|8,1:2|0:2,0:0:0:0:
322,344,39213,6,0,P|293:288|204:277,1,151.689996991013,2|0,0:2|1:0,0:0:0:0:
53,333,39682,2,0,P|68:300|77:261,1,75.8449984955063,10|0,0:2|0:2,0:0:0:0:
155,141,39995,2,0,P|139:108|131:69,1,75.8449984955063,2|0,1:2|1:2,0:0:0:0:
347,129,40307,1,10,0:2:0:0:
222,91,40463,1,2,0:2:0:0:
397,30,40620,6,0,P|387:68|377:115,1,75.8449984955063,0|0,1:2|0:2,0:0:0:0:
292,274,40932,2,0,P|282:232|272:192,1,75.8449984955063,8|0,0:2|0:2,0:0:0:0:
133,53,41245,1,2,1:2:0:0:
291,110,41401,1,2,1:2:0:0:
80,192,41557,1,8,0:2:0:0:
151,15,41713,6,0,P|170:92|170:190,1,151.689996991013,6|0,1:2|1:2,0:0:0:0:
54,296,42182,2,0,P|81:276|141:257,1,75.8449984955063,10|0,0:2|0:2,0:0:0:0:
295,372,42495,2,0,P|258:357|227:334,1,75.8449984955063,6|4,0:3|0:3,0:0:0:0:
39,271,42807,2,0,P|66:251|126:232,1,75.8449984955063,6|4,0:3|0:3,0:0:0:0:
277,162,43120,6,0,P|270:194|259:225,1,65.9949968782884,6|0,1:2|0:2,0:0:0:0:
150,109,43432,2,0,P|156:141|167:172,1,65.9949968782884,2|0,1:2|0:2,0:0:0:0:
254,22,43745,2,0,P|247:54|236:85,1,65.9949968782884,10|0,0:2|0:2,0:0:0:0:
179,256,44057,1,2,1:2:0:0:
179,256,44213,1,8,0:2:0:0:
300,122,44370,6,0,P|348:103|373:101,1,65.9949968782884,2|0,1:2|0:2,0:0:0:0:
259,225,44682,2,0,P|307:244|332:246,1,65.9949968782884,2|0,1:2|0:2,0:0:0:0:
158,167,44995,2,0,P|206:148|231:146,1,65.9949968782884,10|0,0:2|0:2,0:0:0:0:
384,182,45307,1,2,1:2:0:0:
384,182,45463,1,8,0:2:0:0:
233,291,45620,6,0,P|251:326|258:366,1,65.9949968782884,2|0,1:2|0:2,0:0:0:0:
360,242,45932,2,0,P|368:210|383:181,1,65.9949968782884,2|0,1:2|0:2,0:0:0:0:
241,273,46245,2,0,P|259:308|266:348,1,65.9949968782884,10|0,0:2|0:2,0:0:0:0:
383,230,46557,1,2,1:2:0:0:
383,230,46713,1,8,0:2:0:0:
278,71,46870,6,0,P|203:53|120:51,1,131.989993756577,2|0,1:2|1:2,0:0:0:0:
216,292,47495,2,0,P|252:278|293:272,1,65.9949968782884,8|0,0:2|0:2,0:0:0:0:
456,327,47807,1,0,1:2:0:0:
362,199,47963,1,8,0:2:0:0:
340,370,48120,6,0,P|309:357|277:350,1,65.9949968782884,6|0,1:2|0:2,0:0:0:0:
132,300,48432,2,0,P|162:287|194:280,1,65.9949968782884,0|0,1:0|0:0,0:0:0:0:
340,230,48745,2,0,P|309:217|277:210,1,65.9949968782884,10|0,0:2|0:2,0:0:0:0:
123,156,49057,1,2,1:2:0:0:
216,262,49213,1,8,0:2:0:0:
312,116,49370,6,0,P|321:83|324:51,1,65.9949968782884,2|0,1:2|0:2,0:0:0:0:
213,174,49682,2,0,P|203:141|200:109,1,65.9949968782884,2|0,1:2|0:2,0:0:0:0:
307,267,49995,2,0,P|316:234|319:202,1,65.9949968782884,10|0,0:2|1:2,0:0:0:0:
251,50,50307,1,10,0:2:0:0:
390,151,50463,1,0,1:2:0:0:
192,280,50620,6,0,P|129:254|6:234,2,171.390001438362,6|8|0,1:2|0:2|1:2,0:0:0:0:
366,373,51401,1,0,1:2:0:0:
175,359,51557,1,8,0:2:0:0:
363,191,51713,6,0,P|338:117|237:92,1,171.390001438362,4|0,1:2|1:2,0:0:0:0:
120,252,52182,2,0,P|98:208|91:165,1,85.6950007191811,8|0,0:2|0:2,0:0:0:0:
184,27,52495,1,0,1:2:0:0:
38,107,52651,1,0,1:2:0:0:
231,207,52807,2,0,P|272:198|310:178,1,85.6950007191811,8|0,0:2|0:0,0:0:0:0:
415,2,53120,6,0,P|401:43|392:92,1,85.6950007191811,6|0,1:2|0:2,0:0:0:0:
501,258,53432,2,0,P|492:215|478:175,1,85.6950007191811,10|0,0:2|0:2,0:0:0:0:
313,62,53745,1,2,1:2:0:0:
454,144,53901,1,0,1:2:0:0:
305,300,54057,2,0,P|264:295|214:278,1,85.6950007191811,10|0,0:2|0:2,0:0:0:0:
148,101,54370,6,0,P|177:138|190:180,1,85.6950007191811,2|0,1:2|0:2,0:0:0:0:
68,347,54682,2,0,P|75:300|97:262,1,85.6950007191811,10|0,0:2|0:2,0:0:0:0:
273,167,54995,2,0,P|265:213|243:251,1,85.6950007191811,2|0,1:2|1:2,0:0:0:0:
31,210,55307,2,0,P|69:183|112:173,1,85.6950007191811,10|0,0:2|0:2,0:0:0:0:
300,143,55620,6,0,P|258:131|224:107,1,85.6950007191811,6|0,1:2|0:2,0:0:0:0:
114,0,55932,2,0,P|108:42|88:80,1,85.6950007191811,10|8,0:2|0:2,0:0:0:0:
290,53,56245,1,2,1:2:0:0:
120,95,56401,1,0,1:2:0:0:
282,15,56557,2,0,P|327:3|370:2,1,85.6950007191811,10|0,0:2|0:2,0:0:0:0:
467,158,56870,6,0,B|495:260|437:224|457:333,2,171.390001438362,6|8|0,1:2|0:2|1:2,0:0:0:0:
296,93,57651,1,0,1:2:0:0:
432,269,57807,1,10,0:2:0:0:
308,192,57963,1,2,0:2:0:0:
203,338,58120,6,0,P|162:353|114:354,1,85.6950007191811,2|0,1:2|0:2,0:0:0:0:
249,209,58432,1,10,0:2:0:0:
93,156,58588,2,0,P|54:175|20:210,1,85.6950007191811,2|8,0:2|0:2,0:0:0:0:
239,240,58901,2,0,P|278:221|312:186,1,85.6950007191811,10|8,0:2|0:2,0:0:0:0:
202,8,59213,6,0,P|186:76|171:182,1,171.390001438362,6|0,1:2|1:2,0:0:0:0:
324,60,59682,2,0,P|367:37|411:36,1,85.6950007191811,8|0,0:2|0:2,0:0:0:0:
266,161,59995,1,0,1:2:0:0:
436,184,60151,1,0,1:2:0:0:
310,331,60307,2,0,P|267:354|223:355,1,85.6950007191811,10|0,0:2|0:2,0:0:0:0:
95,182,60620,6,0,P|120:247|124:276,1,85.6950007191811,6|0,1:2|0:0,0:0:0:0:
293,80,60932,2,0,P|275:118|265:160,1,85.6950007191811,10|2,0:2|1:2,0:0:0:0:
372,360,61245,5,8,0:2:0:0:
429,148,61401,1,2,1:2:0:0:
227,136,61557,5,8,0:2:0:0:
397,273,61713,1,2,1:2:0:0:
97,284,61870,5,8,0:2:0:0:
328,215,62026,1,0,1:2:0:0:
131,51,62182,5,8,0:2:0:0:
216,283,62338,1,0,1:2:0:0:
339,37,62495,5,8,0:2:0:0:
175,190,62651,1,0,1:2:0:0:
430,298,62807,5,8,0:2:0:0:
337,78,62963,1,0,1:2:0:0:
253,371,63120,5,10,0:2:0:0:
420,41,63276,1,10,0:2:0:0:
481,377,63432,1,10,0:2:0:0:
339,37,63588,1,10,0:2:0:0:
106,97,64995,5,8,0:0:0:0:
134,65,65073,1,8,0:0:0:0:
174,52,65151,1,0,1:0:0:0:
215,61,65229,1,0,1:0:0:0:
247,89,65307,2,0,B|266:162|214:142|227:227,1,128.542501078772,12|0,0:2|0:0,0:0:0:0:
250,293,65620,5,10,0:0:0:0:
388,10,65776,1,10,0:0:0:0:
401,380,65932,1,10,0:0:0:0:
318,49,66088,1,14,0:0:0:0:
346,149,66870,6,0,P|340:119|335:80,2,50.5633323303375,2|2|2,0:0|0:0|0:0,0:0:0:0:
260,28,67182,2,0,P|255:57|250:85,2,50.5633323303375,2|2|2,0:0|0:0|0:0,0:0:0:0:
160,113,67495,2,0,P|164:142|169:170,2,50.5633323303375,2|2|2,0:0|0:0|0:0,0:0:0:0:
178,16,67807,1,10,0:0:0:0:
178,16,68120,6,0,P|104:37|77:157,2,191.090004519493,6|8|0,1:2|0:2|1:2,0:0:0:0:
266,264,68901,1,0,1:2:0:0:
421,111,69057,2,0,P|442:67|450:21,1,95.5450022597466,10|0,0:2|0:2,0:0:0:0:
156,108,69370,2,0,P|164:154|184:197,1,95.5450022597466,2|0,1:2|0:2,0:0:0:0:
349,81,69682,2,0,P|330:36|302:0,1,95.5450022597466,10|0,0:2|0:2,0:0:0:0:
163,276,69995,2,0,P|203:301|248:316,1,95.5450022597466,2|0,1:2|1:2,0:0:0:0:
470,323,70307,1,10,0:2:0:0:
383,99,70463,1,2,0:2:0:0:
239,324,70620,6,0,P|128:360|75:296,2,191.090004519493,0|8|0,1:2|0:2|1:2,0:0:0:0:
333,129,71401,1,0,1:2:0:0:
163,276,71557,2,0,P|145:229|138:173,1,95.5450022597466,10|0,0:2|0:2,0:0:0:0:
358,37,71870,2,0,P|350:84|333:128,1,95.5450022597466,2|0,1:2|0:2,0:0:0:0:
67,147,72182,2,0,P|99:108|144:75,1,95.5450022597466,10|0,0:2|0:2,0:0:0:0:
370,199,72495,2,0,P|325:215|277:221,1,95.5450022597466,2|0,1:2|1:2,0:0:0:0:
148,0,72807,2,0,P|195:17|241:49,1,95.5450022597466,10|0,0:2|0:2,0:0:0:0:
393,279,73120,6,0,B|277:287|337:205|201:217,2,191.090004519493,6|8|0,1:2|0:2|1:2,0:0:0:0:
468,113,73901,1,2,1:2:0:0:
249,253,74057,1,10,0:2:0:0:
435,189,74213,1,2,0:2:0:0:
220,38,74370,6,0,B|115:23|172:104|14:79,2,191.090004519493,2|8|0,1:2|0:2|1:2,0:0:0:0:
431,105,75151,1,0,1:2:0:0:
196,117,75307,2,0,P|180:166|175:223,1,95.5450022597466,10|0,0:2|0:2,0:0:0:0:
434,150,75620,6,0,P|353:68|279:87,1,191.090004519493,6|8,1:2|0:2,0:0:0:0:
249,253,76088,1,0,0:2:0:0:
201,18,76245,1,2,1:2:0:0:
335,195,76401,1,0,1:2:0:0:
123,69,76557,2,0,P|76:66|27:81,1,95.5450022597466,8|0,0:2|0:2,0:0:0:0:
131,289,76870,6,0,P|180:200|196:106,1,191.090004519493,6|8,1:2|0:2,0:0:0:0:
272,316,77338,1,0,0:2:0:0:
82,130,77495,2,0,P|123:34|251:45,1,191.090004519493,2|8,1:2|0:2,0:0:0:0:
266,64,77885,1,8,0:2:0:0:
266,64,77963,2,0,P|297:66|339:78,1,47.7725011298733,8|8,0:2|0:2,0:0:0:0:
417,283,78120,6,0,B|297:269|365:329|232:314,2,191.090004519493,6|8|0,1:2|0:2|1:2,0:0:0:0:
270,212,78901,1,0,1:2:0:0:
448,100,79057,2,0,P|469:54|474:8,1,95.5450022597466,10|0,0:2|0:2,0:0:0:0:
270,212,79370,2,0,P|288:259|318:294,1,95.5450022597466,2|0,1:2|0:2,0:0:0:0:
366,67,79682,2,0,P|336:25|299:0,1,95.5450022597466,10|0,0:2|0:2,0:0:0:0:
395,265,79995,2,0,P|445:271|490:262,1,95.5450022597466,2|0,1:2|0:2,0:0:0:0:
271,85,80307,1,10,0:2:0:0:
471,180,80463,1,2,0:2:0:0:
216,335,80620,6,0,P|142:267|195:160,2,191.090004519493,2|8|0,1:2|0:2|1:2,0:0:0:0:
371,186,81401,1,0,1:2:0:0:
109,244,81557,2,0,P|91:199|84:136,1,95.5450022597466,10|0,0:2|0:2,0:0:0:0:
331,32,81870,2,0,P|323:79|305:123,1,95.5450022597466,2|0,1:2|0:2,0:0:0:0:
28,88,82182,2,0,P|51:45|95:0,1,95.5450022597466,10|0,0:2|0:2,0:0:0:0:
338,199,82495,2,0,P|296:223|251:236,1,95.5450022597466,2|0,1:2|1:2,0:0:0:0:
164,19,82807,1,10,0:2:0:0:
140,244,82963,1,0,0:2:0:0:
352,80,83120,6,0,P|437:132|438:254,2,191.090004519493,6|8|0,1:2|0:2|1:2,0:0:0:0:
175,145,83901,1,2,1:2:0:0:
385,273,84057,1,10,0:2:0:0:
259,95,84213,1,2,0:2:0:0:
151,338,84370,6,0,P|143:292|139:235,1,95.5450022597466,6|0,1:2|0:2,0:0:0:0:
346,45,84682,2,0,P|342:92|334:139,1,95.5450022597466,8|0,0:2|0:2,0:0:0:0:
184,333,84995,1,8,0:2:0:0:
167,102,85151,1,0,1:2:0:0:
358,256,85307,2,0,P|425:234|453:180,1,95.5450022597466,14|0,0:2|0:0,0:0:0:0:
255,65,85620,6,0,P|236:148|225:235,1,171.390001438362,6|0,1:2|0:0,0:0:0:0:
327,0,86088,1,8,0:0:0:0:
107,30,86245,2,0,P|126:113|137:200,1,171.390001438362,2|8,0:0|0:0,0:0:0:0:
79,335,86713,1,0,0:0:0:0:
225,233,86870,2,0,P|254:224|283:217,2,42.8475003595905,10|8|8,0:0|0:0|0:0,0:0:0:0:
52,320,87182,2,0,P|35:273|35:223,1,85.6950007191811,10|0,0:0|1:0,0:0:0:0:
231,69,87495,2,0,P|227:111|212:151,1,85.6950007191811,10|8,0:0|0:3,0:0:0:0:
86,306,87807,1,10,0:3:0:0:
30,71,87963,1,10,0:3:0:0:
177,260,88120,6,0,P|262:248|289:224,1,95.5450022597466,14|0,1:2|0:2,0:0:0:0:
343,14,88432,2,0,P|258:26|231:50,1,95.5450022597466,8|0,0:2|0:2,0:0:0:0:
156,295,88745,5,8,0:2:0:0:
293,96,88901,1,0,1:2:0:0:
329,367,89057,5,8,0:2:0:0:
279,121,89213,1,0,1:2:0:0:
106,359,89370,6,0,P|58:348|18:315,1,95.5450022597466,10|0,0:2|1:2,0:0:0:0:
166,57,89682,5,8,0:2:0:0:
187,328,89838,1,0,1:2:0:0:
305,65,89995,5,10,0:2:0:0:
178,290,90151,1,0,1:2:0:0:
30,44,90307,5,10,0:2:0:0:
171,261,90463,1,0,1:2:0:0:
320,39,90620,6,0,P|374:18|432:16,1,95.5450022597466,12|0,1:2|0:2,0:0:0:0:
402,300,90932,2,0,P|354:294|310:275,1,95.5450022597466,8|0,0:2|0:2,0:0:0:0:
128,42,91245,5,8,0:2:0:0:
57,296,91401,1,0,1:2:0:0:
293,96,91557,5,8,0:2:0:0:
83,202,91713,1,0,1:2:0:0:
388,248,91870,5,8,0:2:0:0:
155,156,92026,1,0,1:2:0:0:
427,102,92182,5,8,0:2:0:0:
228,271,92338,1,0,1:2:0:0:
338,6,92495,5,8,0:2:0:0:
459,287,92651,1,0,1:2:0:0:
269,66,92807,5,8,0:2:0:0:
212,353,92963,1,0,1:2:0:0:
349,90,93120,6,0,P|398:60|462:50,1,95.5450022597466,14|0,1:2|0:2,0:0:0:0:
308,346,93432,2,0,P|262:333|222:306,1,95.5450022597466,8|0,0:2|0:2,0:0:0:0:
178,32,93745,5,8,0:2:0:0:
88,279,93901,1,0,1:2:0:0:
185,4,94057,5,8,0:2:0:0:
275,251,94213,1,0,1:2:0:0:
96,47,94370,6,0,P|56:29|5:22,1,95.5450022597466,10|0,0:2|1:2,0:0:0:0:
183,272,94682,5,8,0:2:0:0:
263,44,94838,1,0,1:2:0:0:
332,308,94995,5,10,0:2:0:0:
252,80,95151,1,0,1:2:0:0:
158,354,95307,5,10,0:2:0:0:
300,171,95463,1,0,1:2:0:0:
92,304,95620,6,0,P|42:292|-3:268,1,95.5450022597466,14|0,1:2|0:2,0:0:0:0:
275,125,95932,2,0,P|317:103|364:93,1,95.5450022597466,8|0,0:2|0:2,0:0:0:0:
65,202,96245,6,0,P|39:157|26:107,1,95.5450022597466,8|0,0:2|1:2,0:0:0:0:
320,213,96557,2,0,P|364:229|404:256,1,95.5450022597466,8|0,0:2|1:2,0:0:0:0:
121,101,96870,6,0,P|136:51|163:7,1,95.5450022597466,12|0,1:2|0:0,0:0:0:0:
286,294,97182,2,0,P|304:337|311:384,1,95.5450022597466,8|0,0:0|0:1,0:0:0:0:
231,51,97495,6,0,P|277:27|328:17,1,95.5450022597466,0|0,1:0|1:0,0:0:0:0:
394,59,97729,1,8,0:0:0:0:
394,59,97807,2,0,P|374:114|365:192,1,95.5450022597466,8|8,0:0|0:0,0:0:0:0:
444,349,98120,6,0,P|406:328|349:310,1,95.5450022597466,14|0,1:2|0:2,0:0:0:0:
151,177,98432,2,0,P|196:162|238:139,1,95.5450022597466,8|0,0:2|0:2,0:0:0:0:
117,313,98745,5,8,0:2:0:0:
168,82,98901,1,0,1:2:0:0:
220,352,99057,5,8,0:2:0:0:
159,125,99213,1,0,1:2:0:0:
326,332,99370,6,0,P|385:319|424:291,1,95.5450022597466,10|0,0:2|1:2,0:0:0:0:
460,42,99682,5,8,0:2:0:0:
332,253,99838,1,0,1:2:0:0:
233,11,99995,5,10,0:2:0:0:
356,215,100151,1,0,1:2:0:0:
112,95,100307,5,10,0:2:0:0:
336,175,100463,1,0,1:2:0:0:
96,252,100620,6,0,P|77:302|66:363,1,95.5450022597466,12|0,1:2|0:2,0:0:0:0:
332,253,100932,2,0,P|321:206|304:161,1,95.5450022597466,8|0,0:2|0:2,0:0:0:0:
136,18,101245,5,8,0:2:0:0:
193,245,101401,1,0,1:2:0:0:
343,8,101557,5,8,0:2:0:0:
286,235,101713,1,0,1:2:0:0:
160,45,101870,5,8,0:2:0:0:
200,295,102026,1,0,1:2:0:0:
368,86,102182,5,8,0:2:0:0:
332,331,102338,1,0,1:2:0:0:
263,17,102495,5,8,0:2:0:0:
299,262,102651,1,0,1:2:0:0:
202,80,102807,5,8,0:2:0:0:
166,325,102963,1,0,1:2:0:0:
368,86,103120,6,0,P|419:67|465:67,1,95.5450022597466,14|0,1:2|0:2,0:0:0:0:
310,299,103432,2,0,P|262:296|218:279,1,95.5450022597466,8|0,0:2|0:2,0:0:0:0:
86,46,103745,5,8,0:2:0:0:
116,292,103901,1,0,1:2:0:0:
263,17,104057,5,8,0:2:0:0:
233,263,104213,1,0,1:2:0:0:
111,58,104370,6,0,P|61:39|6:30,1,95.5450022597466,10|0,0:2|1:2,0:0:0:0:
155,286,104682,5,8,0:2:0:0:
187,37,104838,1,0,1:2:0:0:
322,295,104995,5,10,0:2:0:0:
135,149,105151,1,0,1:2:0:0:
432,149,105307,5,10,0:2:0:0:
201,206,105463,1,0,1:2:0:0:
386,352,105620,6,0,P|442:346|492:317,1,95.5450022597466,14|0,1:2|0:2,0:0:0:0:
483,91,105932,2,0,P|427:97|377:126,1,95.5450022597466,8|0,0:2|0:2,0:0:0:0:
358,326,106245,6,0,P|414:320|464:291,1,95.5450022597466,8|0,0:2|1:2,0:0:0:0:
455,65,106557,2,0,P|399:71|349:100,1,95.5450022597466,8|0,0:2|1:2,0:0:0:0:
222,298,106870,6,0,P|215:249|196:194,1,95.5450022597466,4|0,1:2|1:0,0:0:0:0:
156,137,107104,1,8,0:0:0:0:
156,137,107182,2,0,P|163:88|182:33,1,95.5450022597466,8|8,0:0|0:0,0:0:0:0:
364,24,107495,1,8,1:2:0:0:
254,150,107651,2,0,P|250:175|248:207,1,47.7725011298733,8|8,0:0|0:0,0:0:0:0:
412,270,107807,2,0,P|409:246|406:222,1,47.7725011298733,8|8,0:0|0:0,0:0:0:0:
281,125,107963,2,0,P|277:150|275:182,1,47.7725011298733,8|8,0:0|0:0,0:0:0:0:
445,304,108120,6,0,P|441:251|428:193,1,95.5450022597466,14|0,1:2|0:2,0:0:0:0:
322,6,108432,2,0,P|312:52|309:100,1,95.5450022597466,8|0,0:2|0:2,0:0:0:0:
348,362,108745,5,8,0:2:0:0:
240,128,108901,1,0,1:2:0:0:
160,384,109057,5,8,0:2:0:0:
254,150,109213,1,0,1:2:0:0:
358,384,109370,6,0,P|406:351|429:314,1,95.5450022597466,10|0,0:2|1:2,0:0:0:0:
426,35,109682,5,8,0:2:0:0:
366,266,109838,1,0,1:2:0:0:
225,10,109995,5,10,0:2:0:0:
285,241,110151,1,0,1:2:0:0:
162,61,110307,5,10,0:2:0:0:
102,292,110463,1,0,1:2:0:0:
251,89,110620,6,0,P|299:70|349:67,1,95.5450022597466,12|0,1:2|0:2,0:0:0:0:
457,288,110932,2,0,P|409:283|365:265,1,95.5450022597466,8|0,0:2|0:2,0:0:0:0:
201,76,111245,5,8,0:2:0:0:
416,184,111401,1,0,1:2:0:0:
122,226,111557,5,8,0:2:0:0:
330,141,111713,1,0,1:2:0:0:
81,98,111870,5,8,0:2:0:0:
247,284,112026,1,0,1:2:0:0:
196,23,112182,5,8,0:2:0:0:
110,263,112338,1,0,1:2:0:0:
288,59,112495,5,8,0:2:0:0:
365,299,112651,1,0,1:2:0:0:
209,110,112807,5,8,0:2:0:0:
432,141,112963,1,0,1:2:0:0:
321,359,113120,6,0,P|338:308|345:260,1,95.5450022597466,14|0,1:2|0:2,0:0:0:0:
159,103,113432,2,0,P|166:150|182:195,1,95.5450022597466,8|0,0:2|0:2,0:0:0:0:
388,316,113745,5,8,0:2:0:0:
166,263,113901,1,0,1:2:0:0:
445,144,114057,5,8,0:2:0:0:
255,286,114213,1,0,1:2:0:0:
183,27,114370,6,0,P|168:77|161:127,1,95.5450022597466,10|0,0:2|1:2,0:0:0:0:
339,310,114682,5,8,0:2:0:0:
162,207,114838,1,0,1:2:0:0:
452,154,114995,5,10,0:2:0:0:
239,252,115151,1,0,1:2:0:0:
376,56,115307,5,10,0:2:0:0:
309,295,115463,1,0,1:2:0:0:
204,48,115620,6,0,P|168:26|108:17,1,95.5450022597466,14|0,1:2|0:2,0:0:0:0:
110,264,115932,2,0,P|156:256|197:232,1,95.5450022597466,8|0,0:2|0:2,0:0:0:0:
344,32,116245,6,0,P|326:81|319:143,1,95.5450022597466,8|0,0:2|1:2,0:0:0:0:
222,324,116557,2,0,P|214:276|197:232,1,95.5450022597466,8|0,0:2|1:2,0:0:0:0:
49,67,116870,6,0,P|93:84|140:91,1,95.5450022597466,6|0,1:2|1:0,0:0:0:0:
216,44,117104,1,8,0:0:0:0:
216,44,117182,2,0,P|195:99|186:173,1,95.5450022597466,8|8,0:0|0:0,0:0:0:0:
354,316,117495,2,0,P|344:269|326:225,1,95.5450022597466,6|0,1:2|1:0,0:0:0:0:
270,164,117729,1,8,0:0:0:0:
270,164,117807,2,0,P|279:117|297:73,1,95.5450022597466,8|8,0:0|0:0,0:0:0:0:
126,254,118120,6,0,P|78:254|37:231,1,95.5450022597466,14|0,1:2|0:2,0:0:0:0:
216,44,118432,2,0,P|253:22|308:22,1,95.5450022597466,8|0,0:2|0:2,0:0:0:0:
251,297,118745,5,8,0:2:0:0:
157,97,118901,1,0,1:2:0:0:
98,367,119057,5,8,0:2:0:0:
192,167,119213,1,0,1:2:0:0:
305,373,119370,6,0,P|358:363|401:337,1,95.5450022597466,10|0,0:2|1:2,0:0:0:0:
427,62,119682,5,8,0:2:0:0:
372,270,119838,1,0,1:2:0:0:
232,42,119995,5,10,0:2:0:0:
287,250,120151,1,0,1:2:0:0:
162,0,120307,5,10,0:2:0:0:
107,208,120463,1,0,1:2:0:0:
316,60,120620,6,0,P|365:39|414:34,1,95.5450022597466,12|0,1:2|0:2,0:0:0:0:
274,276,120932,2,0,P|226:269|183:250,1,95.5450022597466,8|0,0:2|0:2,0:0:0:0:
117,19,121245,5,8,0:2:0:0:
53,269,121401,1,0,1:2:0:0:
141,101,121557,5,8,0:2:0:0:
205,351,121713,1,0,1:2:0:0:
283,73,121870,6,0,P|333:41|377:32,1,95.5450022597466,8|0,0:2|1:2,0:0:0:0:
472,271,122182,2,0,P|426:258|387:230,1,95.5450022597466,8|0,0:2|1:2,0:0:0:0:
263,40,122495,5,8,0:2:0:0:
167,284,122651,1,0,1:2:0:0:
168,48,122807,5,8,0:2:0:0:
264,292,122963,1,0,1:2:0:0:
356,28,123120,6,0,P|345:84|339:144,1,95.5450022597466,14|0,1:2|0:2,0:0:0:0:
267,326,123432,2,0,P|261:278|251:231,1,95.5450022597466,8|0,0:2|0:2,0:0:0:0:
126,27,123745,5,8,0:2:0:0:
60,248,123901,1,0,1:2:0:0:
280,58,124057,5,8,0:2:0:0:
87,150,124213,1,0,1:2:0:0:
287,299,124370,6,0,P|344:293|388:277,1,95.5450022597466,10|0,0:2|1:2,0:0:0:0:
246,55,124682,2,0,P|198:58|153:73,1,95.5450022597466,8|0,0:2|1:2,0:0:0:0:
102,322,124995,5,10,0:2:0:0:
157,104,125151,1,0,1:2:0:0:
226,370,125307,5,10,0:2:0:0:
171,145,125463,1,0,1:2:0:0:
363,374,125620,6,0,P|370:320|387:254,1,95.5450022597466,14|0,1:2|0:2,0:0:0:0:
457,74,125932,2,0,P|467:120|473:167,1,95.5450022597466,8|0,0:2|0:2,0:0:0:0:
268,23,126245,5,8,0:2:0:0:
207,322,126401,1,0,1:2:0:0:
357,50,126557,5,8,0:2:0:0:
408,349,126713,1,0,1:2:0:0:
222,142,126870,6,0,P|173:133|119:145,1,95.5450022597466,6|0,1:2|1:0,0:0:0:0:
66,193,127104,1,8,0:0:0:0:
66,193,127182,2,0,P|89:234|103:279,1,95.5450022597466,8|8,0:0|0:0,0:0:0:0:
238,100,127495,5,6,0:3:0:0:
192,336,127651,1,4,0:3:0:0:
396,168,127807,1,4,0:3:0:0:
208,259,127963,1,4,0:3:0:0:
508,315,128120,6,0,B|103:313|479:-3|12:4,1,661.920008080078,6|0,0:0|0:0,0:0:0:0:
