osu file format v14

[General]
AudioFilename: audio.mp3
AudioLeadIn: 0
PreviewTime: 65575
Countdown: 0
SampleSet: Soft
StackLeniency: 0.7
Mode: 0
LetterboxInBreaks: 0
WidescreenStoryboard: 0

[Editor]
Bookmarks: 22807,42807
DistanceSpacing: 1.4
BeatDivisor: 4
GridSize: 32
TimelineZoom: 1.9

[Metadata]
Title:Colorful
TitleUnicode:カラフル
Artist:HAG
ArtistUnicode:H△G
Creator:Sotarks
Version:Nikakis' Hard
Source:
Tags:akitoshi fieryrage corinn -laura- nikakis snownino_ miraclee nevo reform kujinn armin a_r_m_i_n smokelind onlybiscuit brotarks lami taeyang kroytz japanese female vocalist jpop j-pop cut edit short version everlasting night of teenage girls ayyri eiri- colourful
BeatmapID:1983411
BeatmapSetID:931452

[Difficulty]
HPDrainRate:5
CircleSize:3.8
OverallDifficulty:6
ApproachRate:8
SliderMultiplier:1.5
SliderTickRate:1

[Events]
//Background and Video events
0,0,"bg.jpg",0,0
//Break Periods
2,3476,4870
2,5976,7370
//Storyboard Layer 0 (Background)
//Storyboard Layer 1 (Fail)
//Storyboard Layer 2 (Pass)
//Storyboard Layer 3 (Foreground)
//Storyboard Sound Samples

[TimingPoints]
620,312.5,4,2,22,42,1,0
620,-117.647058823529,4,2,22,42,0,0
10620,-100,4,2,22,42,0,0
13120,-100,4,2,22,72,0,0
23120,-117.647058823529,4,2,22,62,0,0
43120,-133.333333333333,4,2,22,62,0,0
50620,-117.647058823529,4,2,22,62,0,0
60932,-100,4,2,22,62,0,0
63120,-100,4,2,22,72,0,0
63823,-100,4,2,22,42,0,0
64995,-100,4,2,22,62,0,0
65620,-100,4,2,22,72,0,0
66870,-100,4,2,22,52,0,0
67807,-500,4,2,22,52,0,0
68041,-500,4,2,22,52,0,0
68120,-100,4,2,22,72,0,1
85620,-100,4,2,22,62,0,1
86870,-100,4,2,22,62,0,0
88120,-100,4,2,22,72,0,1
128120,-100,4,2,22,62,0,0
128198,-100,4,2,22,52,0,0
128276,-100,4,2,22,52,0,0
130620,-100,4,2,22,42,0,0
131870,-100,4,2,22,32,0,0
134370,-100,4,2,22,22,0,0
135620,-100,4,2,22,12,0,0

[Colours]
Combo1 : 70,163,255
Combo2 : 94,255,163
Combo3 : 255,132,211
Combo4 : 231,255,60

[HitObjects]
52,46,620,5,0,1:0:0:0:
86,168,932,6,0,L|83:242,1,63.7500012159348,8|0,0:0|1:0,0:0:0:0:
95,274,1166,1,0,1:0:0:0:
95,274,1245,2,0,L|98:348,1,63.7500012159348,8|8,0:0|3:3,0:0:0:0:
177,378,1557,1,0,3:0:0:0:
225,303,1713,2,0,L|227:239,1,63.7500012159348,0|0,1:0|3:0,0:0:0:0:
236,150,2026,5,8,0:0:0:0:
236,150,2182,1,8,0:0:0:0:
312,105,2338,1,8,3:0:0:0:
392,144,2495,2,0,P|447:146|468:133,1,63.7500012159348,8|4,0:0|0:3,0:0:0:0:
501,67,2807,1,8,0:3:0:0:
297,15,3120,5,14,0:2:0:0:
297,15,3276,1,8,0:0:0:0:
241,328,5620,5,6,0:2:0:0:
241,328,5776,1,4,0:0:0:0:
65,72,8120,5,14,0:2:0:0:
65,72,8276,1,8,0:0:0:0:
100,153,8432,1,0,1:0:0:0:
115,194,9057,1,0,1:0:0:0:
131,235,9682,1,0,1:0:0:0:
146,276,10307,1,0,1:0:0:0:
262,141,10620,6,0,L|254:39,2,75,10|0|0,0:2|1:0|1:2,0:0:0:0:
304,220,11088,2,0,L|298:294,2,75,10|0|0,0:2|1:0|1:2,0:0:0:0:
262,141,11557,2,0,P|214:107|109:131,1,150,10|0,0:2|1:0,0:0:0:0:
60,178,12026,2,0,L|52:332,1,150,10|8,0:2|0:3,0:0:0:0:
135,363,12495,2,0,L|172:359,3,37.5,10|0|0|0,0:0|1:0|1:0|1:0,0:0:0:0:
216,351,12807,2,0,L|345:362,1,112.5,6|0,1:2|0:0,0:0:0:0:
356,324,13120,6,0,L|349:240,1,75,14|0,1:2|0:2,0:0:0:0:
368,161,13432,2,0,L|375:77,1,75,8|0,0:2|0:2,0:0:0:0:
308,24,13745,2,0,P|258:15|215:35,1,75,8|0,0:2|1:2,0:0:0:0:
163,77,14057,2,0,L|169:151,1,75,8|0,0:2|1:2,0:0:0:0:
196,238,14370,6,0,L|189:312,1,75,10|0,0:2|1:2,0:0:0:0:
118,368,14682,2,0,P|68:377|25:357,1,75,8|0,0:2|1:2,0:0:0:0:
16,284,14995,2,0,L|9:209,1,75,10|0,0:2|1:2,0:0:0:0:
34,122,15307,2,0,L|40:47,1,75,10|0,0:2|1:2,0:0:0:0:
126,20,15620,6,0,P|183:4|250:34,1,112.5,12|0,1:2|0:0,0:0:0:0:
261,53,15932,2,0,L|267:127,1,75,8|0,0:2|0:2,0:0:0:0:
294,214,16245,2,0,L|287:288,1,75,8|0,0:2|1:2,0:0:0:0:
344,358,16557,2,0,P|394:367|437:347,1,75,8|0,0:2|1:2,0:0:0:0:
490,308,16870,6,0,L|483:233,1,75,8|0,0:2|1:2,0:0:0:0:
457,147,17183,2,0,L|463:72,1,75,8|0,0:2|0:0,0:0:0:0:
390,19,17495,2,0,P|339:11|306:25,1,75,8|0,0:2|1:2,0:0:0:0:
265,91,17807,2,0,L|271:165,1,75,8|0,0:2|1:2,0:0:0:0:
294,253,18120,6,0,L|286:375,1,112.5,14|0,1:2|0:0,0:0:0:0:
242,375,18432,2,0,P|205:383|169:373,1,75,8|0,0:2|0:2,0:0:0:0:
140,287,18745,2,0,L|133:212,1,75,8|0,0:2|1:2,0:0:0:0:
161,126,19058,2,0,L|167:51,1,75,8|0,0:2|0:0,0:0:0:0:
86,11,19370,6,0,P|35:3|2:17,1,75,10|0,0:2|1:2,0:0:0:0:
1,99,19682,2,0,L|7:174,1,75,8|0,0:2|1:2,0:0:0:0:
41,257,19995,2,0,L|35:332,1,75,10|0,0:2|1:2,0:0:0:0:
118,368,20307,2,0,P|169:376|202:362,1,75,10|0,0:2|1:2,0:0:0:0:
262,314,20620,6,0,L|252:173,1,112.5,12|0,1:2|0:0,0:0:0:0:
252,156,20932,2,0,L|258:81,1,75,8|0,0:0|1:0,0:0:0:0:
324,20,21245,2,0,P|375:12|408:26,1,75,8|0,0:0|1:0,0:0:0:0:
466,74,21557,1,8,0:0:0:0:
399,134,21713,6,0,L|236:123,1,150,4|0,1:2|1:0,0:0:0:0:
190,192,22182,2,0,P|182:243|196:276,1,75,8|0,0:0|0:0,0:0:0:0:
267,309,22495,2,0,L|346:302,1,75,8|0,0:3|1:0,0:0:0:0:
386,294,22729,1,8,0:0:0:0:
386,294,22807,1,10,0:0:0:0:
417,209,22963,1,8,0:0:0:0:
352,146,23120,6,0,P|290:122|219:169,1,127.50000243187,6|10,1:2|0:2,0:0:0:0:
195,223,23588,2,0,L|189:302,1,63.7500012159348,2|0,0:2|1:2,0:0:0:0:
130,353,23901,2,0,P|79:361|46:347,1,63.7500012159348,2|8,1:2|0:2,0:0:0:0:
8,292,24213,2,0,L|1:135,1,127.50000243187,2|0,0:2|1:0,0:0:0:0:
46,86,24682,2,0,P|86:75|128:89,1,63.7500012159348,8|0,0:2|1:2,0:0:0:0:
190,112,24995,1,0,1:2:0:0:
190,112,25151,1,0,1:2:0:0:
180,200,25307,2,0,L|171:275,1,63.7500012159348,10|0,0:2|0:2,0:0:0:0:
218,340,25620,6,0,P|303:358|347:324,1,127.50000243187,2|10,1:2|0:2,0:0:0:0:
402,283,26088,2,0,L|395:195,1,63.7500012159348,2|0,1:2|1:2,0:0:0:0:
411,130,26401,2,0,L|417:47,1,63.7500012159348,2|8,1:2|0:2,0:0:0:0:
340,18,26713,2,0,B|298:2|298:2|187:16,1,127.50000243187,2|0,0:2|1:0,0:0:0:0:
146,68,27182,2,0,L|150:138,1,63.7500012159348,8|0,0:2|1:2,0:0:0:0:
164,220,27495,1,0,1:2:0:0:
164,220,27651,1,0,1:2:0:0:
241,175,27807,2,0,P|281:164|321:175,1,63.7500012159348,10|0,0:2|0:2,0:0:0:0:
368,227,28120,6,0,P|392:288|346:346,1,127.50000243187,2|10,1:2|0:2,0:0:0:0:
273,343,28588,2,0,L|277:273,1,63.7500012159348,2|0,1:2|1:2,0:0:0:0:
284,190,28901,2,0,L|279:120,1,63.7500012159348,2|8,1:2|0:2,0:0:0:0:
224,56,29213,2,0,P|172:27|92:57,1,127.50000243187,2|0,0:2|1:0,0:0:0:0:
51,112,29682,2,0,L|47:179,1,63.7500012159348,10|0,0:2|1:2,0:0:0:0:
83,257,29995,2,0,P|118:267|153:259,1,63.7500012159348,2|0,1:2|1:2,0:0:0:0:
222,219,30307,2,0,L|216:147,1,63.7500012159348,10|2,0:2|0:2,0:0:0:0:
261,77,30620,6,0,B|323:54|323:54|406:69,1,127.50000243187,0|8,1:2|0:2,0:0:0:0:
458,112,31088,2,0,L|453:182,1,63.7500012159348,0|0,0:0|1:2,0:0:0:0:
410,254,31401,2,0,L|341:259,1,63.7500012159348,8|0,3:2|0:2,0:0:0:0:
275,205,31713,2,0,P|223:171|141:197,1,127.50000243187,2|0,1:2|1:2,0:0:0:0:
104,249,32182,2,0,L|108:322,1,63.7500012159348,8|0,0:2|1:2,0:0:0:0:
178,368,32495,2,0,P|214:374|245:364,1,63.7500012159348,0|0,1:2|1:2,0:0:0:0:
312,315,32807,2,0,L|317:244,1,63.7500012159348,12|0,0:2|0:0,0:0:0:0:
277,170,33120,6,0,B|242:150|242:150|131:159,1,127.50000243187,6|10,1:2|0:2,0:0:0:0:
76,115,33588,2,0,P|65:79|73:44,1,63.7500012159348,2|0,0:2|1:2,0:0:0:0:
148,11,33901,2,0,L|217:7,1,63.7500012159348,2|8,1:2|0:2,0:0:0:0:
287,54,34213,2,0,P|320:117|285:185,1,127.50000243187,2|0,0:2|1:2,0:0:0:0:
228,216,34682,2,0,L|156:212,1,63.7500012159348,8|0,0:2|1:2,0:0:0:0:
92,266,34995,1,0,1:2:0:0:
92,266,35151,1,0,1:2:0:0:
127,347,35307,2,0,L|200:342,1,63.7500012159348,10|0,0:2|0:2,0:0:0:0:
267,296,35620,6,0,P|301:224|265:173,1,127.50000243187,2|10,1:2|0:2,0:0:0:0:
200,151,36088,2,0,L|130:146,1,63.7500012159348,2|0,0:2|1:2,0:0:0:0:
60,99,36401,2,0,P|50:63|61:27,1,63.7500012159348,2|8,1:2|0:2,0:0:0:0:
139,9,36713,2,0,L|289:3,1,127.50000243187,2|0,0:2|1:2,0:0:0:0:
340,54,37182,2,0,P|351:89|345:123,1,63.7500012159348,8|0,0:2|0:2,0:0:0:0:
307,195,37495,1,0,1:2:0:0:
307,195,37651,1,0,1:2:0:0:
223,164,37807,2,0,L|148:159,1,63.7500012159348,10|0,0:2|0:2,0:0:0:0:
86,212,38120,6,0,P|58:282|92:344,1,127.50000243187,2|10,1:2|0:2,0:0:0:0:
163,311,38588,2,0,P|212:303|243:317,1,63.7500012159348,2|0,0:2|1:2,0:0:0:0:
306,342,38901,2,0,P|355:348|381:335,1,63.7500012159348,2|8,1:2|0:2,0:0:0:0:
442,291,39213,2,0,L|450:145,1,127.50000243187,2|0,0:2|1:0,0:0:0:0:
400,88,39682,2,0,P|356:80|320:96,1,63.7500012159348,10|0,0:2|0:2,0:0:0:0:
282,155,39995,2,0,L|291:249,1,63.7500012159348,2|0,1:2|1:2,0:0:0:0:
232,287,40307,2,0,P|191:296|151:280,1,63.7500012159348,10|2,0:2|0:2,0:0:0:0:
88,254,40620,6,0,L|79:98,1,127.50000243187,0|8,1:2|0:2,0:0:0:0:
102,40,41088,1,0,0:2:0:0:
178,86,41245,2,0,P|214:93|250:81,1,63.7500012159348,2|2,1:2|1:2,0:0:0:0:
317,42,41557,1,8,0:2:0:0:
384,99,41713,2,0,P|419:150|383:227,1,127.50000243187,6|0,1:2|1:2,0:0:0:0:
319,242,42182,2,0,L|230:233,1,63.7500012159348,10|0,0:2|0:2,0:0:0:0:
175,194,42495,2,0,L|103:200,1,63.7500012159348,6|4,0:3|0:3,0:0:0:0:
36,247,42807,2,0,P|27:286|37:316,1,63.7500012159348,6|4,0:3|0:3,0:0:0:0:
97,371,43120,6,0,L|220:361,1,112.500004291535,6|2,1:2|1:2,0:0:0:0:
290,190,43745,2,0,L|299:66,1,112.500004291535,10|2,0:2|1:2,0:0:0:0:
364,17,44213,1,8,0:2:0:0:
364,17,44370,2,0,P|401:8|435:21,1,56.2500021457673,2|0,1:2|0:2,0:0:0:0:
491,64,44682,2,0,L|496:132,1,56.2500021457673,2|0,1:2|0:2,0:0:0:0:
450,199,44995,2,0,P|409:220|336:198,1,112.500004291535,10|2,0:2|1:2,0:0:0:0:
276,149,45463,1,8,0:2:0:0:
276,149,45620,6,0,L|281:87,1,56.2500021457673,2|0,1:2|0:2,0:0:0:0:
214,32,45932,2,0,P|177:25|139:37,1,56.2500021457673,2|0,1:2|0:2,0:0:0:0:
81,74,46245,2,0,L|90:211,1,112.500004291535,10|2,0:2|1:2,0:0:0:0:
145,262,46713,1,8,0:2:0:0:
145,262,46870,2,0,P|176:268|205:262,1,56.2500021457673,2|0,1:2|0:2,0:0:0:0:
276,218,47182,2,0,P|307:211|341:219,1,56.2500021457673,0|0,1:2|0:2,0:0:0:0:
412,253,47495,2,0,P|433:326|409:364,1,112.500004291535,8|0,0:2|1:2,0:0:0:0:
331,380,47963,1,8,0:2:0:0:
310,291,48120,6,0,L|317:156,1,112.500004291535,6|2,1:2|1:2,0:0:0:0:
190,39,48745,2,0,P|131:17|75:35,1,112.500004291535,10|2,0:2|1:2,0:0:0:0:
22,93,49213,1,8,0:2:0:0:
22,93,49370,2,0,L|17:173,1,56.2500021457673,2|0,1:2|0:2,0:0:0:0:
61,227,49682,2,0,P|92:234|122:226,1,56.2500021457673,2|0,1:2|0:2,0:0:0:0:
193,183,49995,2,0,L|189:121,1,56.2500021457673,10|0,0:2|1:2,0:0:0:0:
241,53,50307,2,0,P|271:46|301:52,1,56.2500021457673,10|0,0:2|1:2,0:0:0:0:
366,105,50620,6,0,L|360:254,2,127.50000243187,6|8|0,1:2|0:2|1:2,0:0:0:0:
295,50,51401,1,0,1:2:0:0:
295,50,51557,1,8,0:2:0:0:
223,102,51713,2,0,P|196:148|234:231,1,127.50000243187,4|0,1:2|1:2,0:0:0:0:
293,259,52182,2,0,L|381:250,1,63.7500012159348,8|0,0:2|0:2,0:0:0:0:
443,273,52495,2,0,P|452:317|438:353,1,63.7500012159348,0|0,1:2|1:2,0:0:0:0:
370,378,52807,2,0,L|279:372,1,63.7500012159348,8|0,0:2|0:0,0:0:0:0:
261,295,53120,6,0,L|254:149,2,127.50000243187,6|10|2,1:2|0:2|1:2,0:0:0:0:
306,373,53901,1,0,1:2:0:0:
365,306,54057,2,0,P|374:264|357:224,1,63.7500012159348,10|0,0:2|0:2,0:0:0:0:
297,190,54370,2,0,L|151:179,2,127.50000243187,2|10|2,1:2|0:2|1:2,0:0:0:0:
361,128,55151,1,0,1:2:0:0:
309,54,55307,2,0,P|275:45|237:55,1,63.7500012159348,10|0,0:2|0:2,0:0:0:0:
188,117,55620,6,0,L|182:201,1,63.7500012159348,6|0,1:2|0:2,0:0:0:0:
205,266,55932,2,0,L|213:353,1,63.7500012159348,10|8,0:2|0:2,0:0:0:0:
131,372,56245,2,0,P|94:380|61:373,1,63.7500012159348,2|0,1:2|1:2,0:0:0:0:
9,309,56557,2,0,L|15:238,1,63.7500012159348,10|0,0:2|0:2,0:0:0:0:
43,160,56870,2,0,L|34:10,2,127.50000243187,6|8|0,1:2|0:2|1:2,0:0:0:0:
109,220,57651,1,0,1:2:0:0:
158,146,57807,2,0,L|164:66,1,63.7500012159348,10|2,0:2|0:2,0:0:0:0:
230,23,58120,6,0,P|301:5|361:45,1,127.50000243187,2|10,1:2|0:2,0:0:0:0:
410,90,58588,2,0,L|414:158,1,63.7500012159348,2|8,0:2|0:2,0:0:0:0:
370,232,58901,2,0,P|329:240|299:231,1,63.7500012159348,10|8,0:2|0:2,0:0:0:0:
232,187,59213,6,0,P|166:160|104:191,1,127.50000243187,6|0,1:2|1:2,0:0:0:0:
58,246,59682,2,0,L|51:318,1,63.7500012159348,8|0,0:2|0:2,0:0:0:0:
111,376,59995,1,0,1:2:0:0:
111,376,60151,1,0,1:2:0:0:
168,307,60307,2,0,L|162:235,1,63.7500012159348,10|0,0:2|0:2,0:0:0:0:
218,173,60620,6,0,P|290:157|330:177,1,95.6250018239022,6|0,1:2|0:0,0:0:0:0:
345,188,60932,2,0,L|338:262,1,75,10|2,0:2|1:2,0:0:0:0:
381,341,61245,2,0,P|430:349|460:337,1,75,8|2,0:2|1:2,0:0:0:0:
496,263,61557,2,0,L|489:188,1,75,8|2,0:2|1:2,0:0:0:0:
463,101,61870,6,0,L|469:26,1,75,8|0,0:2|1:2,0:0:0:0:
382,5,62182,2,0,P|333:-3|303:9,1,75,8|0,0:2|1:2,0:0:0:0:
243,66,62495,2,0,L|249:140,1,75,8|0,0:2|1:2,0:0:0:0:
276,228,62808,2,0,L|269:302,1,75,8|0,0:2|0:0,0:0:0:0:
197,355,63120,5,10,0:2:0:0:
197,355,63276,1,10,0:2:0:0:
159,273,63432,1,10,0:2:0:0:
159,273,63588,1,10,0:2:0:0:
389,41,64995,6,0,L|453:33,3,37.5,8|8|0|0,0:0|0:0|1:0|1:0,0:0:0:0:
464,61,65307,2,0,P|473:108|456:149,1,75,12|0,0:2|0:0,0:0:0:0:
424,213,65620,5,10,0:0:0:0:
424,213,65776,1,10,0:0:0:0:
338,190,65932,1,10,0:0:0:0:
338,190,66088,1,14,0:0:0:0:
112,289,67807,1,10,0:0:0:0:
209,131,68120,6,0,L|358:142,2,150,6|8|0,1:2|0:2|1:2,0:0:0:0:
145,67,68901,1,0,1:2:0:0:
218,14,69057,2,0,L|306:8,1,75,10|0,0:2|0:2,0:0:0:0:
366,60,69370,6,0,P|376:89|355:159,1,75,2|0,1:2|0:2,0:0:0:0:
289,173,69682,2,0,L|201:167,1,75,10|0,0:2|0:2,0:0:0:0:
143,224,69995,2,0,P|133:253|154:323,1,75,2|0,1:2|1:2,0:0:0:0:
210,361,70307,1,10,0:2:0:0:
210,361,70463,1,2,0:2:0:0:
282,306,70620,6,0,P|347:288|424:348,2,150,0|8|0,1:2|0:2|1:2,0:0:0:0:
210,361,71401,1,0,1:2:0:0:
170,280,71557,2,0,L|165:188,1,75,10|0,0:2|0:2,0:0:0:0:
227,139,71870,2,0,P|262:129|298:138,1,75,2|0,1:2|0:2,0:0:0:0:
376,182,72182,2,0,P|432:188|460:172,1,75,10|0,0:2|0:2,0:0:0:0:
503,109,72495,2,0,L|508:17,1,75,2|0,1:2|1:2,0:0:0:0:
421,7,72807,2,0,P|365:1|337:17,1,75,10|0,0:2|0:2,0:0:0:0:
295,80,73120,6,0,L|304:241,2,150,2|8|0,1:2|0:2|1:2,0:0:0:0:
226,21,73901,1,2,1:2:0:0:
182,98,74057,2,0,L|176:186,1,75,10|2,0:2|0:2,0:0:0:0:
238,239,74370,6,0,P|313:267|380:227,2,150,2|8|0,1:2|0:2|1:2,0:0:0:0:
176,172,75151,1,0,1:2:0:0:
130,249,75307,2,0,L|136:331,1,75,10|0,0:2|0:2,0:0:0:0:
220,354,75620,6,0,B|272:369|272:369|372:349,1,150,2|8,1:2|0:2,0:0:0:0:
424,282,76088,1,0,0:2:0:0:
347,233,76245,2,0,B|185:245,1,150,2|8,1:2|0:2,0:0:0:0:
132,181,76713,1,0,0:2:0:0:
196,118,76870,6,0,B|358:130,1,150,2|8,1:2|0:2,0:0:0:0:
417,74,77338,1,0,0:2:0:0:
349,13,77495,2,0,B|187:25,1,150,2|8,1:2|0:2,0:0:0:0:
158,41,77885,1,8,0:2:0:0:
158,41,77963,1,8,0:2:0:0:
129,126,78120,6,0,B|107:201|107:201|135:284,2,150,6|8|0,1:2|0:2|1:2,0:0:0:0:
158,41,78901,1,0,1:2:0:0:
243,13,79057,2,0,P|298:5|326:17,1,75,10|0,0:2|0:2,0:0:0:0:
377,76,79370,6,0,L|383:170,1,75,2|0,1:2|0:2,0:0:0:0:
296,123,79682,2,0,P|259:115|223:125,1,75,10|0,0:2|0:2,0:0:0:0:
153,182,79995,2,0,L|147:276,1,75,2|0,1:2|0:2,0:0:0:0:
196,332,80307,1,10,0:2:0:0:
196,332,80463,1,2,0:2:0:0:
266,275,80620,6,0,B|313:252|313:252|422:265,2,150,2|8|0,1:2|0:2|1:2,0:0:0:0:
196,332,81401,1,0,1:2:0:0:
274,374,81557,2,0,P|326:381|354:370,1,75,10|0,0:2|0:2,0:0:0:0:
388,294,81870,6,0,L|391:201,1,75,2|0,1:2|0:2,0:0:0:0:
302,236,82182,2,0,P|250:243|222:232,1,75,10|0,0:2|0:2,0:0:0:0:
159,178,82495,2,0,L|156:85,1,75,2|0,1:2|1:2,0:0:0:0:
214,34,82807,2,0,P|266:27|294:38,1,75,10|0,0:2|0:2,0:0:0:0:
362,82,83120,6,0,L|354:243,2,150,6|8|0,1:2|0:2|1:2,0:0:0:0:
286,33,83901,1,2,1:2:0:0:
248,114,84057,2,0,L|253:193,1,75,10|2,0:2|0:2,0:0:0:0:
283,273,84370,6,0,L|278:352,1,75,6|0,1:2|0:2,0:0:0:0:
191,371,84682,2,0,P|152:382|114:374,1,75,8|0,0:2|0:2,0:0:0:0:
54,311,84995,2,0,L|49:236,1,75,8|0,0:2|1:2,0:0:0:0:
76,150,85307,2,0,L|80:75,1,75,14|0,0:2|0:0,0:0:0:0:
156,25,85620,6,0,P|251:5|301:41,1,150,6|0,1:2|0:0,0:0:0:0:
304,119,86088,2,0,L|136:110,1,150,8|0,0:0|0:0,0:0:0:0:
95,179,86557,2,0,P|65:245|89:314,1,150,8|10,0:0|0:0,0:0:0:0:
118,350,86948,1,8,0:0:0:0:
118,350,87026,2,0,L|284:341,1,150,8|0,0:0|1:0,0:0:0:0:
349,303,87495,1,10,0:0:0:0:
349,303,87651,1,8,0:3:0:0:
304,225,87807,1,10,0:3:0:0:
304,225,87963,1,10,0:3:0:0:
317,132,88120,6,0,L|329:14,1,112.5,14|0,1:2|0:0,0:0:0:0:
285,5,88432,2,0,P|238:-3|205:9,1,75,8|0,0:2|0:2,0:0:0:0:
149,69,88745,2,0,L|154:151,1,75,8|0,0:2|1:2,0:0:0:0:
199,221,89057,2,0,P|244:230|287:212,1,75,8|0,0:2|1:2,0:0:0:0:
355,188,89370,6,0,L|349:271,1,75,10|0,0:2|1:2,0:0:0:0:
294,333,89682,2,0,P|251:345|210:332,1,75,8|0,0:2|1:2,0:0:0:0:
167,267,89994,2,0,L|162:185,1,75,10|0,0:2|1:2,0:0:0:0:
195,108,90307,2,0,L|202:16,1,75,10|0,0:2|1:2,0:0:0:0:
112,12,90620,6,0,P|51:9|20:74,1,112.5,12|0,1:2|0:0,0:0:0:0:
23,90,90932,2,0,L|29:179,1,75,8|0,0:2|0:2,0:0:0:0:
87,233,91245,2,0,P|124:241|160:233,1,75,8|0,0:2|1:2,0:0:0:0:
218,165,91557,2,0,L|224:90,1,75,8|0,0:2|1:2,0:0:0:0:
275,15,91870,6,0,P|310:5|347:14,1,75,8|0,0:2|1:2,0:0:0:0:
412,75,92182,2,0,L|418:166,1,75,8|0,0:2|1:2,0:0:0:0:
352,213,92495,2,0,L|278:208,1,75,8|0,0:2|1:2,0:0:0:0:
196,248,92808,2,0,L|202:322,1,75,8|0,0:2|0:0,0:0:0:0:
279,368,93120,6,0,P|334:383|403:356,1,112.5,14|0,1:2|0:0,0:0:0:0:
421,340,93432,2,0,L|427:265,1,75,8|0,0:2|0:2,0:0:0:0:
401,178,93745,2,0,L|396:103,1,75,8|0,0:2|1:2,0:0:0:0:
341,31,94057,2,0,P|305:19|268:26,1,75,8|0,0:2|1:2,0:0:0:0:
201,86,94370,6,0,L|196:160,1,75,10|0,0:2|1:2,0:0:0:0:
223,246,94683,2,0,L|229:320,1,75,8|0,0:2|0:0,0:0:0:0:
152,368,94995,2,0,P|93:377|56:356,1,75,10|0,0:2|1:2,0:0:0:0:
17,308,95307,2,0,L|23:233,1,75,10|0,0:2|1:2,0:0:0:0:
63,152,95620,6,0,L|59:38,1,112.5,14|0,1:2|0:0,0:0:0:0:
98,18,95932,2,0,P|157:9|194:30,1,75,8|0,0:2|0:2,0:0:0:0:
246,61,96245,2,0,L|240:135,1,75,8|0,0:2|1:2,0:0:0:0:
203,217,96557,2,0,L|208:291,1,75,8|0,0:2|1:2,0:0:0:0:
264,362,96870,6,0,P|311:378|381:352,1,112.5,12|0,1:2|0:0,0:0:0:0:
404,332,97182,2,0,L|409:257,1,75,8|0,0:0|0:1,0:0:0:0:
382,170,97495,2,0,L|376:95,1,75,0|0,1:0|1:0,0:0:0:0:
374,50,97729,1,8,0:0:0:0:
374,50,97807,1,8,0:0:0:0:
454,10,97963,1,8,0:0:0:0:
491,92,98120,6,0,L|481:211,1,112.5,14|0,1:2|0:0,0:0:0:0:
474,248,98432,2,0,L|480:323,1,75,8|0,0:2|0:2,0:0:0:0:
401,367,98745,2,0,P|342:376|305:355,1,75,8|0,0:2|1:2,0:0:0:0:
258,315,99057,2,0,L|264:240,1,75,8|0,0:2|1:2,0:0:0:0:
257,150,99370,6,0,L|251:75,1,75,10|0,0:2|1:2,0:0:0:0:
173,29,99682,2,0,P|127:19|91:32,1,75,8|0,0:2|1:2,0:0:0:0:
35,88,99995,2,0,L|29:163,1,75,10|0,0:2|1:2,0:0:0:0:
48,250,100307,2,0,L|54:325,1,75,10|0,0:2|1:2,0:0:0:0:
134,364,100620,6,0,L|144:242,1,112.5,12|0,1:2|0:0,0:0:0:0:
154,208,100932,2,0,L|148:133,1,75,8|0,0:2|0:2,0:0:0:0:
187,52,101245,2,0,P|233:42|269:55,1,75,8|0,0:2|1:2,0:0:0:0:
323,111,101557,2,0,L|317:186,1,75,8|0,0:2|1:2,0:0:0:0:
286,271,101870,6,0,L|292:346,1,75,8|0,0:2|1:2,0:0:0:0:
378,368,102182,2,0,P|424:378|460:365,1,75,8|0,0:2|1:2,0:0:0:0:
489,289,102495,2,0,L|495:214,1,75,8|0,0:2|1:2,0:0:0:0:
470,127,102807,2,0,L|464:52,1,75,8|0,0:2|1:2,0:0:0:0:
380,18,103120,6,0,P|341:2|259:27,1,112.5,14|0,1:2|0:0,0:0:0:0:
241,46,103432,2,0,L|235:121,1,75,8|0,0:2|0:2,0:0:0:0:
255,208,103745,2,0,L|261:283,1,75,8|0,0:2|1:2,0:0:0:0:
205,353,104057,2,0,P|159:363|123:350,1,75,8|0,0:2|1:2,0:0:0:0:
73,287,104370,6,0,L|79:212,1,75,10|0,0:2|1:2,0:0:0:0:
102,125,104682,2,0,L|96:50,1,75,8|0,0:2|1:2,0:0:0:0:
177,10,104995,2,0,P|223:0|259:13,1,75,10|0,0:2|1:2,0:0:0:0:
317,66,105307,2,0,L|311:141,1,75,10|0,0:2|1:2,0:0:0:0:
275,223,105620,6,0,L|284:346,1,112.5,14|0,1:2|0:0,0:0:0:0:
314,366,105932,2,0,P|350:373|386:363,1,75,8|0,0:2|0:2,0:0:0:0:
449,298,106245,2,0,L|443:223,1,75,8|0,0:2|1:2,0:0:0:0:
419,136,106557,2,0,L|425:61,1,75,8|0,0:2|1:2,0:0:0:0:
345,17,106870,6,0,P|309:6|272:14,1,75,4|0,1:2|1:0,0:0:0:0:
240,37,107104,1,8,0:0:0:0:
240,37,107182,1,8,0:0:0:0:
275,120,107338,1,8,0:0:0:0:
201,172,107495,2,0,L|161:169,3,37.5,8|8|8|8,1:2|0:0|0:0|0:0,0:0:0:0:
141,130,107807,2,0,L|138:90,3,37.5,8|8|8|8,0:0|0:0|0:0|0:0,0:0:0:0:
115,53,108120,6,0,P|79:42|42:50,1,75,14|0,1:2|0:2,0:0:0:0:
15,136,108432,2,0,L|11:211,1,75,8|0,0:2|0:2,0:0:0:0:
73,276,108745,2,0,P|108:286|145:278,1,75,8|0,0:2|1:2,0:0:0:0:
217,224,109057,2,0,L|213:149,1,75,8|0,0:2|1:2,0:0:0:0:
264,74,109370,6,0,P|299:63|336:71,1,75,10|0,0:2|1:2,0:0:0:0:
401,132,109682,2,0,L|397:207,1,75,8|0,0:2|1:2,0:0:0:0:
309,182,109995,2,0,P|273:171|236:179,1,75,10|0,0:2|1:2,0:0:0:0:
166,234,110307,2,0,L|170:309,1,75,10|0,0:2|1:2,0:0:0:0:
244,360,110620,6,0,P|300:374|368:341,1,112.5,12|0,1:2|0:0,0:0:0:0:
384,327,110932,2,0,L|388:252,1,75,8|0,0:2|0:2,0:0:0:0:
334,179,111245,2,0,P|297:171|261:179,1,75,8|0,0:2|1:2,0:0:0:0:
179,215,111557,2,0,P|142:222|106:214,1,75,8|0,0:2|1:2,0:0:0:0:
27,170,111870,6,0,L|23:86,1,75,8|0,0:2|1:2,0:0:0:0:
81,26,112182,2,0,P|117:18|153:25,1,75,8|0,0:2|1:2,0:0:0:0:
218,88,112495,2,0,L|214:162,1,75,8|0,0:2|1:2,0:0:0:0:
189,249,112807,2,0,L|192:323,1,75,8|0,0:2|1:2,0:0:0:0:
272,365,113120,6,0,P|331:377|382:355,1,112.5,14|0,1:2|0:0,0:0:0:0:
413,330,113432,2,0,L|416:255,1,75,8|0,0:2|0:2,0:0:0:0:
327,271,113745,2,0,P|277:280|242:266,1,75,8|0,0:2|1:2,0:0:0:0:
179,223,114057,2,0,L|175:148,1,75,8|0,0:2|1:2,0:0:0:0:
264,163,114370,6,0,P|314:172|349:158,1,75,10|0,0:2|1:2,0:0:0:0:
411,116,114682,2,0,L|414:41,1,75,8|0,0:2|1:2,0:0:0:0:
324,51,114995,2,0,P|274:60|239:46,1,75,10|0,0:2|1:2,0:0:0:0:
165,27,115307,2,0,P|115:18|80:32,1,75,10|0,0:2|1:2,0:0:0:0:
27,86,115620,6,0,L|21:217,1,112.5,14|0,1:2|0:0,0:0:0:0:
38,240,115932,2,0,P|88:249|123:235,1,75,8|0,0:2|0:2,0:0:0:0:
193,207,116245,2,0,L|187:120,1,75,8|0,0:2|1:2,0:0:0:0:
241,59,116557,2,0,P|276:49|313:56,1,75,8|0,0:2|1:2,0:0:0:0:
381,116,116870,6,0,L|375:190,1,75,6|0,1:2|1:0,0:0:0:0:
372,235,117104,1,8,0:0:0:0:
372,235,117182,1,8,0:0:0:0:
291,195,117338,1,8,0:0:0:0:
210,236,117495,2,0,L|215:310,1,75,6|0,1:2|1:0,0:0:0:0:
219,355,117729,1,8,0:0:0:0:
219,355,117807,1,8,0:0:0:0:
305,378,117963,1,8,0:0:0:0:
315,288,118120,6,0,L|320:213,1,75,14|0,1:2|0:2,0:0:0:0:
267,140,118432,2,0,P|226:129|179:148,1,75,8|0,0:2|0:2,0:0:0:0:
117,183,118745,2,0,P|76:194|29:175,1,75,8|0,0:2|1:2,0:0:0:0:
4,105,119057,2,0,L|-1:30,1,75,8|0,0:2|1:2,0:0:0:0:
85,3,119370,6,0,P|126:-8|173:11,1,75,10|0,0:2|1:2,0:0:0:0:
226,56,119682,2,0,L|221:131,1,75,8|0,0:2|1:2,0:0:0:0:
185,213,119995,2,0,L|190:288,1,75,10|0,0:2|1:2,0:0:0:0:
249,355,120307,2,0,P|290:366|337:347,1,75,10|0,0:2|1:2,0:0:0:0:
396,308,120620,6,0,L|403:181,1,112.5,12|0,1:2|0:0,0:0:0:0:
402,150,120932,2,0,L|397:75,1,75,8|0,0:2|0:2,0:0:0:0:
323,22,121245,2,0,P|282:11|235:30,1,75,8|0,0:2|1:2,0:0:0:0:
189,84,121557,2,0,L|184:159,1,75,8|0,0:2|1:2,0:0:0:0:
209,245,121870,6,0,L|214:320,1,75,8|0,0:2|1:2,0:0:0:0:
137,367,122182,2,0,P|96:378|49:359,1,75,8|0,0:2|1:2,0:0:0:0:
21,290,122495,2,0,L|26:215,1,75,8|0,0:2|1:2,0:0:0:0:
48,128,122807,2,0,L|43:53,1,75,8|0,0:2|1:2,0:0:0:0:
121,8,123120,6,0,P|183:-8|246:17,1,112.5,14|0,1:2|0:0,0:0:0:0:
263,33,123432,2,0,L|258:108,1,75,8|0,0:2|0:2,0:0:0:0:
236,195,123745,2,0,L|241:270,1,75,8|0,0:2|1:2,0:0:0:0:
285,347,124057,2,0,P|321:354|356:343,1,75,8|0,0:2|1:2,0:0:0:0:
415,275,124370,6,0,L|420:200,1,75,10|0,0:2|1:2,0:0:0:0:
407,111,124682,2,0,L|402:36,1,75,8|0,0:2|1:2,0:0:0:0:
314,11,124995,2,0,P|278:0|242:7,1,75,10|0,0:2|1:2,0:0:0:0:
171,63,125307,2,0,L|166:138,1,75,10|0,0:2|1:2,0:0:0:0:
222,208,125620,6,0,B|261:195|261:195|344:203,1,112.5,14|0,1:2|0:0,0:0:0:0:
369,226,125932,2,0,L|374:301,1,75,8|0,0:2|0:2,0:0:0:0:
310,365,126245,2,0,P|274:375|238:368,1,75,8|0,0:2|1:2,0:0:0:0:
163,318,126557,2,0,L|168:243,1,75,8|0,0:2|1:2,0:0:0:0:
257,258,126870,6,0,P|293:268|329:261,1,75,6|0,1:2|1:0,0:0:0:0:
370,243,127104,1,8,0:0:0:0:
370,243,127182,1,8,0:0:0:0:
384,154,127338,1,8,0:0:0:0:
293,148,127495,2,0,L|200:140,1,75,6|4,0:3|0:3,0:0:0:0:
162,70,127807,2,0,L|255:62,1,75,4|4,0:3|0:3,0:0:0:0:
326,50,128120,5,6,0:0:0:0:
256,192,128198,12,0,135620,0:0:0:0:
