osu file format v14

[General]
AudioFilename: audio.mp3
AudioLeadIn: 0
PreviewTime: 65575
Countdown: 0
SampleSet: Soft
StackLeniency: 0.2
Mode: 0
LetterboxInBreaks: 0
WidescreenStoryboard: 0

[Editor]
DistanceSpacing: 0.3
BeatDivisor: 4
GridSize: 4
TimelineZoom: 2.5

[Metadata]
Title:Colorful
TitleUnicode:カラフル
Artist:HAG
ArtistUnicode:H△G
Creator:Sotarks
Version:Kroytz's Extreme
Source:
Tags:akitoshi fieryrage corinn -laura- nikakis snownino_ miraclee nevo reform kujinn armin a_r_m_i_n smokelind onlybiscuit brotarks lami taeyang kroytz japanese female vocalist jpop j-pop cut edit short version everlasting night of teenage girls ayyri eiri- colourful
BeatmapID:1949675
BeatmapSetID:931452

[Difficulty]
HPDrainRate:5.2
CircleSize:4
OverallDifficulty:9.4
ApproachRate:9.4
SliderMultiplier:1.92
SliderTickRate:1

[Events]
//Background and Video events
0,0,"bg.jpg",0,0
//Break Periods
2,3476,5080
2,5976,7580
//Storyboard Layer 0 (Background)
//Storyboard Layer 1 (Fail)
//Storyboard Layer 2 (Pass)
//Storyboard Layer 3 (Foreground)
//Storyboard Sound Samples

[TimingPoints]
620,312.5,4,2,32,42,1,0
620,-108.695652173913,4,2,32,42,0,0
3120,-98.0392156862745,4,2,32,52,0,0
8432,-98.0392156862745,4,2,32,42,0,0
10620,-98.0392156862745,4,2,32,52,0,0
12807,-98.0392156862745,4,2,32,52,0,0
13041,-98.0392156862745,4,2,32,5,0,0
13120,-98.0392156862745,4,2,32,72,0,1
23120,-108.695652173913,4,2,32,62,0,0
33120,-98.0392156862745,4,2,42,62,0,0
33588,-98.0392156862745,4,2,32,62,0,0
33745,-98.0392156862745,4,2,42,62,0,0
33901,-98.0392156862745,4,2,32,62,0,0
34057,-98.0392156862745,4,2,42,62,0,0
34213,-98.0392156862745,4,2,32,62,0,0
34682,-98.0392156862745,4,2,42,62,0,0
34838,-98.0392156862745,4,2,32,62,0,0
34995,-98.0392156862745,4,2,42,62,0,0
35151,-98.0392156862745,4,2,32,62,0,0
35307,-98.0392156862745,4,2,42,62,0,0
35463,-98.0392156862745,4,2,32,62,0,0
35620,-98.0392156862745,4,2,42,62,0,0
36088,-98.0392156862745,4,2,32,62,0,0
36245,-98.0392156862745,4,2,42,62,0,0
36401,-98.0392156862745,4,2,32,62,0,0
36557,-98.0392156862745,4,2,42,62,0,0
36713,-98.0392156862745,4,2,32,62,0,0
37182,-98.0392156862745,4,2,42,62,0,0
37338,-98.0392156862745,4,2,32,62,0,0
37495,-98.0392156862745,4,2,42,62,0,0
37651,-98.0392156862745,4,2,32,62,0,0
37807,-98.0392156862745,4,2,42,62,0,0
37963,-98.0392156862745,4,2,32,62,0,0
38120,-98.0392156862745,4,2,42,62,0,0
38588,-98.0392156862745,4,2,32,62,0,0
38745,-98.0392156862745,4,2,42,62,0,0
38901,-98.0392156862745,4,2,32,62,0,0
39057,-98.0392156862745,4,2,42,62,0,0
39213,-98.0392156862745,4,2,32,62,0,0
39682,-98.0392156862745,4,2,42,62,0,0
39838,-98.0392156862745,4,2,32,62,0,0
39995,-98.0392156862745,4,2,42,62,0,0
40151,-98.0392156862745,4,2,32,62,0,0
40307,-98.0392156862745,4,2,42,62,0,0
40463,-98.0392156862745,4,2,32,62,0,0
40620,-98.0392156862745,4,2,42,62,0,0
40776,-98.0392156862745,4,2,32,62,0,0
40932,-98.0392156862745,4,2,42,62,0,0
41088,-98.0392156862745,4,2,32,62,0,0
41245,-98.0392156862745,4,2,42,62,0,0
41401,-98.0392156862745,4,2,32,62,0,0
41557,-98.0392156862745,4,2,42,62,0,0
41713,-98.0392156862745,4,2,32,62,0,0
42182,-108.695652173913,4,2,32,62,0,0
42495,-121.951219512195,4,2,32,62,0,0
42807,-138.888888888889,4,2,32,62,0,0
43120,-121.951219512195,4,2,32,62,0,0
50620,-108.695652173913,4,2,42,62,0,0
51401,-108.695652173913,4,2,32,62,0,0
51557,-108.695652173913,4,2,42,62,0,0
51713,-108.695652173913,4,2,32,62,0,0
52182,-108.695652173913,4,2,42,62,0,0
52338,-108.695652173913,4,2,32,62,0,0
52495,-108.695652173913,4,2,42,62,0,0
52651,-108.695652173913,4,2,32,62,0,0
52807,-108.695652173913,4,2,22,62,0,0
53276,-108.695652173913,4,2,32,62,0,0
53432,-108.695652173913,4,2,42,62,0,0
53588,-108.695652173913,4,2,32,62,0,0
53745,-108.695652173913,4,2,42,62,0,0
53901,-108.695652173913,4,2,32,62,0,0
54057,-108.695652173913,4,2,42,62,0,0
54213,-108.695652173913,4,2,32,62,0,0
54370,-108.695652173913,4,2,42,62,0,0
54526,-108.695652173913,4,2,32,62,0,0
54682,-108.695652173913,4,2,42,62,0,0
54838,-108.695652173913,4,2,32,62,0,0
54995,-108.695652173913,4,2,42,62,0,0
55151,-108.695652173913,4,2,32,62,0,0
55307,-108.695652173913,4,2,42,62,0,0
55463,-108.695652173913,4,2,32,62,0,0
55620,-98.0392156862745,4,2,32,62,0,0
55854,-98.0392156862745,4,2,32,5,0,0
55932,-98.0392156862745,4,2,32,62,0,0
56479,-98.0392156862745,4,2,32,5,0,0
56557,-98.0392156862745,4,2,32,62,0,0
56870,-108.695652173913,4,2,42,62,0,0
57651,-108.695652173913,4,2,32,62,0,0
57807,-108.695652173913,4,2,42,62,0,0
57963,-108.695652173913,4,2,32,62,0,0
58120,-108.695652173913,4,2,42,62,0,0
58276,-108.695652173913,4,2,32,62,0,0
58432,-108.695652173913,4,2,42,62,0,0
58588,-108.695652173913,4,2,32,62,0,0
59682,-108.695652173913,4,2,42,62,0,0
59838,-108.695652173913,4,2,32,62,0,0
59995,-108.695652173913,4,2,42,62,0,0
60151,-108.695652173913,4,2,32,62,0,0
60307,-108.695652173913,4,2,42,62,0,0
60541,-108.695652173913,4,2,32,5,0,0
60620,-108.695652173913,4,2,42,62,0,0
61088,-108.695652173913,4,2,32,62,0,0
61245,-108.695652173913,4,2,42,62,0,0
61401,-108.695652173913,4,2,32,62,0,0
61557,-108.695652173913,4,2,42,62,0,0
61713,-108.695652173913,4,2,32,62,0,0
61870,-108.695652173913,4,2,42,62,0,0
62026,-108.695652173913,4,2,32,62,0,0
62182,-108.695652173913,4,2,42,62,0,0
62338,-108.695652173913,4,2,32,62,0,0
62495,-108.695652173913,4,2,42,62,0,0
62651,-108.695652173913,4,2,32,62,0,0
62807,-108.695652173913,4,2,42,62,0,0
62963,-108.695652173913,4,2,32,62,0,0
63120,-108.695652173913,4,2,32,72,0,0
63823,-108.695652173913,4,2,32,42,0,0
64995,-108.695652173913,4,2,32,62,0,0
65307,-138.888888888889,4,2,32,62,0,0
65541,-138.888888888889,4,2,32,5,0,0
65620,-108.695652173913,4,2,32,72,0,0
66870,-121.951219512195,4,2,22,52,0,0
67807,-121.951219512195,4,2,32,52,0,0
68120,-98.0392156862745,4,2,52,72,0,1
68432,-98.0392156862745,4,2,32,72,0,1
68745,-98.0392156862745,4,2,62,72,0,1
68901,-98.0392156862745,4,2,32,72,0,1
69370,-98.0392156862745,4,2,62,72,0,1
69526,-98.0392156862745,4,2,32,72,0,1
69995,-98.0392156862745,4,2,62,72,0,1
70151,-98.0392156862745,4,2,32,72,0,1
70620,-98.0392156862745,4,2,62,72,0,1
70932,-98.0392156862745,4,2,32,72,0,1
71245,-98.0392156862745,4,2,62,72,0,1
71401,-98.0392156862745,4,2,32,72,0,1
71870,-98.0392156862745,4,2,62,72,0,1
72026,-98.0392156862745,4,2,32,72,0,1
72495,-98.0392156862745,4,2,62,72,0,1
72651,-98.0392156862745,4,2,32,72,0,1
73120,-98.0392156862745,4,2,62,72,0,1
73432,-98.0392156862745,4,2,32,72,0,1
73745,-98.0392156862745,4,2,62,72,0,1
73901,-98.0392156862745,4,2,32,72,0,1
74370,-98.0392156862745,4,2,62,72,0,1
74682,-98.0392156862745,4,2,32,72,0,1
74995,-98.0392156862745,4,2,62,72,0,1
75151,-98.0392156862745,4,2,32,72,0,1
75620,-98.0392156862745,4,2,62,72,0,1
75698,-98.0392156862745,4,2,32,72,0,1
76245,-98.0392156862745,4,2,62,72,0,1
76323,-98.0392156862745,4,2,32,72,0,1
76870,-98.0392156862745,4,2,62,72,0,1
76948,-98.0392156862745,4,2,32,72,0,1
77495,-98.0392156862745,4,2,22,72,0,1
78120,-98.0392156862745,4,2,62,72,0,1
78432,-98.0392156862745,4,2,32,72,0,1
78745,-98.0392156862745,4,2,62,72,0,1
78901,-98.0392156862745,4,2,32,72,0,1
79370,-98.0392156862745,4,2,62,72,0,1
79526,-98.0392156862745,4,2,32,72,0,1
79995,-98.0392156862745,4,2,62,72,0,1
80151,-98.0392156862745,4,2,32,72,0,1
80620,-98.0392156862745,4,2,62,72,0,1
80776,-98.0392156862745,4,2,32,72,0,1
81245,-98.0392156862745,4,2,62,72,0,1
81401,-98.0392156862745,4,2,32,72,0,1
81870,-98.0392156862745,4,2,22,72,0,1
82963,-98.0392156862745,4,2,32,72,0,1
83120,-98.0392156862745,4,2,62,72,0,1
83432,-98.0392156862745,4,2,32,72,0,1
83745,-98.0392156862745,4,2,62,72,0,1
83901,-98.0392156862745,4,2,32,72,0,1
84370,-98.0392156862745,4,2,62,72,0,1
84526,-98.0392156862745,4,2,32,72,0,1
84995,-98.0392156862745,4,2,32,72,0,1
85151,-98.0392156862745,4,2,32,72,0,1
85541,-98.0392156862745,4,2,32,5,0,1
85620,-108.695652173913,4,2,32,62,0,1
87182,-89.2857142857143,4,2,32,62,0,1
87416,-89.2857142857143,4,2,32,5,0,1
87495,-108.695652173913,4,2,32,62,0,1
88041,-108.695652173913,4,2,32,62,0,0
88120,-98.0392156862745,4,2,32,72,0,1
108041,-98.0392156862745,4,2,32,72,0,0
108120,-98.0392156862745,4,2,32,72,0,1
128120,-833.333333333333,4,2,32,62,0,0
128198,-833.333333333333,4,2,32,52,0,0
130620,-833.333333333333,4,2,32,42,0,0
131870,-833.333333333333,4,2,32,32,0,0
134370,-833.333333333333,4,2,32,22,0,0
135620,-833.333333333333,4,2,32,12,0,0

[Colours]
Combo1 : 70,163,255
Combo2 : 94,255,163
Combo3 : 255,132,211
Combo4 : 231,255,60

[HitObjects]
57,69,620,5,0,3:2:0:0:
48,77,932,6,0,L|133:99,1,88.3199970351563,8|0,3:2|3:0,0:0:0:0:
224,77,1166,1,0,3:0:0:0:
224,77,1245,2,0,P|223:120|201:158,1,88.3199970351563,8|0,3:2|3:0,0:0:0:0:
115,186,1557,5,0,1:0:0:0:
330,145,1713,1,0,3:0:0:0:
397,223,1870,1,0,1:0:0:0:
86,177,2026,5,8,3:2:0:0:
295,242,2182,1,8,3:2:0:0:
80,283,2338,1,8,3:0:0:0:
362,320,2495,5,8,3:2:0:0:
101,278,2651,1,4,3:0:0:0:
33,359,2807,1,8,3:0:0:0:
479,25,3120,5,6,1:2:0:0:
479,25,3276,1,6,0:2:0:0:
33,359,5620,5,6,1:2:0:0:
33,359,5776,1,6,0:2:0:0:
256,192,8120,5,6,1:2:0:0:
256,192,8276,1,6,0:2:0:0:
256,212,9057,5,2,3:2:0:0:
256,232,9682,1,2,3:2:0:0:
256,252,10307,1,2,3:2:0:0:
95,146,10620,6,0,L|0:120,1,97.9200005976563,8|2,0:0|0:0,0:0:0:0:
104,26,10932,1,0,0:0:0:0:
417,146,11088,6,0,L|512:120,1,97.9200005976563,8|0,0:0|0:0,0:0:0:0:
408,26,11401,1,2,0:0:0:0:
104,358,11557,6,0,P|90:313|104:267,1,97.9200005976563,8|2,0:0|0:0,0:0:0:0:
256,92,11870,1,0,0:0:0:0:
407,358,12026,6,0,P|421:313|408:267,1,97.9200005976563,8|0,0:0|0:0,0:0:0:0:
256,72,12338,1,8,0:3:0:0:
170,192,12495,5,8,3:2:0:0:
208,221,12573,1,8,3:3:0:0:
255,232,12651,1,8,3:2:0:0:
303,221,12729,1,8,3:2:0:0:
341,191,12807,2,0,P|408:166|475:192,1,146.880000896484,4|0,0:2|0:0,0:0:0:0:
505,122,13120,6,0,P|491:168|505:215,1,97.9200005976563,14|0,0:0|0:0,0:0:0:0:
407,358,13432,2,0,P|421:311|407:265,1,97.9200005976563,8|0,0:0|0:0,0:0:0:0:
256,72,13745,1,8,0:0:0:0:
398,254,13901,1,2,0:0:0:0:
169,285,14057,1,8,0:0:0:0:
418,92,14213,1,2,0:0:0:0:
94,179,14370,6,0,L|0:204,1,97.9200005976563,8|2,0:0|0:0,0:0:0:0:
282,59,14682,1,8,0:0:0:0:
195,272,14838,1,2,0:0:0:0:
54,90,14995,2,0,P|28:48|29:0,1,97.9200005976563,8|2,0:0|0:0,0:0:0:0:
220,258,15307,2,0,P|246:217|245:169,1,97.9200005976563,8|2,0:0|0:0,0:0:0:0:
14,369,15620,6,0,B|112:398|112:339|205:367,1,195.840001195313,12|8,0:0|0:0,0:0:0:0:
66,270,16088,1,0,0:0:0:0:
357,259,16245,2,0,L|334:354,1,97.9200005976563,8|2,0:0|0:0,0:0:0:0:
66,270,16557,2,0,L|88:174,1,97.9200005976563,8|2,0:0|0:0,0:0:0:0:
376,98,16870,5,8,0:0:0:0:
134,44,17026,1,2,0:0:0:0:
470,246,17182,1,8,0:0:0:0:
228,192,17338,1,2,0:0:0:0:
484,262,17495,5,8,0:0:0:0:
335,355,17651,1,2,0:0:0:0:
255,71,17807,1,8,0:0:0:0:
107,165,17963,1,2,0:0:0:0:
496,24,18120,6,0,P|510:70|496:117,1,97.9200005976563,12|0,0:0|0:0,0:0:0:0:
335,355,18432,2,0,P|321:308|335:262,1,97.9200005976563,8|0,0:0|0:0,0:0:0:0:
416,70,18745,1,8,0:0:0:0:
208,190,18901,1,2,0:0:0:0:
416,310,19057,1,8,0:0:0:0:
252,26,19213,1,2,0:0:0:0:
95,304,19370,6,0,L|41:386,1,97.9200005976563,8|2,0:0|0:0,0:0:0:0:
221,107,19682,1,8,0:0:0:0:
221,107,19838,1,2,0:0:0:0:
68,174,19995,2,0,B|11:136|11:136|5:107,1,97.9200005976563,8|2,0:0|0:0,0:0:0:0:
211,276,20307,2,0,B|268:313|268:313|297:306,1,97.9200005976563,8|2,0:0|0:0,0:0:0:0:
465,20,20620,6,0,P|371:25|328:108,1,195.840001195313,12|8,0:0|0:0,0:0:0:0:
506,233,21088,1,0,0:0:0:0:
211,276,21245,1,8,0:0:0:0:
422,103,21401,1,2,0:0:0:0:
311,379,21557,1,8,0:0:0:0:
47,20,21713,6,0,P|141:25|184:108,1,195.840001195313,6|2,0:0|0:0,0:0:0:0:
6,233,22182,1,8,0:0:0:0:
90,103,22338,1,2,0:0:0:0:
89,351,22495,2,0,P|136:364|183:352,1,97.9200005976563,8|8,0:3|0:0,0:0:0:0:
215,340,22729,1,8,0:0:0:0:
215,340,22807,1,8,0:0:0:0:
299,210,22963,1,8,0:0:0:0:
453,385,23120,6,0,B|487:350|487:350|487:222,1,176.639994070313,4|8,0:0|0:0,0:0:0:0:
487,80,23588,2,0,B|429:79|429:79|407:101,1,88.3199970351563,0|2,0:0|0:0,0:0:0:0:
299,210,23901,2,0,B|277:231|277:231|219:231,1,88.3199970351563,2|8,0:0|0:0,0:0:0:0:
56,80,24213,6,0,P|132:41|208:80,1,176.639994070313,0|2,0:0|0:0,0:0:0:0:
52,173,24682,2,0,P|10:161|-21:131,1,88.3199970351563,8|2,0:0|0:0,0:0:0:0:
137,132,24916,1,2,0:0:0:0:
137,132,24995,2,0,P|146:174|134:216,1,88.3199970351563,2|2,0:0|0:0,0:0:0:0:
0,353,25307,1,8,0:0:0:0:
52,173,25463,1,0,0:0:0:0:
253,384,25620,6,0,B|284:299|225:299|255:211,1,176.639994070313,2|8,0:0|0:0,0:0:0:0:
169,338,26088,2,0,L|73:338,1,88.3199970351563,0|2,0:0|0:0,0:0:0:0:
334,259,26401,2,0,L|422:259,1,88.3199970351563,2|8,0:0|0:0,0:0:0:0:
169,180,26713,6,0,L|-7:180,1,176.639994070313,0|2,0:0|0:0,0:0:0:0:
169,58,27182,2,0,B|227:57|227:57|249:79,1,88.3199970351563,8|2,0:0|0:0,0:0:0:0:
334,164,27416,1,2,0:0:0:0:
334,164,27495,2,0,B|356:185|356:185|414:185,1,88.3199970351563,2|2,0:0|0:0,0:0:0:0:
379,46,27807,1,8,0:0:0:0:
364,46,27963,1,0,0:0:0:0:
469,261,28120,6,0,P|507:185|470:109,1,176.639994070313,2|8,0:0|0:0,0:0:0:0:
372,270,28588,2,0,P|386:311|417:343,1,88.3199970351563,0|2,0:0|0:0,0:0:0:0:
413,185,28901,2,0,L|324:185,1,88.3199970351563,2|8,0:0|0:0,0:0:0:0:
107,292,29213,6,0,B|177:292|177:292|201:268|201:268|273:268,1,176.639994070313,0|2,0:0|0:0,0:0:0:0:
23,334,29682,2,0,P|12:292|23:250,1,88.3199970351563,8|2,0:0|0:0,0:0:0:0:
102,199,29916,1,2,0:0:0:0:
102,199,29995,2,0,P|112:157|102:115,1,88.3199970351563,2|2,0:0|0:0,0:0:0:0:
24,0,30307,1,8,0:0:0:0:
178,0,30463,1,0,0:0:0:0:
253,130,30620,6,0,P|329:168|406:131,2,176.639994070313,2|8|2,0:0|0:0|0:0,0:0:0:0:
503,25,31401,2,0,L|503:113,1,88.3199970351563,8|0,0:0|0:0,0:0:0:0:
503,280,31713,1,2,0:0:0:0:
507,297,31870,5,0,1:0:0:0:
327,345,32026,1,2,0:0:0:0:
392,230,32182,1,8,0:0:0:0:
211,279,32338,1,2,0:0:0:0:
512,314,32495,5,0,1:0:0:0:
331,363,32651,1,2,0:0:0:0:
397,247,32807,1,8,0:0:0:0:
216,296,32963,1,0,0:0:0:0:
32,15,33120,6,0,B|51:88|51:88|31:122|31:122|52:200,1,195.840001195313,4|8,0:0|0:0,0:0:0:0:
132,136,33588,2,0,B|187:121|187:121|222:141,1,97.9200005976563,0|2,0:0|0:0,0:0:0:0:
77,290,33901,2,0,B|21:304|21:304|-13:284,1,97.9200005976563,2|8,0:0|0:0,0:0:0:0:
247,155,34213,6,0,L|436:104,1,195.840001195313,0|2,0:0|0:0,0:0:0:0:
314,252,34682,5,8,0:0:0:0:
367,5,34838,1,2,0:0:0:0:
425,222,34995,5,0,0:0:0:0:
256,34,35151,1,2,0:0:0:0:
178,275,35307,2,0,L|83:249,1,97.9200005976563,8|0,0:0|0:0,0:0:0:0:
395,333,35620,6,0,B|439:307|439:307|300:269,1,195.840001195313,2|8,0:0|0:0,0:0:0:0:
69,266,36088,2,0,L|164:292,1,97.9200005976563,0|2,0:0|0:0,0:0:0:0:
409,278,36401,2,0,L|314:252,1,97.9200005976563,2|8,0:0|0:0,0:0:0:0:
45,175,36713,6,0,P|-20:241|2:332,1,195.840001195313,0|2,0:0|0:0,0:0:0:0:
257,317,37182,5,8,0:0:0:0:
69,266,37338,1,2,0:0:0:0:
206,127,37495,1,0,0:0:0:0:
137,384,37651,1,2,0:0:0:0:
395,316,37807,2,0,L|489:291,1,97.9200005976563,8|0,0:0|0:0,0:0:0:0:
273,61,38120,6,0,P|182:38|115:103,1,195.840001195313,2|8,0:0|0:0,0:0:0:0:
228,217,38588,2,0,P|229:168|205:126,1,97.9200005976563,0|2,0:0|0:0,0:0:0:0:
41,218,38901,2,0,L|135:193,1,97.9200005976563,2|8,0:0|0:0,0:0:0:0:
453,6,39213,6,0,B|426:54|426:54|462:189,1,195.840001195313,0|2,0:0|0:0,0:0:0:0:
488,381,39682,2,0,B|505:351|505:351|489:290,1,97.9200005976563,8|2,0:0|0:0,0:0:0:0:
218,307,39995,1,0,0:0:0:0:
388,261,40151,1,2,0:0:0:0:
118,187,40307,2,0,B|101:216|101:216|117:278,1,97.9200005976563,8|0,0:0|0:0,0:0:0:0:
404,271,40620,6,0,L|309:296,1,97.9200005976563,2|0,0:0|0:0,0:0:0:0:
13,318,40932,2,0,L|108:293,1,97.9200005976563,8|0,0:0|0:0,0:0:0:0:
212,120,41245,1,2,0:0:0:0:
99,307,41401,1,2,0:0:0:0:
29,47,41557,1,8,0:0:0:0:
303,145,41713,6,0,P|235:210|145:185,1,195.840001195313,4|0,0:0|0:0,0:0:0:0:
372,75,42182,2,0,L|397:169,1,88.3199970351563,8|0,0:0|0:0,0:0:0:0:
512,183,42495,2,0,L|491:258,1,78.7200012011719,0|0,0:0|0:0,0:0:0:0:
372,290,42807,2,0,L|389:356,1,69.1200016875,0|2,0:0|0:0,0:0:0:0:
127,335,43120,6,0,B|153:291|153:291|256:264,1,157.440002402344,6|2,0:0|0:0,0:0:0:0:
281,257,43588,1,0,0:0:0:0:
89,213,43745,2,0,L|12:233,1,78.7200012011719,8|0,0:0|0:0,0:0:0:0:
217,369,44057,2,0,L|293:348,1,78.7200012011719,2|0,0:0|1:0,0:0:0:0:
399,151,44370,6,0,P|386:227|433:287,1,157.440002402344,2|2,0:0|0:0,0:0:0:0:
477,204,44838,1,0,0:0:0:0:
413,61,44995,2,0,P|373:62|339:81,1,78.7200012011719,8|0,0:0|0:0,0:0:0:0:
233,147,45307,2,0,P|267:166|307:168,1,78.7200012011719,2|0,0:0|1:0,0:0:0:0:
161,46,45620,6,0,L|140:122,1,78.7200012011719,2|0,0:0|0:0,0:0:0:0:
40,104,45932,2,0,L|19:180,1,78.7200012011719,2|0,0:0|0:0,0:0:0:0:
165,215,46245,2,0,L|144:291,1,78.7200012011719,8|0,0:0|0:0,0:0:0:0:
44,273,46557,2,0,L|23:349,1,78.7200012011719,2|0,0:0|1:0,0:0:0:0:
256,264,46870,6,0,B|359:291|359:291|385:335,1,157.440002402344,2|2,0:0|0:0,0:0:0:0:
398,355,47495,1,8,0:0:0:0:
466,207,47651,1,0,0:0:0:0:
411,375,47807,1,2,0:0:0:0:
343,123,47963,1,0,1:0:0:0:
218,357,48120,6,0,B|142:337,1,78.7200012011719,6|0,0:0|0:0,0:0:0:0:
2,272,48432,2,0,B|78:252,1,78.7200012011719,2|0,0:0|0:0,0:0:0:0:
218,186,48745,2,0,B|141:166,1,78.7200012011719,8|0,0:0|0:0,0:0:0:0:
2,100,49057,1,2,0:0:0:0:
96,245,49213,1,0,1:0:0:0:
231,13,49370,6,0,P|212:47|212:86,1,78.7200012011719,2|0,0:0|0:0,0:0:0:0:
319,203,49682,2,0,P|318:163|300:129,1,78.7200012011719,2|0,0:0|0:0,0:0:0:0:
124,159,49995,5,8,0:0:0:0:
350,301,50151,1,2,0:0:0:0:
106,163,50307,5,8,0:0:0:0:
367,296,50463,1,2,0:0:0:0:
465,0,50620,6,0,P|408:64|424:148,2,176.639994070313,6|8|2,0:0|0:0|0:0,0:0:0:0:
498,89,51401,1,2,0:0:0:0:
319,41,51557,1,8,0:0:0:0:
470,330,51713,6,0,P|527:266|511:182,1,176.639994070313,6|2,0:0|0:0,0:0:0:0:
351,218,52182,2,0,L|436:240,1,88.3199970351563,8|0,0:0|0:0,0:0:0:0:
239,307,52495,1,2,0:0:0:0:
454,247,52651,1,2,0:0:0:0:
377,384,52807,1,0,1:0:0:0:
36,101,53120,6,0,P|15:62|13:18,1,88.3199970351563,6|0,0:0|0:0,0:0:0:0:
120,169,53432,2,0,P|140:130|142:86,1,88.3199970351563,8|0,0:0|0:0,0:0:0:0:
41,289,53745,2,0,P|20:250|19:207,1,88.3199970351563,2|2,0:0|0:0,0:0:0:0:
124,356,54057,2,0,P|145:317|147:274,1,88.3199970351563,8|0,0:0|0:0,0:0:0:0:
242,107,54370,6,0,L|327:129,1,88.3199970351563,2|0,0:0|0:0,0:0:0:0:
511,214,54682,2,0,L|425:236,1,88.3199970351563,8|0,0:0|0:0,0:0:0:0:
300,317,54995,2,0,L|322:231,1,88.3199970351563,2|2,0:0|0:0,0:0:0:0:
407,48,55307,2,0,L|429:133,1,88.3199970351563,8|0,0:0|0:0,0:0:0:0:
495,378,55620,6,0,B|450:352|450:352|358:377,1,146.880000896484,4|0,0:0|0:0,0:0:0:0:
300,317,55932,2,0,L|252:329,3,48.9600002988281,8|0|0|0,3:2|3:0|3:0|3:0,0:0:0:0:
148,384,56245,6,0,B|173:340|173:340|149:248,1,146.880000896484,2|0,0:0|0:0,0:0:0:0:
58,230,56557,2,0,L|70:277,3,48.9600002988281,8|0|0|0,3:2|3:0|3:0|3:0,0:0:0:0:
180,257,56870,6,0,L|134:86,2,176.639994070313,6|8|2,0:0|0:0|0:0,0:0:0:0:
273,173,57651,1,2,0:0:0:0:
392,211,57807,1,8,0:0:0:0:
246,50,57963,1,0,1:0:0:0:
300,296,58120,6,0,L|322:381,1,88.3199970351563,2|0,0:0|0:0,0:0:0:0:
365,88,58432,1,8,0:0:0:0:
329,356,58588,6,0,L|307:271,1,88.3199970351563,0|8,0:0|0:3,0:0:0:0:
225,339,58901,2,0,L|194:369,1,44.1599985175782,8|0,3:2|3:0,0:0:0:0:
410,290,59057,2,0,L|452:301,1,44.1599985175782,8|0,3:2|3:0,0:0:0:0:
420,20,59213,6,0,L|375:191,1,176.639994070313,6|2,0:0|0:0,0:0:0:0:
246,50,59682,1,8,0:0:0:0:
273,173,59838,1,0,0:0:0:0:
152,134,59995,1,2,0:0:0:0:
365,88,60152,1,2,0:0:0:0:
59,218,60307,6,0,B|38:182|38:182|62:94,1,132.479995552735,8|0,0:0|0:0,0:0:0:0:
145,252,60620,6,0,P|82:309|0:289,1,176.639994070313,4|8,0:2|0:0,0:0:0:0:
152,134,61088,1,0,0:0:0:0:
256,384,61245,5,8,0:0:0:0:
503,279,61401,1,2,0:0:0:0:
145,252,61557,5,8,0:0:0:0:
392,357,61713,1,2,0:0:0:0:
419,100,61870,5,8,0:0:0:0:
310,302,62026,1,2,0:0:0:0:
307,0,62182,5,8,0:0:0:0:
408,262,62338,1,2,0:0:0:0:
93,284,62495,6,0,L|16:328,1,88.3199970351563,8|2,0:0|0:0,0:0:0:0:
419,100,62807,2,0,L|495:55,1,88.3199970351563,8|2,0:0|0:0,0:0:0:0:
204,383,63120,5,8,0:0:0:0:
64,140,63276,1,8,0:0:0:0:
307,0,63432,1,8,0:0:0:0:
447,243,63588,1,10,0:0:0:0:
256,193,64995,5,8,3:2:0:0:
256,193,65073,1,8,3:2:0:0:
256,193,65151,1,4,3:3:0:0:
256,193,65229,1,4,3:3:0:0:
256,193,65307,2,0,L|282:293,1,103.68000253125,6|0,3:2|0:0,0:0:0:0:
308,383,65620,5,8,0:0:0:0:
448,140,65776,1,8,0:0:0:0:
205,0,65932,1,8,0:0:0:0:
65,243,66088,1,10,0:0:0:0:
65,243,66870,6,0,L|38:288,2,52.4800008007813,2|2|2,0:0|0:0|0:0,0:0:0:0:
168,184,67183,2,0,L|220:184,2,52.4800008007813,2|2|2,0:0|0:0|0:0,0:0:0:0:
66,126,67495,2,0,L|39:80,2,52.4800008007813,2|2|2,0:0|0:0|0:0,0:0:0:0:
167,303,67807,1,8,1:2:0:0:
450,16,68120,6,0,P|491:102|450:187,2,195.840001195313,4|8|2,0:0|0:0|0:0,0:0:0:0:
256,102,68901,1,2,0:0:0:0:
404,267,69057,2,0,P|451:280|498:268,1,97.9200005976563,8|0,0:0|0:0,0:0:0:0:
278,89,69370,2,0,L|252:183,1,97.9200005976563,2|0,0:0|0:0,0:0:0:0:
404,288,69682,2,0,P|451:301|498:289,1,97.9200005976563,8|0,0:0|0:0,0:0:0:0:
300,76,69995,2,0,L|274:170,1,97.9200005976563,2|2,0:0|0:0,0:0:0:0:
224,350,70307,1,8,0:0:0:0:
166,105,70463,1,0,0:0:0:0:
13,334,70620,6,0,B|61:306|61:306|196:342,2,195.840001195313,2|8|2,0:0|0:0|0:0,0:0:0:0:
195,227,71401,1,2,0:0:0:0:
340,384,71557,2,0,P|365:342|364:294,1,97.9200005976563,8|0,0:0|0:0,0:0:0:0:
129,292,71870,2,0,P|103:250|104:202,1,97.9200005976563,2|0,0:0|0:0,0:0:0:0:
395,349,72182,2,0,P|396:300|371:259,1,97.9200005976563,8|0,0:0|0:0,0:0:0:0:
74,257,72495,2,0,P|73:208|98:167,1,97.9200005976563,2|2,0:0|0:0,0:0:0:0:
425,291,72807,2,0,P|401:248|359:225,1,97.9200005976563,8|0,0:0|0:0,0:0:0:0:
44,198,73120,6,0,P|106:128|200:134,2,195.840001195313,2|8|2,0:0|0:0|0:0,0:0:0:0:
294,65,73901,1,2,0:0:0:0:
235,258,74057,1,8,0:0:0:0:
103,5,74213,1,0,0:0:0:0:
235,258,74370,6,0,P|329:265|392:194,2,195.840001195313,2|8|2,0:0|0:0|0:0,0:0:0:0:
507,180,75151,1,2,0:0:0:0:
495,371,75307,2,0,P|465:332|460:284,1,97.9200005976563,8|0,0:0|0:0,0:0:0:0:
438,89,75620,5,2,3:2:0:0:
445,82,75698,1,0,3:2:0:0:
452,75,75776,1,0,3:2:0:0:
459,69,75854,1,0,3:2:0:0:
466,63,75932,2,0,L|371:88,1,97.9200005976563,8|0,3:2|0:0,0:0:0:0:
186,28,76245,5,2,3:2:0:0:
179,21,76323,1,0,3:2:0:0:
172,14,76401,1,2,3:2:0:0:
165,7,76479,1,0,3:2:0:0:
158,0,76557,2,0,L|253:25,1,97.9200005976563,8|0,3:2|0:0,0:0:0:0:
119,182,76870,5,2,3:2:0:0:
95,174,76948,1,0,3:2:0:0:
95,149,77026,1,0,3:2:0:0:
119,142,77104,1,0,3:2:0:0:
133,162,77182,2,0,P|146:208|134:255,1,97.9200005976563,8|0,0:0|0:0,0:0:0:0:
0,384,77495,5,2,3:2:0:0:
35,366,77573,1,2,3:2:0:0:
73,360,77651,1,2,3:2:0:0:
111,366,77729,1,2,3:2:0:0:
145,384,77807,2,0,P|169:387|193:383,1,48.9600002988281,10|10,0:0|0:0,0:0:0:0:
251,310,77963,2,0,P|275:306|299:309,1,48.9600002988281,10|10,0:0|0:0,0:0:0:0:
468,384,78120,6,0,B|510:341|510:341|510:205,2,195.840001195313,6|8|2,0:0|0:0|0:0,0:0:0:0:
468,118,78901,1,2,0:0:0:0:
322,208,79057,2,0,P|275:220|228:208,1,97.9200005976563,8|0,0:0|0:0,0:0:0:0:
132,0,79370,2,0,P|177:17|208:54,1,97.9200005976563,2|0,0:0|0:0,0:0:0:0:
165,279,79682,2,0,P|138:238|135:189,1,97.9200005976563,8|0,0:0|0:0,0:0:0:0:
302,34,79995,2,0,P|299:82|273:123,1,97.9200005976563,2|2,0:0|0:0,0:0:0:0:
48,151,80307,2,0,P|78:113|123:95,1,97.9200005976563,8|0,0:0|0:0,0:0:0:0:
322,208,80620,5,2,0:0:0:0:
434,8,80776,1,0,0:0:0:0:
361,296,80932,5,8,0:0:0:0:
473,96,81088,1,0,0:0:0:0:
400,384,81245,5,2,0:0:0:0:
512,184,81401,1,2,0:0:0:0:
304,373,81557,6,0,P|256:385|209:374,1,97.9200005976563,8|0,0:0|0:0,0:0:0:0:
0,184,81870,6,0,L|18:121,2,65.2800003984375,2|2|2,0:0|0:0|0:0,0:0:0:0:
140,266,82182,2,0,L|122:203,2,65.2800003984375,10|2|2,0:0|0:0|0:0,0:0:0:0:
0,351,82495,2,0,L|18:288,2,65.2800003984375,2|2|2,0:0|0:0|0:0,0:0:0:0:
84,66,82807,1,8,0:0:0:0:
148,295,82963,1,0,0:0:0:0:
377,57,83120,6,0,P|284:38|214:101,2,195.840001195313,6|8|2,0:0|0:0|0:0,0:0:0:0:
84,66,83901,1,0,0:0:0:0:
313,143,84057,1,8,0:0:0:0:
148,295,84213,1,0,0:0:0:0:
377,372,84370,5,6,0:0:0:0:
170,302,84526,1,0,0:0:0:0:
441,227,84682,5,8,0:0:0:0:
191,308,84838,1,0,0:0:0:0:
398,378,84995,5,8,0:0:0:0:
212,314,85151,1,2,0:0:0:0:
468,149,85307,2,0,P|517:199|513:271,1,146.880000896484,12|0,0:0|0:0,0:0:0:0:
300,314,85620,6,0,B|320:270|320:270|441:227,1,176.639994070313,6|0,0:0|0:0,0:0:0:0:
165,118,86088,2,0,L|-1:57,1,176.639994070313,8|0,0:0|0:0,0:0:0:0:
300,56,86557,2,0,L|330:138,1,88.3199970351563,8|0,0:0|0:0,0:0:0:0:
212,314,86870,2,0,L|227:272,2,44.1599985175782,8|8|8,0:0|0:0|0:0,0:0:0:0:
326,72,87182,6,0,L|381:223,1,161.28000196875,4|0,0:2|0:0,0:0:0:0:
409,301,87495,5,8,0:0:0:0:
398,10,87651,1,8,0:0:0:0:
235,250,87807,1,8,0:0:0:0:
508,151,87964,1,8,0:0:0:0:
228,70,88120,6,0,P|133:61|66:128,1,195.840001195313,12|8,0:2|0:0,0:0:0:0:
18,298,88588,1,0,0:0:0:0:
18,15,88745,5,8,0:0:0:0:
170,162,88901,1,2,0:0:0:0:
2,0,89057,5,8,0:0:0:0:
185,176,89213,1,2,0:0:0:0:
429,107,89370,6,0,L|523:80,1,97.9200005976563,8|2,0:0|0:0,0:0:0:0:
341,263,89682,5,8,0:0:0:0:
272,19,89838,1,2,0:0:0:0:
219,298,89995,6,0,L|125:271,1,97.9200005976563,8|2,0:0|0:0,0:0:0:0:
418,132,90307,2,0,L|512:105,1,97.9200005976563,8|2,0:0|0:0,0:0:0:0:
230,323,90620,6,0,L|41:268,1,195.840001195313,12|8,0:0|0:0,0:0:0:0:
185,176,91088,1,0,0:0:0:0:
324,351,91245,5,8,0:0:0:0:
255,107,91401,1,2,0:0:0:0:
331,376,91557,5,8,0:0:0:0:
349,132,91713,1,2,0:0:0:0:
100,384,91870,5,8,0:0:0:0:
445,245,92026,1,2,0:0:0:0:
88,117,92182,5,8,0:0:0:0:
422,255,92338,1,2,0:0:0:0:
145,15,92495,6,0,L|111:106,1,97.9200005976563,8|2,0:0|0:0,0:0:0:0:
399,265,92807,2,0,L|365:174,1,97.9200005976563,8|2,0:0|0:0,0:0:0:0:
7,138,93120,6,0,P|71:206|165:197,1,195.840001195313,12|8,0:0|0:0,0:0:0:0:
329,81,93588,1,0,0:0:0:0:
230,323,93745,5,8,0:0:0:0:
110,106,93901,1,2,0:0:0:0:
147,375,94057,5,8,0:0:0:0:
264,155,94213,1,2,0:0:0:0:
495,384,94370,6,0,P|509:337|496:290,1,97.9200005976563,8|2,0:0|0:0,0:0:0:0:
191,256,94682,5,8,0:0:0:0:
416,336,94838,1,2,0:0:0:0:
266,63,94995,6,0,P|251:110|265:156,1,97.9200005976563,8|2,0:0|0:0,0:0:0:0:
512,384,95307,2,0,P|525:337|512:290,1,97.9200005976563,8|2,0:0|0:0,0:0:0:0:
348,111,95620,5,12,0:0:0:0:
275,346,95776,1,0,0:0:0:0:
429,201,95932,5,8,0:0:0:0:
191,256,96088,1,0,0:0:0:0:
355,87,96245,5,8,0:0:0:0:
268,369,96401,1,2,0:0:0:0:
452,195,96557,5,8,0:0:0:0:
166,262,96713,1,2,0:0:0:0:
29,0,96870,6,0,L|73:190,1,195.840001195313,12|8,0:0|0:0,0:0:0:0:
113,366,97338,1,2,0:0:0:0:
311,227,97495,6,0,L|216:250,1,97.9200005976563,8|8,3:0|3:2,0:0:0:0:
191,256,97729,1,8,3:2:0:0:
166,262,97807,1,8,3:2:0:0:
355,87,97963,1,8,3:2:0:0:
488,359,98120,6,0,P|511:267|451:194,1,195.840001195313,12|8,0:0|0:0,0:0:0:0:
327,308,98588,1,0,0:0:0:0:
456,92,98745,5,8,0:0:0:0:
314,329,98901,1,2,0:0:0:0:
355,87,99057,5,8,0:0:0:0:
301,350,99213,1,2,0:0:0:0:
194,104,99370,6,0,L|154:14,1,97.9200005976563,8|2,0:0|0:0,0:0:0:0:
100,277,99682,5,8,0:0:0:0:
283,176,99838,1,2,0:0:0:0:
11,205,99995,6,0,L|-24:296,1,97.9200005976563,8|2,0:0|0:0,0:0:0:0:
219,114,100307,2,0,L|179:23,1,97.9200005976563,8|2,0:0|0:0,0:0:0:0:
46,353,100620,6,0,P|138:362|193:286,1,195.840001195313,12|8,0:0|0:0,0:0:0:0:
11,205,101088,1,0,0:0:0:0:
193,285,101245,6,0,L|284:320,1,97.9200005976563,8|2,0:0|0:0,0:0:0:0:
129,159,101557,2,0,L|38:194,1,97.9200005976563,8|2,0:0|0:0,0:0:0:0:
304,89,101870,5,8,0:0:0:0:
75,1,102026,1,2,0:0:0:0:
365,167,102182,5,8,0:0:0:0:
136,79,102338,1,2,0:0:0:0:
434,61,102495,5,8,0:0:0:0:
345,290,102651,1,2,0:0:0:0:
512,0,102807,5,8,0:0:0:0:
424,229,102963,1,2,0:0:0:0:
242,0,103120,6,0,P|337:-13|407:51,1,195.840001195313,12|8,0:0|0:0,0:0:0:0:
319,280,103588,1,0,0:0:0:0:
304,89,103745,5,8,0:0:0:0:
416,346,103901,1,2,0:0:0:0:
167,341,104057,5,8,0:0:0:0:
424,229,104213,1,2,0:0:0:0:
47,201,104370,6,0,P|18:161|14:113,1,97.9200005976563,8|2,0:0|0:0,0:0:0:0:
140,330,104682,5,8,0:0:0:0:
195,98,104838,1,2,0:0:0:0:
285,367,104995,6,0,P|314:327|318:279,1,97.9200005976563,8|2,0:0|0:0,0:0:0:0:
33,214,105307,2,0,P|4:174|0:126,1,97.9200005976563,8|2,0:0|0:0,0:0:0:0:
404,212,105620,6,0,L|219:278,1,195.840001195313,12|8,0:0|0:0,0:0:0:0:
329,146,106088,1,0,0:0:0:0:
193,287,106245,5,8,0:0:0:0:
424,114,106401,1,2,0:0:0:0:
167,296,106557,5,8,0:0:0:0:
499,180,106713,1,2,0:0:0:0:
128,382,106870,6,0,P|79:329|81:257,1,146.880000896484,4|8,0:0|0:0,0:0:0:0:
64,188,107182,2,0,P|59:236|31:275,1,97.9200005976563,8|8,0:0|0:0,0:0:0:0:
9,111,107495,5,2,3:2:0:0:
42,96,107573,1,0,3:2:0:0:
78,94,107651,1,0,3:2:0:0:
113,107,107729,1,0,3:2:0:0:
140,132,107807,2,0,P|160:148|201:153,1,48.9600002988281,8|8,3:2|3:2,0:0:0:0:
308,24,107963,2,0,P|283:24|261:35,1,48.9600002988281,8|8,3:2|3:2,0:0:0:0:
64,188,108120,5,12,0:0:0:0:
92,0,108276,1,0,0:0:0:0:
276,302,108432,5,8,0:0:0:0:
304,114,108588,1,0,0:0:0:0:
80,202,108745,5,8,0:0:0:0:
108,14,108901,1,2,0:0:0:0:
292,316,109057,5,8,0:0:0:0:
320,128,109213,1,2,0:0:0:0:
114,288,109370,6,0,P|66:294|22:273,1,97.9200005976563,8|2,0:0|0:0,0:0:0:0:
124,28,109682,5,8,0:0:0:0:
200,164,109838,1,2,0:0:0:0:
113,303,109995,6,0,P|65:309|21:288,1,97.9200005976563,8|2,0:0|0:0,0:0:0:0:
259,230,110307,2,0,P|306:223|350:244,1,97.9200005976563,8|2,0:0|0:0,0:0:0:0:
498,382,110620,5,12,0:0:0:0:
470,123,110776,1,0,0:0:0:0:
257,343,110932,5,8,0:0:0:0:
364,106,111088,1,0,0:0:0:0:
507,383,111245,5,8,0:0:0:0:
479,125,111401,1,2,0:0:0:0:
248,341,111557,5,8,0:0:0:0:
354,105,111713,1,2,0:0:0:0:
441,257,111870,6,0,P|393:264|349:243,1,97.9200005976563,8|2,0:0|0:0,0:0:0:0:
234,31,112182,5,8,0:0:0:0:
151,240,112338,1,2,0:0:0:0:
36,27,112495,6,0,P|83:19|127:40,1,97.9200005976563,8|2,0:0|0:0,0:0:0:0:
347,259,112807,2,0,P|391:280|438:273,1,97.9200005976563,8|2,0:0|0:0,0:0:0:0:
47,340,113120,5,12,0:0:0:0:
226,112,113276,1,0,0:0:0:0:
253,310,113432,5,8,0:0:0:0:
19,141,113588,1,0,0:0:0:0:
37,351,113745,5,8,0:0:0:0:
234,101,113901,1,2,0:0:0:0:
265,319,114057,5,8,0:0:0:0:
6,133,114213,1,2,0:0:0:0:
296,2,114370,6,0,B|323:22|323:22|331:84,1,97.9200005976563,8|2,0:0|0:0,0:0:0:0:
136,230,114682,5,8,0:0:0:0:
364,198,114838,1,2,0:0:0:0:
37,351,114995,6,0,B|9:330|9:330|0:267,1,97.9200005976563,8|2,0:0|0:0,0:0:0:0:
311,0,115307,2,0,B|338:20|338:20|346:82,1,97.9200005976563,8|2,0:0|0:0,0:0:0:0:
265,319,115620,5,12,0:0:0:0:
121,117,115776,1,0,0:0:0:0:
267,338,115932,5,8,0:0:0:0:
347,83,116088,1,0,0:0:0:0:
270,358,116245,5,8,0:0:0:0:
121,117,116401,1,2,0:0:0:0:
273,378,116557,5,8,0:0:0:0:
347,83,116713,1,2,0:0:0:0:
496,323,116870,6,0,P|453:346|405:347,1,97.9200005976563,12|2,0:0|0:0,0:0:0:0:
377,336,117104,1,8,0:0:0:0:
377,336,117182,1,8,0:0:0:0:
251,213,117338,1,8,0:0:0:0:
41,366,117495,6,0,P|88:376|135:363,1,97.9200005976563,4|2,0:0|0:0,0:0:0:0:
159,345,117729,1,8,0:0:0:0:
159,345,117807,1,8,0:0:0:0:
248,192,117963,1,8,0:0:0:0:
496,323,118120,5,12,0:0:0:0:
431,78,118276,1,0,0:0:0:0:
315,274,118432,5,8,0:0:0:0:
250,29,118588,1,0,0:0:0:0:
483,339,118745,5,8,0:0:0:0:
418,94,118901,1,2,0:0:0:0:
302,290,119057,5,8,0:0:0:0:
237,45,119213,1,2,0:0:0:0:
384,180,119370,6,0,P|431:186|476:166,1,97.9200005976563,8|2,0:0|0:0,0:0:0:0:
166,274,119682,5,8,0:0:0:0:
326,107,119838,1,2,0:0:0:0:
108,201,119995,6,0,P|61:195|16:214,1,97.9200005976563,8|2,0:0|0:0,0:0:0:0:
386,198,120307,2,0,P|433:204|478:185,1,97.9200005976563,8|2,0:0|0:0,0:0:0:0:
74,287,120620,5,12,0:0:0:0:
328,125,120776,1,0,0:0:0:0:
207,356,120932,5,8,0:0:0:0:
194,55,121088,1,0,0:0:0:0:
61,295,121245,5,8,0:0:0:0:
340,116,121401,1,2,0:0:0:0:
208,371,121557,5,8,0:0:0:0:
193,40,121713,1,2,0:0:0:0:
339,294,121870,6,0,L|387:378,1,97.9200005976563,8|2,0:0|0:0,0:0:0:0:
352,107,122182,5,8,0:0:0:0:
170,211,122338,1,2,0:0:0:0:
461,101,122495,6,0,L|412:16,1,97.9200005976563,8|2,0:0|0:0,0:0:0:0:
317,288,122807,2,0,L|365:372,1,97.9200005976563,8|2,0:0|0:0,0:0:0:0:
77,114,123120,5,12,0:0:0:0:
11,352,123276,1,0,0:0:0:0:
0,31,123432,5,8,0:0:0:0:
66,269,123588,1,0,0:0:0:0:
227,114,123745,5,8,0:0:0:0:
161,352,123901,1,2,0:0:0:0:
150,31,124057,5,8,0:0:0:0:
216,269,124213,1,2,0:0:0:0:
454,203,124370,6,0,B|515:186|515:186|532:157,1,97.9200005976563,8|2,0:0|0:0,0:0:0:0:
301,116,124682,5,8,0:0:0:0:
368,354,124838,1,2,0:0:0:0:
211,252,124995,6,0,B|149:268|149:268|132:297,1,97.9200005976563,8|2,0:0|0:0,0:0:0:0:
459,220,125307,2,0,B|520:203|520:203|537:174,1,97.9200005976563,8|2,0:0|0:0,0:0:0:0:
136,314,125620,5,12,0:0:0:0:
464,237,125776,1,0,0:0:0:0:
166,137,125932,5,8,0:0:0:0:
494,60,126088,1,0,0:0:0:0:
304,251,126245,5,8,0:0:0:0:
244,1,126401,1,2,0:0:0:0:
82,253,126557,5,8,0:0:0:0:
22,3,126713,1,2,0:0:0:0:
58,341,126870,6,0,P|106:342|147:318,1,97.9200005976563,4|0,0:0|0:0,0:0:0:0:
171,230,127104,1,8,0:0:0:0:
171,230,127182,2,0,P|123:227|82:253,1,97.9200005976563,8|8,0:0|0:0,0:0:0:0:
387,384,127495,5,8,3:3:0:0:
475,231,127651,1,8,3:3:0:0:
323,143,127807,1,8,3:3:0:0:
234,295,127963,1,8,3:3:0:0:
355,263,128120,5,4,1:2:0:0:
256,192,128198,12,0,135620,0:0:0:0:
